#TITLE:Blow Me Up;
#SUBTITLE:;
#ARTIST:Sota Fujimori feat. Calin;
#TITLETRANSLIT:;
#SUBTITLETRANSLIT:;
#ARTISTTRANSLIT:;
#GENRE:CUTIE ELE POP;
#CREDIT:;
#MENUCOLOR:;
#NEWMETERSYSTEM:NO;
#BANNER:Blow Me Up.png;
#BACKGROUND:Blow Me Up-bg.png;
#LYRICSPATH:;
#CDTITLE:CDTitle.png;
#MUSIC:Blow Me Up.ogg;
#OFFSET:0.000;
#SAMPLESTART:65.540;
#SAMPLELENGTH:13.080;
#SELECTABLE:YES;
#LISTSORT:;
#BPMS:0.000=146.000;
#STOPS:;
#BGCHANGES:;
#ATTACKS:;

//---------------dance-single - DDRDAIKENKAI----------------
#NOTES:
     dance-single:
     DDRDAIKENKAI:
     Hard:
     8:
     0.617,0.636,0.407,0.575,0.160: // measure 1
0000
0000
0000
0000
,  // measure 2
0000
0000
0000
0000
,  // measure 3
0000
0000
0000
0000
,  // measure 4
0000
0000
0000
0000
,  // measure 5
1000
0001
0010
0100
1000
0001
0100
0000
,  // measure 6
0010
1000
0100
0010
0001
0100
0010
0000
,  // measure 7
1000
0001
0100
0000
0001
1000
0100
0000
,  // measure 8
2002
0000
0000
0000
3003
0000
0000
0000
1000
0000
1000
0000
0001
0010
0001
0010
,  // measure 9
0001
0000
0000
0000
0102
0000
0000
0000
1000
0000
0000
0000
0103
0000
0010
0100
,  // measure 10
0020
0000
0000
1030
0000
0000
0002
0000
0000
0000
0000
0000
1003
0010
1000
0010
,  // measure 11
0200
0000
0000
0301
0000
0000
0200
0000
0000
0000
0310
0000
1000
0000
0100
0000
,  // measure 12
0020
0000
0000
0000
0032
0000
0000
0000
0203
0000
0000
0000
0310
0000
0000
0110
,  // measure 13
0000
0000
0010
0000
2000
0000
0000
0000
0100
0000
0000
0000
3010
0000
1000
0100
,  // measure 14
2000
0000
0000
3100
0000
0000
0020
0000
0000
0000
0000
0000
0031
0100
0001
0100
,  // measure 15
0020
0000
0000
1030
0000
0000
0200
0000
0000
0000
1300
0000
0010
0000
0100
0000
,  // measure 16
0110
1010
0202
0303
,  // measure 17
1100
0000
0010
0001
0100
0010
1000
0100
,  // measure 18
2000
0000
3001
0002
1000
0000
0103
0000
,  // measure 19
1010
0000
1000
0010
0100
0001
0000
0001
,  // measure 20
0020
0000
0000
0000
0031
0000
2000
0000
0100
0000
0000
0000
3001
0000
0000
0011
,  // measure 21
0000
0010
0100
1000
0010
0100
0001
0010
,  // measure 22
0200
0000
0310
0002
0100
0000
1003
0000
,  // measure 23
1010
0000
1000
0001
0100
0001
0000
0001
,  // measure 24
0020
0000
0031
2000
0010
0000
3001
0001
,  // measure 25
0101
0000
0100
0001
0010
0100
1000
0001
,  // measure 26
0200
0000
0010
0320
0000
1030
1001
0000
,  // measure 27
1100
0000
0010
0001
1000
0001
0000
0001
,  // measure 28
0200
0000
0000
0000
0301
0000
0001
0000
1000
0000
0000
0000
1100
0000
0000
0011
,  // measure 29
0000
1001
1001
1000
0010
1000
0100
0001
,  // measure 30
0200
0000
0310
0020
0000
0031
1001
0000
,  // measure 31
0101
0000
1000
0100
1000
0001
0000
0001
,  // measure 32
0200
0000
0000
0000
0310
0000
2000
0000
0100
0000
0000
0000
3100
0010
0100
0000
,  // measure 33
1100
0000
0000
0000
0000
0000
0000
0000
1000
0001
0000
1000
0000
0000
0010
0000
,  // measure 34
0000
0000
0100
0000
0000
0000
0002
0000
0000
0000
0000
0000
1003
0000
0000
1001
,  // measure 35
0000
0000
0001
0000
0010
0000
0100
0000
1000
0010
0000
1000
0000
0000
1000
0000
,  // measure 36
0000
0000
0001
0000
0000
0000
0200
0000
0000
0000
0000
0000
0310
0000
0000
0110
,  // measure 37
0000
0000
0010
0000
1000
0000
0001
0000
0100
0001
0000
0100
0000
0000
0010
0000
,  // measure 38
0000
0000
1000
0000
0000
0000
0200
0000
0000
0000
0000
0000
1300
0000
0000
1010
,  // measure 39
0000
0000
0010
0000
0100
0000
0001
0000
0010
0000
0000
0001
0000
0000
0101
0000
,  // measure 40
0000
0010
0000
1100
0000
1001
0000
0101
,  // measure 41
0100
0001
1000
0000
0100
0010
0100
2000
,  // measure 42
0000
3001
0001
0000
0010
0001
0100
0020
,  // measure 43
0000
0130
0200
0000
0301
1000
0000
1002
,  // measure 44
0000
1003
1100
0000
0010
0001
0000
1002
,  // measure 45
0000
1003
1010
0000
0010
0001
0010
2000
,  // measure 46
0000
3001
0001
0000
0100
0001
0010
0200
,  // measure 47
0000
1300
1100
0000
1001
0000
0100
0101
,  // measure 48
0000
0001
0011
0000
0110
1100
0000
1002
,  // measure 49
0000
1000
1003
0010
0100
0001
1000
0200
,  // measure 50
0000
0010
0310
0001
1000
0100
0010
0002
,  // measure 51
0000
0010
0013
0100
1000
0001
0100
0020
,  // measure 52
0000
0100
0130
0001
1000
0010
0000
0120
,  // measure 53
0000
0100
0130
0010
1000
0001
0100
0002
,  // measure 54
0000
1000
1003
0001
0010
0100
1000
0020
,  // measure 55
0000
1030
1010
0000
1020
0000
1030
1020
,  // measure 56
0000
1030
0020
0030
0010
1000
1001
0000
,  // measure 57
0101
0000
0001
0000
2000
0000
0000
0000
0001
0000
0000
0000
3100
0000
0010
0001
,  // measure 58
0020
0000
0000
0130
0000
0000
2000
0000
0000
0000
3010
0000
0100
0001
0100
0010
,  // measure 59
2000
0000
0000
3100
0000
0000
0020
0000
0000
0000
0031
0000
0100
0000
1000
0000
,  // measure 60
0200
0000
0000
0000
0320
0000
0000
0000
2030
0000
0000
0000
3100
0000
0000
0110
,  // measure 61
0000
0000
0010
0000
0002
0000
0000
0000
0010
0000
0000
0000
0103
0000
0001
0100
,  // measure 62
0002
0000
0000
0013
0000
0000
0200
0000
0000
0000
0310
0000
0100
1000
0100
0010
,  // measure 63
0002
0000
0000
0013
0000
0000
0200
0000
0000
0000
1300
0000
0010
0000
1000
0000
,  // measure 64
1001
1010
0202
0303
,  // measure 65
1000
0100
1000
0010
0100
0001
1000
1000
,  // measure 66
0001
0010
0100
1000
0010
0100
0001
0001
,  // measure 67
0010
0001
0100
0010
1000
0100
0010
0010
,  // measure 68
0100
0000
1000
0000
0001
0000
0100
0000
0010
0000
1000
0000
0001
0000
0000
1001
,  // measure 69
0000
1000
0001
0100
1000
0100
0001
0001
,  // measure 70
1000
0010
1000
0100
0001
0100
1000
1000
,  // measure 71
0010
1000
0100
0010
0001
0100
0010
1000
,  // measure 72
2200
0000
0000
0000
3300
0000
0202
0000
0000
0000
0303
0000
1000
0001
1000
0001
,  // measure 73
0200
0000
0000
0000
,  // measure 74
0000
0000
0000
0000
,  // measure 75
0000
0000
0000
0000
,  // measure 76
0000
0000
0000
0000
0000
0000
0000
0000
0000
0000
0000
0000
0000
0000
0000
0300
;

//---------------dance-single - DDRDAIKENKAI----------------
#NOTES:
     dance-single:
     DDRDAIKENKAI:
     Medium:
     6:
     0.441,0.517,0.303,0.431,0.016:
0000
0000
0000
0000
,
0000
0000
0000
0000
,
0000
0000
0000
0000
,
0000
0000
0000
0000
,
1000
0001
0100
0000
0000
0010
0000
1000
,
0000
1000
0000
0001
0000
0000
0000
0000
,
0010
0001
0100
0000
0000
0010
0000
1000
,
0000
1000
0000
0001
0000
0000
1001
0000
,
0101
0000
1020
0000
1000
0000
1030
0100
,
0020
0000
0032
0000
0203
0000
0310
1000
,
0200
0000
2300
0000
3010
0100
0001
0001
,
0020
0000
0000
0000
0032
0000
0000
0000
0203
0000
0000
0000
0000
0000
0000
0300
,
0000
0000
1002
0000
1000
0000
1003
0001
,
0200
0000
0320
0000
2030
0000
3010
1000
,
0200
0000
0320
0000
0031
1000
0100
0000
,
0012
1000
0200
0303
,
1001
0000
1000
0000
0001
1000
0010
0000
,
0100
0001
0010
0100
,
0100
0000
1000
0000
0010
1000
0100
0000
,
0010
0001
0100
0010
,
0110
0000
0100
0000
0001
1000
0010
0000
,
1000
0001
0010
0100
,
1000
0000
0001
0000
1000
0001
0010
0000
,
0002
2003
0020
3030
,
1001
0000
0001
0000
1000
0001
0100
0000
,
0010
1000
0100
0010
,
0010
0000
0001
0000
0100
0001
0010
0000
,
0100
1000
0010
0100
,
0110
0000
0010
0000
1000
0001
0100
0000
,
0001
1000
0100
0010
,
0001
0000
1000
0000
0001
1000
0100
0000
,
2000
3002
0200
0303
,
0110
0000
0100
0001
,
0010
0000
0000
0000
0100
0000
0000
0000
1000
0000
0000
0000
0000
0000
0000
1001
,
0000
0001
0100
0010
,
1000
0000
0000
0000
0100
0000
0000
0000
0010
0000
0000
0000
0000
0000
0000
0110
,
0000
0010
0001
0100
,
0010
0000
0000
0000
1000
0000
0000
0000
0001
0000
0000
0000
0000
0000
0000
1001
,
0000
1000
0001
0100
,
0202
0000
0000
0303
0000
0000
0000
1010
,
0000
0000
0110
0000
0100
0001
0000
1001
,
0000
0000
0001
0000
0010
0100
0000
0110
,
0000
0000
0100
0000
1000
0010
0000
1010
,
0000
0000
0100
0000
0001
1000
0000
1001
,
0000
0000
0001
0000
1000
0001
0000
0101
,
0000
0000
0001
0000
1000
0100
0000
1100
,
0000
0000
0110
0000
0011
0000
0000
1001
,
0000
0000
1010
0000
0110
0000
0000
1001
,
0000
0000
1000
0000
0001
0001
0000
0100
,
0000
0010
0010
0000
1000
0100
1000
0100
,
0000
0100
1000
0000
1000
0000
0001
0100
,
0000
0100
0001
0000
0001
1000
0000
1001
,
0000
0000
0110
0000
0010
0100
0000
0100
,
0000
0100
0010
0000
0010
1000
0000
2010
,
0000
3010
0020
0000
2030
0000
3001
0020
,
0000
0031
0002
0000
0023
0030
0000
0000
,
0101
0000
1020
0000
1000
0000
1030
0100
,
0020
0000
0032
0000
0203
0000
0310
1000
,
0200
0000
2300
0000
3010
0100
0001
0001
,
0020
0000
0000
0000
0032
0000
0000
0000
0203
0000
0000
0000
0000
0000
0000
0300
,
0000
0000
1002
0000
1000
0000
1003
0001
,
0200
0000
0320
0000
2030
0000
3010
1000
,
0200
0000
0320
0000
0031
1000
0100
0000
,
0012
1000
0200
0303
,
0010
1000
0100
0000
0010
0100
1000
0000
,
0010
0100
0001
0000
0010
0001
0100
0000
,
0001
0010
0100
0000
1000
0001
0100
0000
,
0010
0000
1000
0000
0100
0000
0000
0000
1000
0000
1000
0000
1000
0000
0000
0100
,
0000
0100
1000
0000
0010
0100
0001
0000
,
0010
0100
1000
0000
0010
0100
0001
0000
,
0010
0001
0100
0000
0010
1000
0100
0000
,
2002
0000
3003
2020
0000
3030
0202
0000
,
0303
0000
0000
0000
;

//---------------dance-single - DDRDAIKENKAI----------------
#NOTES:
     dance-single:
     DDRDAIKENKAI:
     Easy:
     3:
     0.287,0.344,0.136,0.128,0.000:
0000
0000
0000
0000
,
0000
0000
0000
0000
,
0000
0000
0000
0000
,
0000
0000
0000
0000
,
1000
1000
1000
1000
,
0001
0001
0001
0001
,
0100
0100
0100
0100
,
0220
0330
0010
0010
,
1001
0000
1000
1000
,
0001
0100
0010
0000
,
1000
0001
1000
0001
,
0010
0001
0100
0000
,
0000
1001
0001
1000
,
0100
0010
0100
0000
,
1000
0010
0100
0001
,
1000
0001
0200
0300
,
1001
0000
1000
1000
,
0100
0010
0002
0003
,
0100
0000
0010
0010
,
1000
0010
0200
0300
,
0010
0000
1000
0100
,
0010
0001
0200
0300
,
0001
0000
1000
0001
,
0010
0010
0020
0030
,
1001
0000
0001
0100
,
0010
1000
0200
0300
,
0110
0000
0100
1000
,
0010
0100
0001
0000
,
1001
0000
0001
1000
,
0010
0100
0002
0003
,
1001
0000
0001
0100
,
0010
1000
0002
0003
,
1001
0000
1000
0000
,
0100
0000
0010
0000
,
0110
0000
0001
0000
,
0100
0000
0010
0000
,
0110
0000
1000
0000
,
0010
0000
0100
0000
,
0110
0000
0001
0000
,
0100
0000
0010
0000
,
1001
0001
1000
0100
,
1000
1000
0001
0100
,
0001
0001
1000
0001
,
0100
0100
0010
0000
,
0110
0000
0010
0010
,
1000
0001
0100
0100
,
0010
0010
0010
1000
,
0010
0010
0010
0000
,
0110
0010
0100
0001
,
0010
0001
0100
0010
,
1000
0100
0010
0001
,
0100
0010
1000
0000
,
1001
0001
0010
0001
,
0100
0001
1000
0100
,
0010
0010
0010
0001
,
0010
0010
0020
0030
,
0001
1000
0100
0000
,
0100
1000
0001
0000
,
0001
0100
0010
1000
,
0001
1000
0001
0000
,
1000
0001
0100
0000
,
0100
0001
1000
0000
,
1000
0010
0100
0001
,
0020
0032
0203
0300
,
0010
1000
0100
0010
,
0100
1000
0010
0100
,
0001
0010
0100
1000
,
0010
0100
0001
1000
,
1000
0001
0100
0010
,
1000
0100
0010
0001
,
1000
0001
1000
0001
,
2002
0000
0000
3003
;
