#TITLE:Black Winter Night Sky;
#SUBTITLE:;
#ARTIST:NAMCO Sound Team;
#TITLETRANSLIT:;
#SUBTITLETRANSLIT:;
#ARTISTTRANSLIT:;
#GENRE:;
#CREDIT:;
#MENUCOLOR:;
#BANNER:Black Winter Night Sky.png;
#BACKGROUND:Black Winter Night Sky-bg.png;
#LYRICSPATH:;
#CDTITLE:CDTitle.png;
#MUSIC:Black Winter Night Sky.ogg;
#OFFSET:0.020;
#SAMPLESTART:15.980;
#SAMPLELENGTH:16.020;
#SELECTABLE:YES;
#LISTSORT:;
#BPMS:0.000=120.000;
#STOPS:;
#TICKCOUNT:0.000=2;
#BGCHANGES:0.000=Black Winter Night Sky.avi=1.000=1=1=0,
156.000=Black Winter Night Sky-bg.png=1.000=1=0=1,
161.021=Black Winter Night Sky-bg.png=1.000=0=0=1,
99999=-nosongbg-=1.000=0=0=0 // don't automatically add -songbackground-
;
#KEYSOUNDS:;
#ATTACKS:;

//---------------dance-single - DDRDAIKENKAI----------------
#NOTES:
     dance-single:
     DDRDAIKENKAI:
     Challenge:
     10:
     0.704,1.000,0.131,0.762,0.971: // measure 1
0000
0000
0000
0000
,  // measure 2
0000
0000
0000
0000
,  // measure 3
0000
0000
0000
0000
,  // measure 4
0000
0000
0000
0000
0000
0000
0000
0000
0000
0000
0000
0000
0000
0000
0000
0001
,  // measure 5
0100
0010
1000
0100
,  // measure 6
0010
0000
0000
0000
0001
0000
0000
0000
0100
0000
0000
0000
0010
1000
0000
1000
,  // measure 7
0100
1000
0100
0001
,  // measure 8
0100
0000
0000
0000
0000
0000
0000
0000
0000
0000
0000
0000
1000
0000
0000
0000
0000
0000
0000
0000
0000
0000
0000
0000
0010
0000
1000
0000
0010
0000
1000
0000
0000
0100
0000
0000
0010
0000
0000
0001
0000
0000
0000
0000
0000
0100
0000
0000
,  // measure 9
0001
0100
0001
0100
0020
1000
0030
0010
1000
0100
1000
0010
0100
0010
1000
0001
,  // measure 10
0100
0010
0100
0001
0200
0010
0300
0010
1000
0100
1000
0100
0010
0001
0010
0100
,  // measure 11
1000
0010
0100
0010
0200
0001
0300
0001
0100
0001
0100
0010
1000
0100
1000
0100
,  // measure 12
1000
0010
0000
0100
0000
0001
0000
0010
1000
0010
0001
0100
0010
0100
0001
0000
,  // measure 13
1000
0100
0010
0001
0200
0010
0300
0010
0100
0010
0100
0001
1000
0001
0100
0010
,  // measure 14
1000
0100
1000
0001
0200
0001
0300
0010
0001
0010
0100
1000
0100
1000
0001
0100
,  // measure 15
0001
0010
0001
0100
0020
1000
0030
0010
1000
0100
1000
0100
0010
0001
0010
0001
,  // measure 16
0100
0010
0000
1000
0000
0010
0000
0100
0010
0100
0000
0010
1000
0100
1000
0100
,  // measure 17
2000
0000
0000
0000
3100
1000
0000
0001
0000
0000
0000
0000
0001
1000
0100
0000
,  // measure 18
1000
0000
0000
0000
0000
0000
0100
0000
0000
0000
0010
0000
0001
0000
0000
0000
0000
0000
0100
0000
0000
0000
0000
0000
0010
0000
0000
0000
0000
0000
0100
0000
0000
0000
0000
0000
0001
0000
0000
0000
0000
0000
1000
0000
0000
0100
0000
0000
,  // measure 19
2000
0000
0000
0100
0000
3100
0000
0100
0010
0100
0000
0010
0000
0001
0000
0000
,  // measure 20
0012
0000
0000
0100
0003
0000
0010
0000
1020
0000
0000
0000
1030
0000
0000
1000
,  // measure 21
0200
0000
0000
0000
0310
0001
0000
0010
0000
0000
0000
0000
0100
1000
0100
0000
,  // measure 22
1000
0000
0001
0100
0000
0010
0000
1000
0000
1000
0010
0000
0100
0000
0001
0000
,  // measure 23
0201
0000
0000
0000
0310
1000
0000
0100
0000
1000
0000
0010
0000
1000
0001
0000
,  // measure 24
0012
0000
0000
0000
0000
0000
0000
0000
0000
0203
0000
0000
0000
0000
0000
0000
0000
0000
0310
0000
0000
0000
0000
0000
2010
0000
0000
0000
0000
0000
3100
0000
0010
0000
0100
0000
0010
0000
0000
0001
0000
0000
1000
0000
0000
0000
0000
0000
,  // measure 25
1002
0000
1000
0000
1000
0000
1003
0001
,  // measure 26
0020
0000
0000
0000
0130
0000
0000
0000
2000
0000
0000
0000
3100
0010
0000
0010
,  // measure 27
0002
0000
0000
0000
0103
0000
0000
0000
0100
0010
0100
0001
1000
0001
0010
0001
,  // measure 28
1000
0100
0010
0100
1000
0001
0010
0001
0100
0010
1000
0001
1000
0001
0000
0100
,  // measure 29
0002
0000
0000
0203
0000
0000
0320
0000
0000
0000
0000
0000
1030
0000
0000
0000
,  // measure 30
0010
1000
0100
1000
0100
0010
0001
1000
0020
0000
0000
0230
0000
0000
0302
0000
,  // measure 31
0023
0000
0000
0032
0000
0000
0203
0000
0320
0000
0000
2030
0000
0000
3200
0000
,  // measure 32
0310
0000
0000
1001
0000
0000
2002
0000
0000
0000
0000
0000
3000
0000
0000
0000
,  // measure 33
0203
0010
0000
0010
,  // measure 34
0300
0000
0010
1000
0000
0100
0000
1000
0000
0000
0010
0000
0100
0000
0001
0000
,  // measure 35
0200
0320
2030
3200
1300
0020
0230
0302
0103
0020
2030
3002
0023
0032
2003
3200
,  // measure 36
1300
0020
1030
0002
1003
0020
1030
0020
1030
0002
2003
3020
1030
0001
0000
0001
,  // measure 37
0100
0010
1000
0000
1010
0000
0010
1000
0000
1000
0100
0010
0000
0100
0010
0001
,  // measure 38
0000
0012
0000
1003
0000
1020
0000
0230
0000
0310
1000
0010
1000
0001
0000
0001
,  // measure 39
0200
0320
2030
3200
0000
0310
0000
0001
0000
1000
0100
2000
0000
3100
0010
0000
,  // measure 40
0002
0000
0000
0000
,  // measure 41
0000
0003
0000
0000
;

//---------------dance-single - DDRDAIKENKAI----------------
#NOTES:
     dance-single:
     DDRDAIKENKAI:
     Hard:
     7:
     0.461,0.527,0.036,0.274,0.286:
0000
0000
0000
0000
,
0000
0000
0000
0000
,
0000
0000
0000
0000
,
0000
0000
0000
0000
,
0000
0000
0000
0000
,
0000
0000
0000
0000
,
1000
0100
1000
0000
0100
0000
0100
0010
0000
0010
0001
0000
0100
0000
0010
0000
,
1000
0000
0001
0000
0100
0000
0001
0000
0010
0000
0100
0000
1000
0010
0000
0010
,
1000
0000
0001
0000
0100
0010
0000
0100
0010
0000
1000
0000
0100
0000
0001
0000
,
0100
0000
1000
0000
0001
0010
0000
0001
0010
0000
0001
0000
0100
0000
0010
0000
,
1000
0000
0100
0000
0010
0100
0000
0010
0100
0000
1000
0000
0010
0000
1000
0000
,
0100
0000
0010
0000
0001
0100
0000
0001
0100
0000
0010
0000
1000
0000
0001
0000
,
1000
0000
0010
0000
0100
0010
0000
0100
0001
0000
0100
0000
0010
0000
1000
0000
,
0100
0000
0010
0000
0100
1000
0000
0100
0010
0000
0001
0000
0010
0000
0100
0000
,
1000
0000
0010
0000
1000
0001
0000
0100
0001
0000
1000
0000
0001
0000
0010
0000
,
0001
0000
0100
0000
0010
1000
0000
0100
1000
0001
0000
0001
1000
0001
1000
0001
,
0200
0010
1000
0301
,
0000
0000
1000
0100
1000
0000
0100
0000
0010
0000
0001
0000
0100
0000
0010
0000
,
2000
0001
0010
0100
,
3002
0000
0000
0100
0000
0000
0103
0000
0020
0000
0000
0000
2030
0000
0000
3000
,
0200
0010
0001
0310
,
0001
0000
0010
0001
0000
0010
0000
0100
0000
0000
1000
0000
0010
0000
0100
0000
,
0002
0000
0000
0000
1000
0000
0000
0000
1003
0000
0000
0000
1000
0001
1000
0000
,
0020
0000
0000
0100
0030
0000
0100
0000
0002
0000
0000
0000
1003
0000
0000
0000
,
0010
0100
0001
0010
0001
0100
0010
1000
,
0100
0000
1000
0000
0010
0000
0100
0000
0001
0000
0100
0000
0000
0010
0000
0000
,
1000
0100
1000
0001
1000
0100
1000
0010
,
0100
0000
0001
0000
0100
0000
0010
0000
1000
0000
0100
0000
0010
0001
0000
0001
,
2000
0000
0000
3020
0000
0000
0130
0000
0001
0000
0000
0000
0010
0000
0000
0000
,
0100
0000
1000
0000
0100
0000
0010
0000
0002
0000
0000
0020
0003
0000
0130
0000
,
0020
0000
0000
0032
0000
0000
0203
0000
0320
0000
0000
2030
0000
0000
3200
0000
,
0310
0000
0000
1001
0000
0000
2002
0000
0000
0000
0000
0000
3000
0000
0000
0000
,
0203
0010
0000
0010
,
0000
0300
0010
1000
0000
0100
0000
1000
0000
0000
0010
0000
0100
0000
0001
0000
,
0010
0001
0100
0010
1000
0010
0100
0001
,
0010
0100
1000
0010
0100
0010
1000
0100
,
0010
0001
0010
0000
0001
0000
0001
0010
0000
0010
0100
0000
1000
0000
0010
0000
,
0100
0000
0010
0000
0001
0000
0010
0000
0100
0000
0010
0000
1000
0001
0000
0001
,
1000
0100
0010
0001
0100
0010
1000
1001
,
0002
0000
0000
0000
,
0000
0003
0000
0000
;

//---------------dance-single - DDRDAIKENKAI----------------
#NOTES:
     dance-single:
     DDRDAIKENKAI:
     Medium:
     5:
     0.330,0.360,0.107,0.167,0.000:
0000
0000
0000
0000
,
0000
0000
0000
0000
,
0000
0000
0000
0000
,
0000
0000
0000
0000
,
0010
1000
0100
1000
,
0010
0100
0001
0100
,
0001
0010
0001
0100
,
0010
1000
0100
1000
,
0001
0010
0001
0000
1000
1000
1000
0000
,
0010
0100
0010
0000
1000
1000
1000
0000
,
0001
0010
0100
0000
0010
0010
0010
0000
,
0001
1000
0010
0000
0100
0100
0100
0000
,
0001
1000
0001
0000
1000
1000
1000
0000
,
0010
1000
0001
0000
0100
0100
0100
0000
,
0001
0010
0001
0000
0100
0100
0100
0000
,
0010
1000
0100
0000
0010
0010
0010
0000
,
0002
1000
0000
1003
,
0020
0100
0000
0130
,
0002
0010
0000
0013
,
0200
1300
2000
3010
,
0020
0100
0000
0130
,
0200
0001
0000
0301
,
0002
1000
0000
1003
,
2000
3001
0001
1001
,
2000
3010
0020
0130
,
0200
0301
0002
1003
,
1000
0010
1000
0010
1000
0001
1000
0000
,
0001
0010
0001
0010
0001
1000
0001
0000
,
0010
1001
0100
1001
,
0010
1000
0010
0000
1000
0001
0100
0000
,
0001
0011
0100
0110
,
0010
1000
0010
0000
1000
0100
1000
0000
,
0001
1100
0010
0101
,
1000
0011
0100
1010
,
1000
0001
1000
0000
0001
1000
0001
0000
,
0100
0010
0100
0000
0010
0100
0010
0000
,
1000
0100
1000
0000
1000
0010
1000
0000
,
1000
0001
1000
0000
1000
0100
1000
0000
,
1000
0100
0010
0000
0010
0001
0100
0000
,
0020
0000
0000
0000
,
0000
0030
0000
0000
;

//---------------dance-single - DDRDAIKENKAI----------------
#NOTES:
     dance-single:
     DDRDAIKENKAI:
     Beginner:
     1:
     0.145,0.192,0.012,0.119,0.000:
0000
0000
0000
0000
,
0000
0000
0000
0000
,
0000
0000
0000
0000
,
0000
0000
0000
0000
,
0000
0000
0000
0000
,
0000
0000
0000
0000
,
0000
0000
0000
0000
,
0000
0000
0000
0000
,
1000
1000
0000
0001
,
0000
1000
0000
0001
,
0000
1000
0000
0001
,
0000
1000
0000
0001
,
0000
0100
0000
0010
,
0000
0100
0000
0010
,
0000
0100
0000
0010
,
0000
0100
0000
0010
,
0020
0000
0030
0000
,
0200
0000
0300
0000
,
0002
0000
0003
0000
,
2000
0000
3000
0000
,
0020
0000
0030
0000
,
0200
0000
0300
0000
,
0002
0000
0003
0000
,
2000
0000
3000
0000
,
0001
0001
0001
0001
,
0001
0001
0001
0000
,
1000
1000
1000
1000
,
1000
1000
1000
0000
,
0010
0010
0010
0010
,
0010
0010
0010
0000
,
0100
0100
0100
0100
,
0100
0100
0100
0000
,
0001
0000
0001
0000
,
1000
0000
1000
0000
,
0010
0010
0010
0010
,
0010
0010
0010
0000
,
0100
0100
0100
0100
,
0100
0100
0100
0000
,
0001
0000
1000
0000
,
2002
0000
0000
0000
,
0000
0000
0000
0000
0000
0000
0000
0000
0000
0000
0000
0000
0000
0000
0000
0000
0000
0000
0000
0000
0000
0000
0000
0000
0000
0000
0000
0000
0000
0000
0000
0000
0000
0000
0000
0000
0000
0000
0000
0000
0000
0000
0000
0000
0000
0000
0000
0000
3000
0003
0000
0000
0000
0000
0000
0000
0000
0000
0000
0000
0000
0000
0000
0000
0000
0000
0000
0000
0000
0000
0000
0000
0000
0000
0000
0000
0000
0000
0000
0000
0000
0000
0000
0000
0000
0000
0000
0000
0000
0000
0000
0000
0000
0000
0000
0000
0000
0000
0000
0000
0000
0000
0000
0000
0000
0000
0000
0000
0000
0000
0000
0000
0000
0000
0000
0000
0000
0000
0000
0000
0000
0000
0000
0000
0000
0000
0000
0000
0000
0000
0000
0000
0000
0000
0000
0000
0000
0000
0000
0000
0000
0000
0000
0000
0000
0000
0000
0000
0000
0000
0000
0000
0000
0000
0000
0000
0000
0000
0000
0000
0000
0000
0000
0000
0000
0000
0000
0000
0000
0000
0000
0000
0000
0000
0000
0000
0000
0000
0000
0000
0000
0000
0000
0000
0000
0000
0000
0000
0000
0000
0000
0000
;

//---------------dance-single - DDRDAIKENKAI----------------
#NOTES:
     dance-single:
     DDRDAIKENKAI:
     Easy:
     3:
     0.254,0.360,0.024,0.262,0.000:
0000
0000
0000
0000
,
0000
0000
0000
0000
,
0000
0000
0000
0000
,
0000
0000
0000
0000
,
1000
1000
0001
0001
,
1000
0001
1000
0001
,
0100
0100
0010
0010
,
0100
0010
0100
0110
,
0010
1000
0100
1000
,
0010
0100
0001
0100
,
0010
1000
0100
1000
,
0010
0100
0001
0100
,
0010
1000
0001
0010
,
0001
0100
0010
1000
,
0010
1000
0001
0010
,
0001
0100
0010
1000
,
0002
1003
0000
1000
,
0000
0001
0000
0100
,
0200
0310
0000
0010
,
2000
3001
0002
1003
,
2000
3010
0000
0010
,
0010
1000
1000
0001
,
0002
1003
0000
1000
,
0200
0310
0020
0031
,
2000
0000
0000
0000
,
0000
0000
3020
0230
,
0302
0003
2000
3020
,
2030
3002
2003
3002
,
0103
0100
0001
0001
,
1000
1000
0100
0100
,
0010
0001
1000
0010
,
0100
0100
0010
0110
,
0020
1000
0000
1030
,
2000
0001
0001
0001
,
3001
0100
1000
0100
,
0001
0010
1000
0010
,
0001
0100
1000
0010
,
0001
0010
1000
0100
,
0002
0000
0000
0000
0000
0000
0000
0003
,
0200
0000
0000
0000
,
0000
0300
0000
0000
;
