#TITLE:Black Out Fall Out;
#SUBTITLE:;
#ARTIST:Polysics;
#TITLETRANSLIT:;
#SUBTITLETRANSLIT:;
#ARTISTTRANSLIT:;
#GENRE:;
#CREDIT:;
#BANNER:;
#BACKGROUND:;
#LYRICSPATH:;
#CDTITLE:;
#MUSIC:Black Out Fall Out.ogg;
#OFFSET:0.020;
#SAMPLESTART:40.400;
#SAMPLELENGTH:11.800;
#SELECTABLE:YES;
#BPMS:0.000=166.000;
#STOPS:;
#TIMESIGNATURES:0.000=4=4
;
#BGCHANGES:;
#KEYSOUNDS:;
#ATTACKS:;

//---------------dance-single - DDRDAIKENKAI----------------
#NOTES:
     dance-single:
     DDRDAIKENKAI:
     Hard:
     8:
     0.718,0.823,0.242,1.000,0.053,381.000,25.000,113.000,61.000,4.000,0.000,-1.000,-1.000,0.718,0.823,0.242,1.000,0.053,381.000,25.000,113.000,61.000,4.000,0.000,-1.000,-1.000: // measure 1
0000
0000
0000
0000
,  // measure 2
0000
0000
0000
0000
,  // measure 3
0000
0000
0000
0000
,  // measure 4
1010
0011
1010
0011
,  // measure 5
0001
1000
0100
0000
1000
0001
0100
0000
,  // measure 6
0010
1000
0100
0000
1000
0010
1000
0000
,  // measure 7
1000
0100
0010
0000
0100
1000
0010
0000
,  // measure 8
0100
0001
1000
0000
0100
1000
0001
0000
,  // measure 9
0011
0011
0101
0101
,  // measure 10
0001
0100
0010
1000
0100
0010
0001
0000
,  // measure 11
1100
1100
1010
1010
,  // measure 12
2000
3200
0320
0230
2300
3020
0230
0302
,  // measure 13
0023
0000
0001
0030
0002
0100
0000
0100
,  // measure 14
0003
0200
0010
0000
0310
1000
0100
1000
,  // measure 15
0020
2030
3200
0320
,  // measure 16
0001
0000
0031
0100
0000
1020
0000
0000
,  // measure 17
2030
0000
0100
0000
3200
1000
0000
1300
,  // measure 18
0000
0020
0100
0000
0130
0001
1000
0001
,  // measure 19
0200
0320
2030
3020
,  // measure 20
2030
0000
3001
0010
0000
2200
3300
0000
,  // measure 21
1010
0000
0101
0000
0010
0001
0100
0000
,  // measure 22
0100
0001
0010
0100
0010
0100
1000
0000
,  // measure 23
1020
0000
1030
0001
0100
0010
1000
0000
,  // measure 24
2001
0000
3001
1000
0010
0100
0001
0000
,  // measure 25
0011
0000
1010
0000
1000
0010
0001
0000
,  // measure 26
0001
1000
0100
0000
0100
0000
1010
0000
,  // measure 27
1002
0000
0013
0001
0100
0010
1000
0000
,  // measure 28
2010
0000
3010
0100
0001
1000
0200
0000
,  // measure 29
0310
0010
0200
0000
1300
1000
0002
0000
,  // measure 30
0103
0100
0020
0000
1030
1000
0200
0000
,  // measure 31
0310
0010
0002
0000
1003
1000
0002
0000
,  // measure 32
0103
0100
0020
0000
1030
1000
0200
0000
,  // measure 33
0310
0010
0200
0000
1300
1000
0200
0000
,  // measure 34
0310
0010
0002
0000
1003
1000
0020
0000
,  // measure 35
0230
0302
0023
0230
,  // measure 36
2300
3002
0023
0032
0023
0230
2300
3200
,  // measure 37
1300
0000
0002
0000
1003
0010
1000
0020
,  // measure 38
0000
0000
1030
0000
0000
1000
0010
0100
,  // measure 39
0001
0010
0002
0000
0100
0000
1000
0000
,  // measure 40
0203
0000
0000
0310
0000
0010
0100
0010
,  // measure 41
1000
0000
0002
0000
0103
0001
0100
0002
,  // measure 42
0000
0000
0103
0000
0000
0100
0001
0010
,  // measure 43
0002
1003
0010
0010
,  // measure 44
0100
0000
0001
0010
0000
1200
0000
0000
,  // measure 45
2300
0000
0M00
0000
0020
0000
300M
0000
M002
0000
0030
0M00
0020
0000
0003
0000
,  // measure 46
200M
0000
0030
0000
00M2
0000
3000
0000
M020
0000
0003
0M00
0002
0000
0030
0000
,  // measure 47
20M0
0M03
002M
3000
2M00
0030
02M0
3000
,  // measure 48
M310
0100
1000
0010
0100
M0M1
2000
0000
,  // measure 49
3200
M000
0020
0300
0M02
0030
20M0
0003
,  // measure 50
002M
0000
3000
0M00
2000
0000
003M
0000
02M0
0000
3000
000M
2000
0000
0300
0000
,  // measure 51
0M20
3000
0000
2030
01M0
3010
M002
0000
,  // measure 52
0013
010M
1000
0001
0100
0010
1M0M
0000
,  // measure 53
1002
0000
1000
0000
1003
0100
2000
0000
,  // measure 54
3010
1000
0020
0000
0130
0001
0200
0000
,  // measure 55
0301
0010
0002
0000
0013
0100
0020
0000
,  // measure 56
0130
1000
0200
0000
1300
0010
1000
0100
,  // measure 57
0010
0001
0200
0000
0310
1000
0002
0000
,  // measure 58
0103
0010
0200
0000
0320
0000
2030
0000
,  // measure 59
3002
0023
0230
0320
,  // measure 60
0031
0100
0010
1000
0100
0010
0100
1000
,  // measure 61
0010
0100
0010
0100
00M1
1000
010M
1000
,  // measure 62
0100
M010
0100
0010
0M01
1000
00M1
1000
,  // measure 63
0001
M010
0001
0010
010M
1000
0100
10M0
,  // measure 64
0001
0100
M001
0100
0010
1M00
0010
1000
,  // measure 65
00M1
1000
0M01
1000
0010
010M
0010
M100
,  // measure 66
0001
10M0
0001
1M00
0010
100M
0001
1M00
,  // measure 67
001M
0100
M010
0100
00M1
1000
0M10
0100
,  // measure 68
0002
0023
023M
23M0
3200
M320
0M32
10M3
,  // measure 69
2000
0000
0000
0000
0100
0000
0000
0000
0000
0000
0000
0000
0000
0000
0000
0000
0000
0000
0000
0000
0000
0000
0000
0000
0000
0000
0000
0000
0000
0000
0000
0000
0000
0000
0000
0000
0000
0000
0000
0000
0000
0000
0100
0000
0000
0000
0000
0000
0000
0000
0000
0000
0000
0000
0000
0000
0000
0000
0000
0000
0000
0000
0000
0000
0000
0000
0000
0000
0000
0000
0000
0000
0000
0000
0000
0000
0000
0000
0000
0000
0000
0000
0000
0000
0100
0000
0000
0000
0000
0000
0000
0000
0000
0000
0000
0000
0000
0000
0000
0000
0000
0000
0000
0000
0000
0000
0000
0000
0000
0000
0000
0000
0000
0000
0000
0000
0000
0000
0000
0000
0000
0000
0000
0000
0000
0000
0100
0000
0000
0000
0000
0000
0000
0000
0000
0000
0000
0000
0000
0000
0000
0000
0000
0000
0000
0000
0000
0000
0000
0000
0000
0000
0000
0000
0000
0000
0000
0000
0000
0000
0000
0000
0000
0000
0000
0000
0000
0000
0200
0000
0000
0000
0000
0000
0000
0000
0000
0000
0000
0000
0000
0000
0000
0000
0000
0000
0000
0000
0000
0000
0000
0000
,  // measure 70
0000
0000
0000
0000
0000
0000
0000
0000
0000
0000
0000
0000
0000
0000
0000
0000
0000
0000
0001
0000
0000
0000
0000
0000
0000
0000
0000
0000
0000
0000
0000
0000
0000
0000
0000
0000
0000
0000
0000
0000
0000
0000
0000
0000
0000
0000
0000
0000
0000
0000
0000
0000
0000
0000
0000
0000
0000
0000
0000
0000
0000
0000
0000
0000
0000
0000
0001
0000
0000
0000
0000
0000
0000
0000
0000
0000
0000
0000
0000
0000
0000
0000
0000
0000
0000
0000
0000
0000
0000
0000
0000
0000
0000
0000
0000
0000
0000
0000
0000
0000
0000
0000
0000
0000
0000
0000
0000
0000
0000
0000
0000
0000
0002
0000
0000
0000
0000
0000
0000
0000
0000
0000
0000
0000
0000
0000
0000
0000
0000
0000
0000
0000
0000
0000
0000
0000
0000
0000
0000
0000
0000
0000
0000
0000
0000
0000
0000
0000
0000
0000
0000
0000
0000
0000
0000
0000
0000
0000
0000
0000
0000
0000
0000
0000
0000
0000
0000
0000
0000
0000
0000
0000
0000
0000
0000
0000
0000
0000
0000
0000
0000
0000
0000
0000
0000
0000
0000
0000
0000
0000
0000
0000
,  // measure 71
0000
0000
0000
0000
3313
0000
0000
MMMM
;

//---------------dance-single - DDRDAIKENKAI----------------
#NOTES:
     dance-single:
     DDRDAIKENKAI:
     Medium:
     6:
     0.586,0.546,0.145,1.000,0.000,289.000,15.000,120.000,0.000,0.000,0.000,-1.000,-1.000,0.586,0.546,0.145,1.000,0.000,289.000,15.000,120.000,0.000,0.000,0.000,-1.000,-1.000: // measure 1
0000
0000
0000
0000
,  // measure 2
0000
0000
0000
0000
,  // measure 3
0000
0000
0000
0000
,  // measure 4
1100
0101
1100
0101
,  // measure 5
0002
2003
3002
0203
,  // measure 6
0320
2030
3002
2003
,  // measure 7
3020
2030
3002
0203
,  // measure 8
0302
2003
3002
0023
,  // measure 9
0032
2003
3020
0230
,  // measure 10
0320
2030
3002
2003
,  // measure 11
3020
0230
0320
2030
,  // measure 12
3001
0010
0001
0010
0001
0010
0001
0010
,  // measure 13
0002
0000
0103
0000
0100
0001
0000
2000
,  // measure 14
0000
0000
0000
0000
3000
0000
0010
1000
,  // measure 15
0020
2030
3200
0320
,  // measure 16
0001
0030
0001
0100
0000
0102
0000
0000
,  // measure 17
2003
0000
0010
0000
3010
1000
0000
0200
,  // measure 18
0000
0000
0000
0300
0000
0000
1000
0001
,  // measure 19
2000
3002
0203
0320
,  // measure 20
2030
0000
3001
0010
0000
0022
0033
0000
,  // measure 21
0001
0001
1000
1000
,  // measure 22
0001
1000
0001
0000
1000
0000
1001
0000
,  // measure 23
0110
0000
0010
0100
0010
0000
0110
0000
,  // measure 24
0110
0000
0100
0010
0100
0000
0110
0000
,  // measure 25
1001
1000
0001
1000
,  // measure 26
0001
1000
0001
0000
1000
0001
1000
0000
,  // measure 27
0110
0000
0010
0100
0010
0100
0010
0000
,  // measure 28
1000
0001
1000
0001
1000
0001
1000
0000
,  // measure 29
0002
0203
0302
2003
,  // measure 30
3002
0023
0032
2003
,  // measure 31
3020
2030
3002
0203
,  // measure 32
0320
2030
3002
2003
,  // measure 33
3020
2030
3002
0203
,  // measure 34
0320
2030
3002
2003
,  // measure 35
3020
0230
0320
2030
,  // measure 36
3010
1000
0010
1000
0010
1000
0010
1000
,  // measure 37
0010
0000
0010
0000
1000
0010
1000
0020
,  // measure 38
0000
0000
0030
0000
0000
0100
0001
0100
,  // measure 39
0002
1003
0001
0001
,  // measure 40
0100
0000
0000
0001
0000
0100
0010
0100
,  // measure 41
0010
0000
1000
0000
0001
0010
0001
0020
,  // measure 42
0000
0000
0030
0000
0000
0001
1000
0001
,  // measure 43
1000
0001
0100
0010
,  // measure 44
1000
0000
0001
0010
0000
0011
0000
0000
,  // measure 45
0001
0010
0001
1000
,  // measure 46
0010
1000
0001
0100
,  // measure 47
0010
1000
0001
0100
,  // measure 48
0001
0000
0010
0000
0100
1000
0100
0000
,  // measure 49
0010
0001
0100
0010
,  // measure 50
1000
0010
0100
0001
,  // measure 51
0011
0000
0000
0001
0000
1000
0100
0000
,  // measure 52
2000
0000
3000
0002
0000
0003
0200
0000
,  // measure 53
0302
1000
1000
2003
,  // measure 54
0100
0100
0100
3200
,  // measure 55
0010
0010
0010
0320
,  // measure 56
0001
0001
0001
0032
,  // measure 57
1000
2003
0010
3020
,  // measure 58
0100
0230
0001
0302
,  // measure 59
2003
3020
0230
0320
,  // measure 60
1030
0100
1000
0100
1000
0100
1000
0100
,  // measure 61
2000
3020
2030
3200
,  // measure 62
0320
0230
2300
3002
,  // measure 63
0023
0032
2003
3200
,  // measure 64
0320
0230
2300
3002
,  // measure 65
0023
0032
2003
3200
,  // measure 66
2300
3002
2003
3020
,  // measure 67
2030
3200
0320
0032
,  // measure 68
0103
0010
0100
0010
1000
0001
1000
0001
,  // measure 69
2000
0000
0000
0000
,  // measure 70
0000
0000
0000
0000
,  // measure 71
0000
0000
3001
0000
;

//---------------dance-single - DDRDAIKENKAI----------------
#NOTES:
     dance-single:
     DDRDAIKENKAI:
     Easy:
     4:
     0.355,0.341,0.077,0.136,0.000,235.000,8.000,14.000,0.000,0.000,0.000,-1.000,-1.000,0.355,0.341,0.077,0.136,0.000,235.000,8.000,14.000,0.000,0.000,0.000,-1.000,-1.000: // measure 1
0000
0000
0000
0000
,  // measure 2
0000
0000
0000
0000
,  // measure 3
0000
0000
0000
0000
,  // measure 4
1001
1001
1001
1001
,  // measure 5
1000
1000
0001
0001
,  // measure 6
0100
0100
0010
0010
,  // measure 7
1000
1000
0001
0001
,  // measure 8
0100
0100
0010
0010
,  // measure 9
1000
0001
1000
0100
,  // measure 10
1000
0001
1000
0010
,  // measure 11
1000
0100
0010
0001
,  // measure 12
1000
1000
1000
1000
,  // measure 13
0001
0010
0001
0001
,  // measure 14
0002
0000
0003
0000
,  // measure 15
1000
0010
1000
0100
,  // measure 16
0010
0001
0100
0010
,  // measure 17
1000
0100
1000
1000
,  // measure 18
2000
0000
3000
0000
,  // measure 19
0010
0100
0010
0100
,  // measure 20
0001
1000
0001
1000
,  // measure 21
0001
0001
1000
1000
,  // measure 22
0001
1000
0001
1000
,  // measure 23
0020
0000
0000
0130
0000
0000
0000
0000
,  // measure 24
0200
0000
0000
0310
0000
0000
0000
0000
,  // measure 25
0001
1000
0001
1000
,  // measure 26
0001
1000
0001
1000
,  // measure 27
0100
0000
0000
0220
0000
0000
0330
0000
,  // measure 28
0010
0000
0000
0220
0000
0000
0330
0000
,  // measure 29
0100
1000
0100
1000
,  // measure 30
0010
1000
0010
1000
,  // measure 31
0010
0100
0010
0100
,  // measure 32
0001
0100
0001
0100
,  // measure 33
0001
0010
0001
0010
,  // measure 34
0001
1000
0001
1000
,  // measure 35
0010
1000
0010
1000
,  // measure 36
0010
0100
0010
0100
,  // measure 37
0001
0001
1000
1000
,  // measure 38
0002
0000
0003
0000
,  // measure 39
1000
0100
1000
0100
,  // measure 40
0010
0000
0010
0000
,  // measure 41
0001
1000
0001
1000
,  // measure 42
0002
0000
0003
0000
,  // measure 43
0100
0010
0100
0010
,  // measure 44
1000
0001
1000
1000
,  // measure 45
0001
0010
0100
1000
,  // measure 46
1000
0100
0010
0001
,  // measure 47
0001
0010
0100
1000
,  // measure 48
1000
0100
0010
0001
,  // measure 49
0001
1000
0010
0100
,  // measure 50
0001
1000
0001
0100
,  // measure 51
1000
0000
0000
0200
0000
0000
0000
0000
,  // measure 52
0310
0000
0000
0002
0000
0000
0003
0000
,  // measure 53
1001
0001
0001
0001
,  // measure 54
1000
1000
1000
1000
,  // measure 55
0010
0100
0010
0100
,  // measure 56
0001
1000
0001
1000
,  // measure 57
0001
0010
1000
0100
,  // measure 58
0001
0100
1000
0010
,  // measure 59
0001
0010
0100
1000
,  // measure 60
0010
0100
0010
0100
,  // measure 61
0001
0010
1000
0100
,  // measure 62
0001
0100
1000
0010
,  // measure 63
1000
0100
0010
0100
,  // measure 64
1000
0010
0100
0001
,  // measure 65
0010
0001
0100
0001
,  // measure 66
1000
0100
1000
0010
,  // measure 67
1000
0100
0010
0100
,  // measure 68
1000
0010
0100
0001
,  // measure 69
2002
0000
0000
0000
,  // measure 70
0000
0000
0000
0000
,  // measure 71
0000
0000
0000
0000
0000
0000
0000
0000
0000
0000
0000
0000
0000
0000
0000
0000
0000
0000
0000
0000
0000
0000
0000
0000
0000
0000
0000
0000
0000
0000
0000
0000
0000
0000
0000
0000
0000
0000
0000
0000
0000
0000
0000
0000
0000
0000
0000
0000
0000
0000
0000
0000
0000
0000
0000
0000
0000
0000
0000
0000
0000
0000
0000
0000
0000
0000
0000
0000
0000
0000
0000
0000
0000
0000
0000
0000
0000
0000
0000
0000
0000
0000
0000
0000
0000
0000
0000
0000
0000
0000
0000
0000
0000
0000
0000
0000
0000
3003
0000
0000
0000
0000
0000
0000
0000
0000
0000
0000
0000
0000
0000
0000
0000
0000
0000
0000
0000
0000
0000
0000
0000
0000
0000
0000
0000
0000
0000
0000
0000
0000
0000
0000
0000
0000
0000
0000
0000
0000
0000
0000
0000
0000
0000
0000
0000
0000
0000
0000
0000
0000
0000
0000
0000
0000
0000
0000
0000
0000
0000
0000
0000
0000
0000
0000
0000
0000
0000
0000
0000
0000
0000
0000
0000
0000
0000
0000
0000
0000
0000
0000
0000
0000
0000
0000
0000
0000
0000
0000
0000
0000
0000
0000
;
