#TITLE:Black Devil;
#SUBTITLE:;
#ARTIST:Ray Sun;
#TITLETRANSLIT:;
#SUBTITLETRANSLIT:;
#ARTISTTRANSLIT:;
#GENRE:;
#CREDIT:;
#MENUCOLOR:;
#NEWMETERSYSTEM:NO;
#BANNER:Black Devil.png;
#BACKGROUND:Black Devil-bg.png;
#LYRICSPATH:;
#CDTITLE:;
#MUSIC:Black Devil.ogg;
#OFFSET:-3.180;
#SAMPLESTART:60.000;
#SAMPLELENGTH:12.600;
#SELECTABLE:YES;
#LISTSORT:;
#BPMS:0.000=150.020;
#STOPS:;
#BGCHANGES:;
#ATTACKS:;

//---------------dance-single - DDRDAIKENKAI----------------
#NOTES:
     dance-single:
     DDRDAIKENKAI:
     Challenge:
     10:
     0.797,0.793,0.521,0.379,0.559: // measure 1
0000
0000
0000
0000
,  // measure 2
0000
0000
0000
0000
,  // measure 3
0000
0000
0000
0000
,  // measure 4
0000
0000
0000
0000
,  // measure 5
2000
0000
0000
0001
3000
0000
0001
0000
0100
0000
0000
0010
0000
0000
1000
0000
,  // measure 6
0100
0000
0000
1000
0000
0000
0001
0000
0100
0000
0000
0010
0000
0000
0100
0000
,  // measure 7
0002
0000
0000
0000
1003
0000
0000
0000
1000
0000
0000
0000
1000
0100
1000
0100
,  // measure 8
1000
0000
1000
0010
0000
0010
0100
0000
0010
1000
0010
1000
0100
0000
0100
1000
,  // measure 9
0001
0000
0001
1000
0010
0000
0010
0100
0001
0000
0001
0010
0200
0000
2300
0000
,  // measure 10
3010
0000
0010
1000
0100
0000
0100
0010
0001
0000
0001
1000
0020
0000
0230
0000
,  // measure 11
0301
0000
0001
1000
0100
0000
0100
1000
0001
0000
1001
0000
0010
0000
1010
0000
,  // measure 12
0000
1100
0000
0011
0000
2002
3003
0000
,  // measure 13
1001
0000
0001
0100
0000
0001
0100
0000
0010
0000
1000
0100
0000
1000
0100
0000
,  // measure 14
1000
0000
0001
0010
0000
0001
0010
0000
0001
0000
1000
0100
0000
1000
0001
0000
,  // measure 15
1000
0000
1000
0010
0000
0010
0100
0000
0001
0000
0001
0100
0000
0100
0010
1000
,  // measure 16
0010
0000
1000
0000
0001
2000
0000
0000
3100
0010
0100
0010
0100
1000
0100
1000
,  // measure 17
0001
0000
1000
0100
0000
1000
0001
0000
1000
0000
0001
0100
0000
0001
1000
0000
,  // measure 18
0001
0000
0001
0010
0000
0010
0001
0000
1000
0000
1000
0100
0000
0100
1000
0000
,  // measure 19
0010
0000
0100
0001
0000
0100
0001
0000
0010
0000
0100
1000
0000
1000
0100
1000
,  // measure 20
0100
0000
1000
0000
0100
2000
0000
0000
3001
0010
0001
0010
0001
0000
1000
0000
,  // measure 21
1002
0000
0013
1000
0010
0001
0100
0010
,  // measure 22
1000
0100
0001
0100
2200
3300
2020
3030
,  // measure 23
0120
0000
1030
0001
0010
0100
0010
0001
,  // measure 24
0100
0010
1000
0100
2200
3300
0011
0011
,  // measure 25
0102
0000
1003
0010
0100
1000
0100
0010
,  // measure 26
1000
0100
0001
0100
1000
0001
0100
0102
,  // measure 27
0000
0013
0100
0210
0000
1300
0001
0100
,  // measure 28
0110
0210
0000
0310
1010
1000
1100
0100
,  // measure 29
1002
0000
2003
3001
2000
3001
2000
3100
,  // measure 30
1000
0010
1000
0100
0001
0100
1000
0001
,  // measure 31
2001
0000
0000
0000
3002
0000
0000
0000
0013
0000
0001
0000
0010
0001
0010
0001
,  // measure 32
1000
0000
1000
0010
0000
0010
1000
0000
0001
0100
0001
0100
0001
0000
0001
0010
,  // measure 33
0002
0010
0013
1000
0010
0001
0010
0100
,  // measure 34
1000
0100
0001
0100
1000
0100
0010
0001
,  // measure 35
1000
0010
0100
0001
0010
0001
0100
0010
,  // measure 36
1010
0010
0100
0101
0001
1001
1000
0100
,  // measure 37
1200
0000
0310
0001
0100
0010
0000
0110
,  // measure 38
0010
0000
1010
0000
1001
0000
1000
0000
0001
0010
0001
0010
0001
0000
0000
0000
,  // measure 39
0011
0100
1001
0000
1010
0100
1001
0000
,  // measure 40
0011
0000
0001
0000
0101
0000
0001
0000
1000
0100
1000
0100
1000
0000
0001
0000
,  // measure 41
0102
0000
1003
0001
0100
0010
0000
0110
,  // measure 42
1000
0100
0001
0100
1000
0001
1002
0000
,  // measure 43
1003
1000
0001
0001
0100
0010
1000
1001
,  // measure 44
0001
0010
0001
0010
0100
1000
0100
1000
0001
0100
0001
0100
0010
1000
0010
2000
,  // measure 45
0001
3001
0101
0000
1001
0001
1000
1010
,  // measure 46
0010
0000
0110
0000
0101
0000
0001
0000
1000
0100
0010
0100
1000
0000
0000
0000
,  // measure 47
1100
0010
1001
0000
0101
0010
1001
0000
,  // measure 48
1010
0000
1000
0000
1001
0000
0001
0000
0100
0001
0010
0001
1000
0000
0100
0000
,  // measure 49
1200
0000
1300
0010
0100
0001
0000
1001
,  // measure 50
0100
0001
0100
1000
0001
1000
1002
0000
,  // measure 51
1003
0010
0100
0001
0010
0001
0100
0110
,  // measure 52
0010
1000
0100
1000
0010
0100
0001
0010
0001
0100
0010
1000
0010
0100
0001
2000
,  // measure 53
0001
0000
3001
0010
0000
0010
0001
0000
1000
0000
1000
0100
0000
0100
1000
0000
,  // measure 54
0001
0000
0001
0100
0000
0100
0001
0000
1000
0000
1000
0010
0000
0010
1000
0000
,  // measure 55
0001
0000
1000
0100
0000
1000
0100
0000
0010
0000
0001
0100
0000
0100
0001
0100
,  // measure 56
0010
0000
1000
0000
0001
2000
0000
0000
3001
0010
0001
0010
0100
1000
0100
1000
,  // measure 57
0001
0000
0001
1000
0000
1000
0001
0000
0010
0000
0001
0100
0000
0100
0001
0000
,  // measure 58
0010
0000
0100
1000
0000
1000
0010
0000
0100
0000
0001
1000
0000
1000
0001
0000
,  // measure 59
0010
0000
0010
0001
0000
0001
1000
0000
0010
0000
0010
1000
0000
1000
0100
1000
,  // measure 60
0100
0000
0010
0000
0100
0020
0000
0000
0031
0100
0001
0100
0001
0000
1000
0000
,  // measure 61
2002
0000
0000
0000
,  // measure 62
0000
0000
0000
0000
,  // measure 63
3003
0000
0000
0000
;

//---------------dance-single - DDRDAIKENKAI----------------
#NOTES:
     dance-single:
     DDRDAIKENKAI:
     Hard:
     8:
     0.596,0.588,0.370,0.569,0.171:
0000
0000
0000
0000
,
0000
0000
0000
0000
,
0000
0000
0000
0000
,
0000
0000
0000
0000
,
2000
3001
0001
0001
,
0001
0000
0001
0000
0001
0000
0001
1000
,
0100
0000
1100
0000
0000
0000
0000
1000
,
0010
1010
0000
1001
0000
0101
0000
0011
,
0001
0100
0010
1000
0001
0100
0010
0100
,
0001
1000
0010
0100
0001
0100
1000
0100
,
0001
0100
0010
0001
0010
1000
0100
0020
,
0000
0031
0000
0011
0000
2001
0000
0000
,
3002
0000
0000
1000
0000
0000
1003
0000
0020
0000
0000
0100
0000
0000
0130
0000
,
0002
0000
0000
0010
0000
0000
0013
0000
2000
0000
0000
3010
0000
0000
0001
0000
,
2000
0000
0000
3100
0000
0000
1000
0000
0002
0000
0000
0103
0000
0000
0001
0000
,
0100
0000
0010
0000
0120
0000
0000
0000
1030
0100
1000
0100
1000
0000
0100
0000
,
2000
0000
0000
0001
0000
0000
3001
0000
0200
0000
0000
0010
0000
0000
0310
0000
,
2000
0000
0000
0001
0000
0000
3001
0000
0020
0000
0000
1030
0000
0000
0010
0000
,
0002
0000
0000
0103
0000
0000
1000
0000
0200
0000
0000
0310
0000
0000
1000
0000
,
0100
0000
1000
0000
1100
0000
0000
0000
0001
0100
0001
0100
0001
0000
0010
0000
,
0012
0000
1003
0001
1000
0100
0000
0010
,
0001
0010
0100
2000
0010
0000
3001
0000
,
0102
0000
0013
0001
0100
0001
0000
1000
,
0100
1000
0001
0200
0010
0000
1300
0000
,
0002
0000
0013
0001
0010
0001
0000
0100
,
0010
0100
0010
0000
1000
0100
0000
1200
,
0000
1300
0000
1020
0000
0130
0000
0001
,
2000
0001
3000
1002
0000
2003
0000
3100
,
0010
0000
0011
0000
0101
0000
0010
1000
,
0100
1000
0001
0100
0101
0000
0110
0000
,
1002
0000
2003
0000
3010
0100
0010
1000
,
0100
1100
0000
0011
0000
1001
0000
1010
,
0020
0000
2030
0000
3001
0100
0001
0100
,
0020
0000
2030
0000
3100
0010
0100
0010
,
0002
0000
0203
0000
1300
0100
0001
1000
,
0100
0000
1000
0100
1000
0100
0010
0001
,
1002
0000
2003
0000
0001
0001
3000
0010
,
1000
0100
1000
1000
0001
0100
0101
0000
,
0001
0010
0100
0000
1000
0100
0010
0000
,
1001
0000
0000
0000
1001
0000
0000
0000
0010
0100
0010
0100
0010
0000
0000
0000
,
2001
0000
3002
0000
0103
0010
0000
0100
,
0010
1000
0100
0001
0000
0100
1000
0000
,
0010
0100
0001
0000
1000
0100
0010
0002
,
0000
1003
0001
0100
0010
0100
0000
0120
,
0000
0000
1030
0000
0100
2000
0000
3020
,
0000
1030
0100
0001
1000
0010
0001
0000
,
1000
0001
0010
0000
0001
1000
0100
0000
,
1100
0000
0000
0000
0101
0000
0000
0000
1000
0001
1000
0001
1000
0000
0000
0000
,
1002
0000
0013
0000
0001
0100
0000
0120
,
0000
1030
0100
1000
0001
1000
1002
0000
,
1003
0001
1000
0001
0100
0010
0100
0020
,
0000
1030
0100
1000
0000
1100
0000
0012
,
1000
0000
0000
1000
0000
0000
1003
0000
0020
0000
0000
0100
0000
0000
0130
0000
,
0002
0000
0000
1000
0000
0000
1003
0000
0200
0000
0000
0310
0000
0000
0001
0000
,
0020
0000
0000
1030
0000
0000
0010
0000
0002
0000
0000
1003
0000
0000
0100
0000
,
1000
0000
0001
0000
0101
0000
0000
0000
0001
0010
0001
0010
0001
0000
1000
0000
,
2000
0000
0000
0010
0000
0000
3010
0000
0200
0000
0000
0001
0000
0000
0301
0000
,
0020
0000
0000
0001
0000
0000
0031
0000
2000
0000
0000
3100
0000
0000
0010
0000
,
0200
0000
0000
0310
0000
0000
0001
0000
2000
0000
0000
3100
0000
0000
1000
0000
,
0001
0000
0100
0000
0110
0000
0000
0000
0010
1000
0010
1000
0001
0000
1000
0000
,
2002
0000
0000
0000
,
0000
0000
0000
0000
,
3003
0000
0000
0000
;

//---------------dance-single - DDRDAIKENKAI----------------
#NOTES:
     dance-single:
     DDRDAIKENKAI:
     Medium:
     6:
     0.470,0.499,0.085,0.493,0.000:
0000
0000
0000
0000
,
0000
0000
0000
0000
,
0000
0000
0000
0000
,
0000
0000
0000
0000
,
2000
0002
0000
0000
,
0000
0000
0000
0000
,
3000
0000
0103
0000
0000
0000
0000
0010
,
1000
0020
0000
2030
0000
3200
0000
0310
,
0001
0000
0010
0001
0010
0000
0100
0010
,
0100
0000
1000
0100
1000
0000
0001
1000
,
0001
0000
0100
0001
0000
1000
0000
0010
,
0000
0110
0000
0110
0000
1002
0000
0000
,
1003
0000
1000
0010
0100
0000
0100
0001
,
0010
0000
0010
0100
1000
0000
1000
0100
,
0010
0000
0010
0001
0100
0000
0010
0000
,
1000
0001
2000
0000
3001
0100
0001
0100
,
0001
0000
0001
0100
0010
0000
0010
1000
,
0100
0000
0100
0010
0001
0000
0001
1000
,
0010
0000
0010
0100
0001
0000
0100
0000
,
0010
1000
0020
0000
1030
0100
1000
0000
,
1002
0000
1003
0010
1000
0010
0000
0100
,
0000
0001
0000
1000
0200
0000
2300
0000
,
3200
0000
1300
0001
1000
0001
0000
0100
,
0000
0010
0000
1000
0000
0100
1000
0000
,
0001
0000
1000
0010
1000
0010
0000
0100
,
0000
0001
0100
0000
0010
0100
0000
0020
,
0000
1030
0000
2000
0000
3001
0000
0001
,
0100
0001
0000
2000
0000
3200
0000
0310
,
0001
0000
0001
0000
1000
0100
1000
0000
,
0010
0000
0010
0000
0100
0001
0100
0000
,
0020
2030
3200
0302
,
0103
2000
0000
3020
0000
0230
0000
0001
,
0301
0000
1000
0000
0010
1000
0100
0000
,
1000
0000
0001
0000
0010
0001
0100
0000
,
0010
0100
0010
0000
1000
0001
1000
0000
,
0001
0000
1000
0000
0010
0100
0010
0100
,
0020
0000
2030
0000
3001
0200
0000
0001
,
0300
0001
1000
0000
1000
0100
1000
0000
,
0001
0010
0001
2000
0000
3010
1000
0020
,
0000
0230
0000
0302
0000
1003
0100
0000
,
0210
0000
0310
0000
0010
0001
0000
2000
,
0000
3001
0100
0001
0100
0000
0201
0000
,
0301
0000
1000
0100
1000
0100
1000
0000
,
0200
0320
0032
2003
,
3200
0000
2300
0000
3002
0010
0003
0010
,
0000
0001
1000
0000
1000
0001
1000
0000
,
0010
0100
0010
0200
0000
0301
0010
0002
,
0000
2003
0000
3002
0000
0103
0010
0000
,
0120
0000
0130
0000
0001
0100
0000
0020
,
0000
0130
0001
0100
0001
0000
1001
0000
,
1000
0100
1000
0000
0100
0010
0001
0000
,
0002
0023
0230
2300
,
3001
0000
0001
1000
0100
0000
0100
0010
,
0001
0000
0001
0100
0010
0000
0010
1000
,
0100
0000
0100
1000
0010
0000
0100
0000
,
0001
0010
0001
0000
1000
0100
1000
0000
,
0001
0000
0001
1000
0010
0000
0010
1000
,
0100
0000
0100
0010
0001
0000
0001
0010
,
0100
0000
0100
1000
0001
0000
1000
0000
,
0001
0100
0001
0000
1000
0010
1000
0000
,
2002
0000
0000
0000
,
0000
0000
0000
0000
,
3003
0000
0000
0000
;

//---------------dance-single - DDRDAIKENKAI----------------
#NOTES:
     dance-single:
     DDRDAIKENKAI:
     Beginner:
     1:
     0.192,0.206,0.019,0.095,0.000:
0000
0000
0000
0000
,
0000
0000
0000
0000
,
0000
0000
0000
0000
,
0000
0000
0000
0000
,
0200
0000
0300
0000
,
0020
0000
0030
0000
,
2000
3000
0000
0000
,
0002
0000
0003
0000
,
1000
1000
0000
0001
,
0000
1000
0000
0001
,
0000
0100
0000
0010
,
0020
0000
0000
0000
0000
0030
0000
0000
,
1000
0000
0001
0000
,
1000
0000
0001
0000
,
0100
0000
0100
0000
,
0010
0010
0010
0000
,
1000
0000
0001
0000
,
1000
0000
0001
0000
,
0100
0000
0010
0000
,
0100
0100
0100
0000
,
0001
0000
0010
0000
,
0100
0100
0100
0000
,
1000
0000
0010
0000
,
0100
0100
0100
0000
,
0001
0000
1000
0000
,
0100
0000
1000
0000
,
0001
0000
0100
0000
,
0010
0010
0010
0000
,
1000
1000
1000
0000
,
0001
0001
0001
0000
,
0100
0000
0010
0000
,
0200
0000
0300
0000
,
0001
0001
0001
0000
,
1000
1000
1000
0000
,
0100
0000
0010
0000
,
2002
0000
3003
0000
,
1000
1000
1000
0000
,
0010
0010
0010
0000
,
0100
0000
0001
0000
,
1000
0000
0100
0100
,
0100
0000
0010
0000
,
0001
0001
0001
0000
,
1000
1000
1000
0000
,
0010
0010
0010
0000
,
0100
0000
0001
0000
,
0010
0010
0010
0000
,
0001
0001
0001
0000
,
1000
1000
1000
0000
,
0001
0000
0100
0000
,
0010
0010
0010
0000
,
1000
1000
1000
0000
,
0001
0001
0001
0000
,
1000
0000
0001
0000
,
1000
0000
0001
0000
,
0100
0000
0010
0000
,
0100
0100
0100
0000
,
0001
0000
1000
0000
,
0001
0000
1000
0000
,
0100
0000
0010
0000
,
0100
0100
0100
0000
,
2002
0000
0000
0000
,
0000
0000
0000
0000
,
3003
0000
0000
0000
;

//---------------dance-single - DDRDAIKENKAI----------------
#NOTES:
     dance-single:
     DDRDAIKENKAI:
     Easy:
     3:
     0.282,0.294,0.038,0.142,0.000:
0000
0000
0000
0000
,
0000
0000
0000
0000
,
0000
0000
0000
0000
,
0000
0000
0000
0000
,
2000
0000
0000
0000
,
3200
0000
0000
0000
,
0320
0001
0000
0000
,
0032
0000
0000
0000
,
1003
1000
1000
1000
,
0001
0001
0001
0001
,
0100
0100
0010
0010
,
2000
0000
0000
0000
0000
3000
0000
0000
,
0001
0001
0010
0010
,
0100
0100
1000
1000
,
0001
0010
0100
1000
,
0001
1000
0001
0001
,
1000
1000
0100
0100
,
0010
0010
0001
0001
,
1000
0100
0010
0001
,
1000
1000
0001
0001
,
1001
0001
1000
0001
,
0100
0010
1000
0000
,
1000
0100
0010
0100
,
1000
0001
1000
0000
,
0010
0100
0010
0010
,
1000
1000
0001
0001
,
0010
0001
0100
0000
,
0010
1000
0100
1000
,
2000
0000
3001
0010
,
0002
0000
1003
0100
,
0020
0030
0002
0003
,
0200
0000
0000
0000
,
0310
1000
0001
0000
,
0100
0001
0010
0100
,
2000
3000
0020
0030
,
2000
0000
3001
0001
,
1001
1000
1000
0000
,
0001
0100
0010
0000
,
1000
1000
0100
0100
,
0010
0010
0001
0001
,
1000
0100
1000
0000
,
0010
1000
0100
0000
,
1000
0010
0100
0001
,
1000
0001
1000
1000
,
1001
0001
0001
0000
,
1000
0100
1000
0000
,
0001
0001
0100
0100
,
0010
0010
1000
1000
,
0001
1000
0100
0000
,
0010
0001
0100
0000
,
0010
0100
0010
0100
,
0001
1000
0001
1000
,
0001
0001
1000
1000
,
0100
0100
0010
0010
,
0001
0001
0100
0100
,
0010
1000
0100
1000
,
0010
0010
0100
0100
,
0001
0001
0010
0010
,
0100
0100
1000
1000
,
0001
0100
0010
1000
,
2002
0000
0000
0000
,
0000
0000
0000
0000
,
3003
0000
0000
0000
;
