#TITLE:Bad Boy;
#SUBTITLE:;
#ARTIST:Cascada;
#TITLETRANSLIT:;
#SUBTITLETRANSLIT:;
#ARTISTTRANSLIT:;
#GENRE:;
#CREDIT:;
#MENUCOLOR:;
#BANNER:;
#BACKGROUND:;
#LYRICSPATH:;
#CDTITLE:;
#MUSIC:Bad Boy.ogg;
#OFFSET:-1.730;
#SAMPLESTART:29.140;
#SAMPLELENGTH:13.800;
#SELECTABLE:YES;
#LISTSORT:;
#BPMS:0.000=70.000,32.000=140.000,88.000=70.000,92.000=35.000,94.000=70.000,110.000=140.000;
#STOPS:;
#TICKCOUNT:0.000=2;
#BGCHANGES:;
#KEYSOUNDS:;
#ATTACKS:;

//---------------dance-single - ----------------
#NOTES:
     dance-single:
     :
     Hard:
     9:
     0.576,0.703,0.153,0.287,0.737: // measure 1
0000
0000
0000
0000
,  // measure 2
0000
0000
0000
0000
,  // measure 3
1000
0000
0000
0000
0001
0000
0100
0000
0000
0000
0100
0000
0001
0000
1000
0000
0100
0000
0000
0000
1000
0000
0010
0000
0000
0000
1000
0000
0100
1000
0000
0000
,  // measure 4
0001
0000
0000
0000
0010
0000
0001
0000
0000
0000
0100
0000
0010
0000
1000
0000
0001
0000
0000
0000
1000
0000
0000
0001
0100
0000
0010
0000
1000
0000
0100
0000
,  // measure 5
1000
0000
0000
0000
0010
0000
0100
0000
0000
0000
0100
0000
0001
0000
1000
0000
0100
0000
0000
0000
1000
0000
0100
0000
0000
0000
0100
0000
0010
0100
0000
0000
,  // measure 6
1000
0000
0000
0000
0010
0000
0100
0000
0000
0000
0100
0000
0001
0000
1000
0000
0100
0000
0000
0000
1000
0000
0000
0001
0100
0000
0001
0000
1000
0000
0100
0000
,  // measure 7
1000
0000
0001
0010
0000
0001
0100
0001
1000
0000
0010
1000
0000
0100
2000
0000
,  // measure 8
0010
0200
0000
0000
0000
0000
0000
3300
,  // measure 9
1010
1001
0011
1002
,  // measure 10
0010
0000
0100
0000
1003
0000
0010
1000
,  // measure 11
0200
0000
2300
0000
3001
0010
0001
1000
,  // measure 12
0100
0000
1010
0000
0011
0000
1000
0100
,  // measure 13
0001
0011
1000
1020
,  // measure 14
0000
1030
0100
0010
0002
0000
1003
0001
,  // measure 15
0101
0000
1100
0000
0101
0000
1000
0100
,  // measure 16
0020
0000
0032
0000
2003
0000
0100
3100
,  // measure 17
0110
0010
0001
0010
0100
1000
0020
0000
,  // measure 18
0100
0000
1000
0000
0001
0030
0100
0001
,  // measure 19
2000
0100
3200
1000
1300
0010
0001
0010
,  // measure 20
1000
0000
0011
0000
0101
0000
0010
1000
,  // measure 21
2000
0100
3200
0010
0320
0001
0032
1000
,  // measure 22
0003
1000
0100
0010
0002
0000
1003
0010
,  // measure 23
0200
0000
0320
0000
2030
0000
3002
0000
0023
0000
0100
0000
0030
0100
1000
0010
,  // measure 24
0200
0000
0010
0000
1000
0000
0010
0000
2000
0000
0000
0000
0000
0000
3300
0000
0001
0000
0010
0000
0000
0001
0000
0010
0000
0001
0000
0001
0100
0000
0001
0000
,  // measure 25
1000
0000
0010
0000
0000
1000
0000
0010
0000
1000
0000
1000
0010
0000
0100
0000
0001
0000
0010
0000
0000
0001
0000
0010
0000
0001
0000
0001
1000
0000
0100
0000
,  // measure 26
1000
0000
0001
0000
0000
1000
0000
0001
0000
1000
0000
1000
0001
0000
0100
0000
0010
0000
0100
0000
0000
0010
0000
0100
0000
0010
0000
0010
0100
0000
0001
0000
,  // measure 27
0010
0000
0100
0000
0000
0010
0000
0100
0000
0010
0000
0010
0100
0000
0010
0000
0001
0000
0100
0000
0000
0001
0000
0100
0000
0001
0000
0001
0100
0000
0010
0000
,  // measure 28
1000
0000
0001
0000
0100
0010
0000
0000
2020
0000
3030
0000
2002
0000
3003
0000
1000
0000
0000
0000
0100
0000
0000
0000
1000
0000
0001
0000
0000
0000
0100
0000
,  // measure 29
0000
0000
0000
0010
0000
0000
0000
0000
0000
1000
0000
0000
0001
0000
0000
0000
0000
0000
1000
0000
0000
0000
0100
0000
1000
0000
0000
0000
0000
0000
0010
0000
0000
0000
0000
0000
0100
0000
0000
0001
0000
0000
0000
0000
0000
0010
0000
0000
,  // measure 30
0000
0000
0000
0100
0000
0000
0000
0000
0000
1000
0000
0000
0001
0000
0000
0000
0000
0000
1000
0000
0000
0000
0001
0000
0100
0000
0000
0000
0000
0000
0010
0000
0000
0000
0000
0000
1000
0000
0000
0100
0000
0000
0000
0000
0000
1000
0000
0000
,  // measure 31
0000
0000
0000
0010
0000
0000
0000
0000
0000
0100
0000
0000
0001
0000
0000
0000
0000
0000
1000
0000
0000
0000
0100
0000
1000
0000
0000
0000
0000
0000
0010
0000
0000
0000
0000
0000
0100
0000
0000
0001
0000
0000
0000
0000
0000
1000
0000
0000
,  // measure 32
0000
0000
0000
0010
0000
0000
1000
0000
0000
0000
0001
0000
0100
0000
0000
0000
0000
0000
0001
0000
0000
0000
0000
0000
1000
0000
0000
0000
0000
0000
0001
0000
0000
0000
0000
0000
1000
0000
0000
0100
0000
0000
0000
0000
0000
1000
0000
0000
,  // measure 33
0000
0000
0000
0001
0000
0000
0000
0000
0000
0100
0000
0000
0001
0000
0000
0000
0000
0000
1000
0000
0000
0000
0001
0000
0100
0000
0000
0000
0000
0000
0001
0000
0000
0000
0000
0000
1000
0000
0000
0100
0000
0000
0000
0000
0000
0010
0000
0000
,  // measure 34
0000
0000
0000
0001
0000
0000
0000
0000
0000
0010
0000
0000
0100
0000
0000
0000
0000
0000
1000
0000
0000
0000
0001
0000
0100
0000
0000
0000
0000
0000
0010
0000
0000
0000
0000
0000
1000
0000
0000
0100
0000
0000
0000
0000
0000
0010
0000
0000
,  // measure 35
0000
0000
0000
0100
0000
0000
0000
0000
0000
1000
0000
0000
0010
0000
0000
0000
0000
0000
1000
0000
0000
0000
0001
0000
1000
0000
0000
0000
0000
0000
0010
0000
0000
0000
0000
0000
0100
0000
0000
0001
0000
0000
0000
0000
0000
1000
0000
0000
,  // measure 36
0000
0000
0000
0001
0000
0000
0000
0000
0000
0000
0001
0000
1000
0000
0000
0000
0100
0000
1000
0000
0000
0000
0001
0000
1000
0000
0000
0000
0000
0000
0010
0000
0000
0000
0000
0000
0100
0000
0000
0010
0000
0000
0000
0000
0000
1000
0000
0000
,  // measure 37
0000
0000
0000
0100
0000
0000
0000
0000
0000
0010
0000
0000
0001
0000
0000
0000
0000
0000
0010
0000
0000
0000
0100
0000
1000
0000
0000
0000
0000
0000
0001
0000
0000
0000
0000
0000
0100
0000
0000
0010
0000
0000
0000
0000
0000
1000
0000
0000
,  // measure 38
0000
0000
0000
0100
0000
0000
0000
0000
0000
1000
0000
0000
0010
0000
0000
0000
0000
0000
0100
0000
0000
0000
0001
0000
1000
0000
0000
0000
0000
0000
0001
0000
0000
0000
0000
0000
0100
0000
0000
0010
0000
0000
0000
0000
0000
1000
0000
0000
,  // measure 39
0000
0000
0000
0010
0000
0000
0000
0000
0000
0100
0000
0000
0010
0000
0000
0000
0000
0000
1000
0000
0000
0000
0100
0000
0010
0000
0000
0000
0000
0000
0100
0000
0000
0000
0000
0000
1000
0000
0000
0010
0000
0000
0000
0000
0000
0100
0000
0000
,  // measure 40
0000
0000
0000
0001
0000
0000
0010
0000
0000
0000
0001
0000
0100
0000
0000
0000
0000
0000
0010
0000
0000
0000
0000
0000
1000
0000
0000
0000
0000
0000
1000
0000
0000
0000
0000
0000
0000
0000
0000
0100
0000
0000
0000
0000
0000
0010
0000
0000
,  // measure 41
0000
0001
0000
1000
0100
0000
0010
0000
0001
0000
1000
0000
0000
0001
0000
0100
,  // measure 42
0000
0010
0000
1000
0100
0000
1000
0000
0010
0000
0100
0000
0000
0001
0000
1000
,  // measure 43
0000
0100
0000
0010
0001
0000
1000
0000
0001
0000
0100
0000
0010
1000
0000
0100
,  // measure 44
0000
0000
0000
0010
0000
0000
0000
0000
0000
0000
0001
0000
0100
0000
0000
0001
0000
0000
1000
0000
0000
0001
0000
0000
0200
0000
0000
0000
0000
0000
0000
0000
0000
0000
0000
0000
0000
0000
0000
0000
0000
0000
0000
0000
0000
0000
0000
0000
,  // measure 45
0000
0000
0300
0000
;

//---------------dance-single - ----------------
#NOTES:
     dance-single:
     :
     Medium:
     6:
     0.396,0.575,0.105,0.383,0.053: // measure 1
0000
0000
0000
0000
,  // measure 2
0000
0000
0000
0000
,  // measure 3
0000
0000
0000
0000
,  // measure 4
0000
0000
0000
0000
0000
0000
0000
0010
,  // measure 5
2000
0000
0000
0001
0000
0000
0001
0000
3002
0000
0000
0100
0000
0000
0100
0000
,  // measure 6
0203
0000
0000
0010
0000
0000
0320
0000
2000
0000
0000
0000
3030
0000
1000
0000
,  // measure 7
0002
0000
0000
1000
0000
0000
2003
0000
0100
0000
0000
3200
0000
0000
0020
0300
,  // measure 8
0000
0002
0000
0000
0000
0000
0000
0033
,  // measure 9
0001
1000
0001
1001
,  // measure 10
1000
0000
0001
0000
1001
0000
0001
1000
,  // measure 11
0200
0000
2300
0000
3100
1000
0100
1000
,  // measure 12
0100
0000
0200
0000
2300
0000
3010
1000
,  // measure 13
0010
1000
0010
1020
,  // measure 14
0000
1030
1000
0010
2000
0000
3001
0010
,  // measure 15
0002
0000
0023
0000
0032
0000
0013
0001
,  // measure 16
0020
0000
0032
0000
0023
0000
0031
0100
,  // measure 17
0001
0101
1000
1100
,  // measure 18
1010
0000
0011
0000
1001
0000
0001
0100
,  // measure 19
0002
0000
2003
0000
3001
1000
0001
1000
,  // measure 20
0002
0000
2003
0000
3200
0000
1300
0001
,  // measure 21
1000
0001
0100
0201
,  // measure 22
0000
0301
0001
0010
0002
0000
1003
0100
,  // measure 23
2000
0000
3020
0000
2030
0000
3020
0000
0230
0000
0000
0000
0300
0000
0001
1000
,  // measure 24
0002
0023
0032
0023
0032
0000
0000
0003
1000
0000
0100
0000
0100
0000
1000
0000
,  // measure 25
0100
1000
1000
0100
1000
0001
0001
1000
,  // measure 26
0010
0000
0100
0000
0100
0000
0001
0000
0100
0001
0100
0000
0001
0000
0001
0000
,  // measure 27
1000
0100
1000
0000
0001
0000
1000
0000
0010
0100
0010
0000
1000
0000
0100
0000
,  // measure 28
0010
0001
1100
1001
0100
0001
0100
0000
,  // measure 29
0010
1000
0100
0000
1000
0001
1000
0000
,  // measure 30
0001
0010
0001
0000
1000
0100
1000
0000
,  // measure 31
0010
0100
0010
0000
1000
0001
1000
0000
,  // measure 32
0100
1000
0100
0000
1000
0010
1000
0000
,  // measure 33
0001
0100
0001
0000
0010
0100
0010
0000
,  // measure 34
0001
0010
0001
0000
0100
0010
0100
0000
,  // measure 35
0010
1000
0010
0000
1000
0100
1000
0000
,  // measure 36
0001
0100
0001
0001
1000
0100
1000
0000
,  // measure 37
1000
0010
1000
0000
1000
0100
0010
0000
,  // measure 38
0001
0010
0001
0000
0001
0100
0010
0000
,  // measure 39
0010
0100
0010
0000
1000
0001
0100
0000
,  // measure 40
0100
0001
0100
0000
0001
1000
0001
1000
,  // measure 41
0001
0001
0001
0000
0100
0010
0100
0010
,  // measure 42
0100
0100
0100
0000
0001
0010
0001
0010
,  // measure 43
0001
0001
0001
0000
1000
0100
1000
0100
,  // measure 44
1000
0010
0100
0001
2000
0000
0000
0000
,  // measure 45
0000
0000
3000
0000
;

//---------------dance-single - ----------------
#NOTES:
     dance-single:
     :
     Easy:
     4:
     0.253,0.383,0.048,0.077,0.010: // measure 1
0000
0000
0000
0000
,  // measure 2
0000
0000
0000
0000
,  // measure 3
0000
0000
0000
0000
,  // measure 4
0000
0000
0000
0000
,  // measure 5
1000
1000
0100
0100
,  // measure 6
1000
0000
0001
0000
2002
0000
0000
3003
,  // measure 7
0001
0001
0100
0100
,  // measure 8
0002
0000
0000
0000
2000
0000
0000
3003
,  // measure 9
1000
1000
1000
1000
,  // measure 10
0100
0100
0100
0100
,  // measure 11
1000
1000
1000
1000
,  // measure 12
0001
0000
0001
0000
0001
0000
0001
0010
,  // measure 13
0001
0001
0001
0001
,  // measure 14
0100
0100
0100
0100
,  // measure 15
0010
0010
0010
0010
,  // measure 16
1000
0000
1000
0000
1000
0000
1000
0001
,  // measure 17
1000
0001
1000
0001
,  // measure 18
0100
0010
0100
0010
,  // measure 19
1000
0100
1000
0100
,  // measure 20
0010
0000
0001
0000
0010
0000
0001
0010
,  // measure 21
0001
0100
0001
0100
,  // measure 22
0010
1000
0010
1000
,  // measure 23
0100
0010
0001
1000
0200
0000
0000
0300
,  // measure 24
0010
0010
0001
0001
2000
0000
3000
0000
0001
0000
0000
0000
0000
0000
0001
0000
,  // measure 25
0100
0000
0000
0100
0010
0000
0000
0010
,  // measure 26
1000
0000
0000
1000
0100
0100
0100
0100
,  // measure 27
1000
1000
1000
1000
0001
0001
0001
0001
,  // measure 28
0100
0010
0110
0110
1001
0000
1000
0000
,  // measure 29
0001
1000
0010
0100
,  // measure 30
0010
0100
0001
1000
,  // measure 31
0001
1000
0100
0010
,  // measure 32
0100
0010
0001
0010
,  // measure 33
0100
1000
0001
0100
,  // measure 34
0010
1000
0100
0010
,  // measure 35
0001
1000
0001
0100
,  // measure 36
0010
0000
1000
0100
1000
0000
0001
0000
,  // measure 37
0100
0001
1000
0010
,  // measure 38
1000
0001
0010
0001
,  // measure 39
1000
0010
1000
0100
,  // measure 40
0010
0100
1000
1000
,  // measure 41
1000
0100
0010
0010
,  // measure 42
0010
0100
1000
1000
,  // measure 43
1000
0010
0100
0100
,  // measure 44
0001
1000
2002
0000
,  // measure 45
0000
0000
3003
0000
;
