#TITLE:BURNING UP FOR YOU;
#SUBTITLE:;
#ARTIST:SARA;
#TITLETRANSLIT:;
#SUBTITLETRANSLIT:;
#ARTISTTRANSLIT:;
#GENRE:SUPER EUROBEAT;
#CREDIT:;
#MENUCOLOR:;
#NEWMETERSYSTEM:NO;
#BANNER:BURNING UP FOR YOU.png;
#BACKGROUND:BURNING UP FOR YOU-bg.png;
#LYRICSPATH:;
#CDTITLE:;
#MUSIC:BURNING UP FOR YOU.ogg;
#OFFSET:-1.493;
#SAMPLESTART:68.560;
#SAMPLELENGTH:12.500;
#SELECTABLE:YES;
#LISTSORT:;
#BPMS:0.000=156.595;
#STOPS:;
#BGCHANGES:;
#ATTACKS:;

//---------------dance-single - DDRDAIKENKAI----------------
#NOTES:
     dance-single:
     DDRDAIKENKAI:
     Challenge:
     10:
     0.904,1.000,0.705,0.882,0.322:
0000
0000
0000
0000
,
0000
0000
0000
0000
,
0000
0000
0000
0000
,
0000
0000
0000
0000
,
1000
0010
0001
1000
0001
0010
1000
0001
,
1000
0100
0001
1000
0001
0100
1000
0001
,
1000
0010
0100
0001
1000
0100
0010
0001
,
1000
0001
0010
0100
0010
0001
0100
0010
1000
0100
0010
0100
1000
0001
1000
0001
,
0200
0320
2030
3200
0302
0023
0032
0203
,
0320
2030
3020
0032
0203
0320
0230
0302
,
2003
3020
0032
0203
0302
0023
0230
0302
,
2003
3020
0230
2300
3200
0320
2030
3200
,
2300
0000
0001
0000
3001
0000
1000
0001
0000
1000
0001
0000
0100
0000
0001
0000
,
1000
0000
0010
0000
0010
0000
1000
0010
0000
1000
0010
0000
0100
0000
1000
0000
,
0100
0000
0001
0000
0001
0000
0100
0001
0000
0100
0001
0000
0100
0000
0010
0000
,
0100
0000
1000
0000
1000
0000
0100
1000
0000
0100
1000
0000
0100
0000
0010
0000
,
1000
0000
0001
0000
0001
0000
1000
0001
0000
1000
0001
0000
0010
0000
0001
0000
,
0100
0000
0010
0000
0010
0000
0100
0010
0000
0100
0010
0000
0100
0000
0001
0000
,
0100
0000
1000
0000
1000
0000
0100
0001
0000
0100
0001
0000
0100
0000
0010
0000
,
1000
1001
0010
0101
0000
0110
1010
1001
,
1100
0000
1000
0000
1001
0000
0001
1000
0000
0100
1000
0000
0001
0000
0100
0000
,
0010
0000
1000
0000
1001
0000
0001
1000
0200
0000
2300
0000
3002
0000
0023
0000
,
0230
0000
1300
0000
1001
0000
0001
1000
0000
0010
1000
0000
0010
0000
0100
0000
,
0001
0000
0100
0000
0110
0000
0010
0100
0000
0010
1000
0000
0002
0000
0023
0000
,
0230
0000
1300
0000
1100
0000
0100
1000
0000
0100
1000
0000
0100
0000
0010
0000
,
0001
0000
1000
0000
1001
0000
0001
1000
0020
0000
1000
0000
2030
0000
0001
0000
,
3002
0000
0103
0000
0110
0000
0010
0100
0000
0010
1000
0000
0001
0000
1000
0000
,
0100
1001
0000
1020
0000
0100
0100
0130
,
0001
0010
0011
0001
0100
0010
0110
0010
,
1000
0100
1100
0100
1000
0001
1001
0001
,
0100
0010
0110
0010
1000
0001
1001
0001
,
1000
0100
1100
1000
0001
0100
0101
0001
,
0010
0002
2003
3020
0130
0020
2030
3200
,
0301
0100
1000
2001
0000
3001
1000
0010
,
1000
0100
1000
0100
1000
0001
1000
0001
0100
0001
0100
0001
0100
0010
0100
0010
,
1000
0000
1001
0000
0000
0000
0120
0000
0000
0000
1030
0000
1001
0000
0001
0010
,
0001
1000
0100
0010
0001
1000
0100
1000
0010
0100
0010
1000
0001
0010
0100
0010
,
0001
1000
0100
0010
0100
1000
0010
0100
0001
0010
0100
1000
0001
0100
0010
1000
,
0200
1000
1000
1300
0000
1000
0001
0010
,
0011
0001
1000
1010
0010
0110
0000
1001
,
0100
0001
0100
0001
0010
1000
0010
1000
,
1010
0010
0001
0011
0010
0110
0000
1001
,
0001
0010
0001
0010
0100
1000
0100
1000
,
1020
0000
1000
0000
1000
0000
2030
0000
0000
0000
3001
0000
1001
0000
1000
0001
,
1000
0010
0120
0000
0130
0001
0011
0001
,
0100
0220
0330
2200
3300
2001
0001
3001
,
0100
0010
0120
0000
0130
0001
1001
0001
,
1000
2020
3030
0220
0330
0102
0000
1003
,
0100
1000
1200
0010
0300
0010
0001
1000
,
0010
0100
0102
1000
0003
0001
1000
0010
,
0110
0000
0010
0000
1000
0000
2001
0000
0000
0000
3001
0000
0001
0000
0001
0010
,
0100
0000
0220
0000
0330
0000
0220
0000
0330
0000
1200
0000
0000
0000
1300
0001
,
1000
0010
1020
0000
0130
0010
0110
0100
,
0001
0202
0303
0022
0033
1020
0000
1030
,
0001
1000
1200
0000
1300
0001
0010
0100
,
0010
0022
0033
0202
0303
0012
0000
0103
,
0010
0100
1001
0100
0010
0001
0100
0010
,
0100
0001
1001
1000
0010
0100
0001
0010
,
0001
0100
0010
0100
1000
0100
0001
0100
,
1000
0000
0100
0000
1000
0000
0100
0000
0010
0000
1000
0000
1001
0000
0001
1000
,
0001
0000
0100
0000
0101
0000
0001
1000
0000
0100
1000
0000
0010
0000
0100
0000
,
0001
0000
0010
0000
0011
0000
0001
1000
0200
0000
2300
0000
3020
0000
0230
0000
,
0301
0000
0010
0000
0110
0000
0100
1000
0000
0001
1000
0000
0001
0000
0100
0000
,
0010
0000
1000
0000
1010
0000
0010
1000
0000
0100
1000
0000
0200
0000
2300
0000
,
3002
0000
0103
0000
0110
0000
0010
1000
0000
0100
1000
0000
0001
0000
0100
0000
,
0010
0000
1000
0000
1001
0000
0001
1000
0200
0000
1000
0000
2300
0000
0010
0000
,
3010
0100
0010
1010
0000
1000
1001
1000
,
0010
0110
0000
1010
0000
1001
0101
0110
,
1020
0000
0000
2030
0000
0000
0200
0000
,
0000
0000
0000
0000
0000
3300
0000
0000
;

//---------------dance-single - DDRDAIKENKAI----------------
#NOTES:
     dance-single:
     DDRDAIKENKAI:
     Hard:
     7:
     0.559,0.583,0.176,0.750,0.000:
0000
0000
0000
0000
,
0000
0000
0000
0000
,
0000
0000
0000
0000
,
0000
0000
0000
0000
,
2000
0100
0010
0001
,
3020
1000
0100
1000
,
0230
0010
0001
1300
,
0010
0000
0100
0000
0001
0000
1000
0001
,
2000
0000
0000
0000
0000
0000
0010
0010
,
0000
0001
0000
0100
0000
0000
0001
0000
,
3020
0000
0000
0000
0000
0000
1000
1000
,
0000
1000
0000
0200
0000
0000
0330
0000
,
0002
0000
0000
0023
0000
0000
0230
0000
,
0000
0000
0000
0000
1300
0001
0100
0010
,
0200
0000
0000
0320
0000
0000
2030
0000
,
0000
0000
0000
0000
0000
0000
3001
0010
,
0002
0000
0000
0023
0000
0000
0230
0000
,
0000
0000
0320
0032
,
0203
0000
0000
0320
0000
0000
2030
0000
,
3002
0100
0000
0103
0000
0010
1000
0001
,
1002
0000
1003
0002
0100
0003
0120
0000
,
0100
0000
1000
0000
0130
0001
0010
0100
,
2000
0000
3100
0020
0001
0030
1002
0000
,
1000
0000
0010
0000
0103
0000
0010
0001
,
0200
0000
0310
2000
0100
3000
2100
0000
,
0010
0001
3020
2030
,
3002
0000
0103
0020
0100
0000
1030
0000
,
0200
0000
0301
0020
0100
0000
0032
0000
,
2003
0000
3001
0100
0010
1000
0100
0000
,
2000
0000
3001
0010
0001
1000
0010
0000
,
2000
0000
3001
0100
0010
0100
0001
0000
,
0020
0000
0130
1000
0100
0010
0001
0000
,
1000
0010
1000
0001
0000
0010
0001
0100
,
0001
0010
0100
1000
0000
1000
0100
0010
,
0001
0100
0001
0100
0010
1000
0010
1000
,
0001
1001
0000
1002
0000
1003
0100
1000
,
0200
0000
1300
0001
1000
0000
0010
0100
,
0002
0000
0013
0100
1000
0100
0010
0001
,
0100
0010
1000
0000
0010
0100
0001
0010
,
0200
0000
1300
0002
0000
0023
0000
0031
,
1000
0100
1000
0000
0001
0010
0001
0100
,
0020
0000
1030
0200
0000
2300
0000
3001
,
0010
0001
0100
0000
0010
1000
0100
0010
,
0002
1000
1000
1003
0000
0001
0001
1000
,
0002
0000
0203
0000
0310
1000
0100
1000
,
0000
0010
0000
0100
0000
0001
0010
0100
,
1000
0000
0002
0000
1003
0001
0100
0010
,
0000
1000
0000
0100
0000
0020
0000
0031
,
1000
0010
2000
0001
3000
0001
0010
0001
,
0100
0001
0020
0001
0030
0001
0100
0001
,
0010
0100
1000
0020
0000
1030
0100
0010
,
0001
1000
0000
0001
0000
1001
0000
1000
,
1000
0000
0002
0000
0103
0010
0100
0001
,
0000
1001
0000
1100
0000
0210
0000
1300
,
0010
0000
0120
0000
0130
0001
0010
0001
,
0000
0011
0000
1001
0000
1020
0000
1030
,
0001
1000
0020
1000
0030
1000
0100
0010
,
0100
1000
0002
1000
0003
1000
0001
0010
,
0001
0100
0020
0100
0030
0100
0010
1000
,
0200
1000
2300
0000
3002
0010
0013
0000
,
0210
0000
0310
0002
1000
0003
1200
0000
,
1300
0001
0100
0000
0001
0010
0001
0100
,
0020
0000
1030
0002
0100
0003
0120
0000
,
1030
0010
0100
0000
0010
0100
0001
0010
,
0002
0000
0013
0200
1000
0300
2100
0000
,
3100
0010
0001
0000
0002
0000
2003
0000
,
3002
0000
0013
0200
1000
0300
1020
0000
,
2030
0001
0000
3001
0000
0001
1000
0100
,
2100
0000
0000
0001
0000
0000
0020
0000
,
0000
0000
0000
0000
0000
3030
0000
0000
;

//---------------dance-single - DDRDAIKENKAI----------------
#NOTES:
     dance-single:
     DDRDAIKENKAI:
     Medium:
     5:
     0.428,0.485,0.018,0.564,0.000: // measure 1
0000
0000
0000
0000
,  // measure 2
0000
0000
0000
0000
,  // measure 3
0000
0000
0000
0000
,  // measure 4
0000
0000
0000
0000
,  // measure 5
1000
0000
0001
0000
1000
0000
0001
1000
,  // measure 6
0001
0000
1000
0000
0001
0000
1000
0001
,  // measure 7
0100
0000
0010
0000
0100
0000
0010
0100
,  // measure 8
0010
0000
1000
0000
0100
0000
1000
1000
,  // measure 9
2000
0000
0000
0000
0000
0000
3001
0010
,  // measure 10
0000
0001
0000
0100
0000
0000
0000
0000
,  // measure 11
0020
0000
0000
0000
0000
0030
0100
0001
,  // measure 12
0000
0010
0000
0100
0000
0000
0000
0000
,  // measure 13
2000
0000
0000
3020
0000
0000
0230
0000
,  // measure 14
0000
0000
0000
0000
0302
0000
0013
0100
,  // measure 15
2000
0000
0000
3200
0000
0000
0320
0000
,  // measure 16
0000
0000
0000
0000
0000
0000
0031
0100
,  // measure 17
0002
0000
0000
0023
0000
0000
0032
0000
,  // measure 18
0000
0000
2003
3200
,  // measure 19
0320
0000
0000
0032
0000
0000
0203
0000
,  // measure 20
0020
0000
0000
0330
,  // measure 21
0010
0000
1000
0000
0001
1000
0100
0000
,  // measure 22
1000
0000
0001
0000
0100
0010
0100
0000
,  // measure 23
0001
0000
0100
0000
0010
1000
0010
0000
,  // measure 24
1000
0000
0100
0000
1000
0001
1000
0000
,  // measure 25
0001
0000
0100
0000
0010
0100
0010
0000
,  // measure 26
0100
0001
0010
0100
,  // measure 27
1000
0000
0001
0000
1000
0010
1000
0000
,  // measure 28
0001
0000
0001
0000
0100
0010
0100
0000
,  // measure 29
0002
0000
0003
0000
0100
0010
1000
0000
,  // measure 30
0002
0000
0003
0000
0010
0001
1000
0000
,  // measure 31
0002
0000
0003
0000
1000
0010
0100
0000
,  // measure 32
0002
0000
0003
0000
0010
0001
0100
0000
,  // measure 33
0010
1000
0100
0000
1000
0100
1000
0000
,  // measure 34
0001
0010
0001
0000
0100
0010
0100
0000
,  // measure 35
0002
0023
0230
2300
,  // measure 36
3002
0100
0000
0203
0000
0000
0320
0000
,  // measure 37
1030
0000
0001
0000
1000
0100
1000
0000
,  // measure 38
0010
0000
0100
0000
0001
0010
0001
0000
,  // measure 39
1000
0000
1000
0000
0001
0100
0001
0100
,  // measure 40
0020
2030
3200
0320
,  // measure 41
0031
0000
1000
0000
0010
0100
0010
0100
,  // measure 42
0002
0023
0230
2300
,  // measure 43
3001
0000
0100
0000
0010
1000
0010
0000
,  // measure 44
0202
0000
0000
0303
0000
0001
1000
0000
,  // measure 45
0020
0000
1030
0000
0001
1000
0001
0000
,  // measure 46
0100
0010
0000
0100
0000
0010
0000
0000
,  // measure 47
2000
0000
3001
0000
1000
0100
1000
0000
,  // measure 48
0001
0010
0000
0001
0000
0010
0000
0100
,  // measure 49
1000
0000
0001
2000
0000
0000
3100
0000
,  // measure 50
1000
0000
0010
0200
0000
0000
0301
0000
,  // measure 51
0010
0000
0200
0020
0000
0000
0000
0000
,  // measure 52
0330
0001
0000
0001
0000
0002
0000
1003
,  // measure 53
0100
0000
2000
0000
3001
0100
0010
0000
,  // measure 54
1000
0100
0000
0100
0000
2000
0000
3000
,  // measure 55
0001
0000
0020
0000
0130
0010
0001
0000
,  // measure 56
1000
0010
0000
0010
0000
2000
0000
3000
,  // measure 57
0010
0000
0100
0002
0000
0000
0013
0000
,  // measure 58
0100
0000
1000
0020
0000
0000
1030
0000
,  // measure 59
0100
0000
0010
0002
0000
0000
1003
0000
,  // measure 60
0200
0301
0020
1030
,  // measure 61
0200
0000
1300
0000
0001
0100
0010
0000
,  // measure 62
1000
0100
1000
0000
0001
0010
0001
0010
,  // measure 63
0100
0000
0010
0000
0001
0100
0001
0000
,  // measure 64
1000
0010
1000
0000
0001
0000
1000
0100
,  // measure 65
1000
0000
0001
0000
0100
0010
0100
0000
,  // measure 66
0001
0010
0200
2300
,  // measure 67
3002
0000
0013
0020
0000
0100
0230
0000
,  // measure 68
2300
0001
0000
0001
0000
0001
3001
0000
,  // measure 69
0022
0000
0000
0003
0000
0000
0030
0000
;

//---------------dance-single - DDRDAIKENKAI----------------
#NOTES:
     dance-single:
     DDRDAIKENKAI:
     Easy:
     3:
     0.224,0.303,0.062,0.273,0.000:
0000
0000
0000
0000
,
0000
0000
0000
0000
,
0000
0000
0000
0000
,
0000
0000
0000
0000
,
0000
0000
0000
0000
,
0000
0000
0000
0000
,
0000
0000
0000
0000
,
0000
0000
0000
1000
,
2002
0000
0000
0000
,
3003
0000
0000
0010
,
0200
0000
0000
0000
,
0300
0000
0000
0000
,
0002
0000
0000
2003
,
0000
0000
3010
0010
,
0020
0000
0000
2030
,
0000
0000
3000
0001
,
2000
0000
0000
3020
,
0000
0000
1030
0001
,
0200
0000
0310
0000
,
0220
0000
0330
0000
,
1000
0000
0001
0000
,
0100
0000
0010
1000
,
0001
0000
1000
0000
,
0100
0000
0010
0001
,
1000
0000
0001
0000
,
0100
0000
0010
1000
,
0100
0000
1000
0010
,
0100
0000
0110
0000
,
0001
0000
0010
0000
,
0001
0000
1000
0100
,
1000
0000
0010
0000
,
0100
0000
0001
1000
,
0001
0000
1000
0000
,
0100
1000
0100
0000
,
0010
0001
0010
0001
,
0020
0000
0030
0000
,
0001
0000
1000
0000
,
0010
0000
0100
0100
,
0001
0000
0010
0000
,
0100
1000
0100
1000
,
0001
0000
0010
0000
,
0001
0100
0001
0100
,
0010
0000
1000
0000
,
0200
0000
0300
0000
,
0220
0000
0330
0000
,
0001
1000
0001
1000
,
2002
0000
3003
0000
,
0010
0100
0010
0100
,
0110
0000
0001
0000
,
1000
0000
0100
0000
,
0020
0000
0002
0000
,
0033
0000
0000
0000
,
2000
0000
3000
0001
,
0100
0010
1000
0000
,
0020
0000
0030
1000
,
0010
1000
0100
0010
,
0002
0000
1003
0100
,
0020
0000
0031
0010
,
0200
0000
1300
0001
,
2000
0000
3020
0000
,
0230
0000
0301
0001
,
1000
0000
0010
0100
,
0010
0000
1000
0100
,
0100
0000
1000
0001
,
1000
0000
0001
1000
,
1000
0000
0001
0100
,
0010
0000
1000
0010
,
0200
0000
0301
0000
,
2002
0000
0000
3003
;

//---------------dance-single - DDRDAIKENKAI----------------
#NOTES:
     dance-single:
     DDRDAIKENKAI:
     Beginner:
     1:
     0.155,0.212,0.044,0.203,0.000:
0000
0000
0000
0000
,
0000
0000
0000
0000
,
0000
0000
0000
0000
,
0000
0000
0000
0000
,
0000
0000
0000
0000
,
0000
0000
0000
0000
,
0000
0000
0000
0000
,
0000
0000
0000
1000
,
2000
0000
0000
0000
,
3000
0000
0000
0001
,
0002
0000
0000
0000
,
0003
0000
0000
0000
,
0200
0000
0000
0000
,
0000
0000
0300
0000
,
0020
0000
0000
0000
,
0000
0000
0030
0000
,
2000
0000
0000
0000
,
0000
0000
3000
0000
,
0001
0000
1000
0000
,
2002
0000
3003
0000
,
2000
0000
0000
0000
,
3000
0000
0001
0001
,
0002
0000
0000
0000
,
0003
0000
0000
0100
,
0200
0000
0000
0000
,
0300
0000
0010
0010
,
0020
0000
0030
0000
,
0200
0000
0300
0000
,
0001
0000
0001
0000
,
1000
0000
1000
0000
,
0001
0000
0001
0000
,
1000
0000
0001
0000
,
0200
0000
0300
0000
,
0020
0000
0030
0000
,
1000
0000
0010
0000
,
0220
0000
0330
0000
,
0010
0000
1000
0000
,
0001
0000
1000
0000
,
0100
0000
0100
0000
,
1000
0000
0001
0000
,
0100
0000
0100
0000
,
0010
0000
1000
0000
,
0001
0000
1000
0000
,
1001
0000
0000
1000
,
1000
0000
0000
0001
,
0001
0000
0000
0100
,
0100
0000
0000
0010
,
0010
0000
0000
1000
,
1000
0000
1000
0000
,
0001
0000
0001
0000
,
0100
0000
0220
0000
,
0330
0000
0000
0000
,
0100
0000
0100
0000
,
0010
0010
0010
0000
,
1000
0000
1000
0000
,
0001
0001
0001
0000
,
1000
0000
1000
0000
,
0010
0000
0010
0000
,
0001
0000
0001
0000
,
0010
0000
1000
0000
,
0200
0000
0000
0000
,
0300
0000
1000
1000
,
2000
0000
0000
0000
,
3000
0000
0000
0001
,
0002
0000
0000
0000
,
0003
0000
0010
0010
,
0010
0000
0100
0100
,
0100
0000
1000
0000
,
2002
0000
0000
3003
;
