#TITLE:BAMBINO;
#SUBTITLE:(Perfect Pitch Project Edit);
#ARTIST:MARIA SHORT;
#TITLETRANSLIT:;
#SUBTITLETRANSLIT:;
#ARTISTTRANSLIT:;
#GENRE:;
#CREDIT:;
#BANNER:BAMBINO (Perfect Pitch Project Edit).png;
#BACKGROUND:BAMBINO (Perfect Pitch Project Edit)-bg.png;
#LYRICSPATH:;
#CDTITLE:CDTitle.png;
#MUSIC:BAMBINO (Perfect Pitch Project Edit).ogg;
#OFFSET:-1.551872;
#SAMPLESTART:52.139999;
#SAMPLELENGTH:11.980000;
#SELECTABLE:YES;
#BPMS:0.000000=159.996002
;
#STOPS:32.000000=2.620000,
161.000000=2.625000
;
#BGCHANGES:;
#KEYSOUNDS:;
#ATTACKS:;

//---------------dance-single - DDRDAIKENKAI----------------
#NOTES:
     dance-single:
     DDRDAIKENKAI:
     Challenge:
     10:
     0.821293,0.993667,0.384926,0.459428,0.869187,463.000000,432.000000,31.000000,37.000000,0.000000,3.000000,0.821293,0.993667,0.384926,0.459428,0.869187,463.000000,432.000000,31.000000,37.000000,0.000000,3.000000:
// measure 0
0000
0000
0000
0000
,  // measure 1
0000
0000
0000
0000
,  // measure 2
0000
0000
0000
0000
,  // measure 3
0000
0000
0000
1001
,  // measure 4
0101
0000
0001
0000
0010
0000
0100
0000
1000
0100
0000
1000
0100
0000
0010
0000
,  // measure 5
0001
0000
0100
0000
0010
0000
0100
0000
0000
0000
0010
1000
0100
0010
0001
0010
,  // measure 6
0100
0000
1000
0000
0001
0100
0010
1000
0100
0000
0010
0000
0000
0000
1001
0000
,  // measure 7
0001
1000
0100
0010
0001
0100
0010
1000
0100
1000
0010
0100
0001
0010
0100
1000
,  // measure 8
0002
0003
0000
0000
0000
0000
0000
0000
0000
0000
0000
0000
0000
0000
0000
0000
1000
0000
0000
0000
0001
0000
0000
0000
0010
0000
0000
0000
0100
0000
0000
0000
1000
0000
0000
0000
0100
0000
0000
0000
0010
0000
0000
0000
0001
0000
0000
0000
0100
0000
0000
0000
0001
0000
0000
0000
0010
0000
0000
0000
0100
0000
0000
0000
,  // measure 9
1000
0100
0010
0001
0100
0010
0100
0010
1000
0010
1000
0010
1000
0001
1000
0001
,  // measure 10
0100
0001
0100
0001
0010
0001
0100
0010
1000
0010
0100
0001
0010
0001
0100
0010
,  // measure 11
1000
0100
0010
0001
0010
0000
0010
0001
0000
0001
1000
0000
2002
0000
0000
0000
,  // measure 12
3003
0000
0000
0000
0001
1000
0100
0010
0001
0100
0010
1000
0100
1000
0010
0100
,  // measure 13
0001
0100
0010
1000
0100
1000
0100
1000
0010
1000
0010
1000
0010
0100
0010
0100
,  // measure 14
0001
0100
0001
0100
0001
0010
0100
1000
0010
0100
0001
0010
0100
0010
0001
0100
,  // measure 15
0010
1000
0100
0010
0001
0000
0001
1000
0000
1000
0010
0000
0220
0000
0000
0000
,  // measure 16
0000
0000
0330
0000
0010
1000
0001
0100
,  // measure 17
0000
0101
0001
0010
0001
0100
0010
1000
,  // measure 18
0000
1000
0100
0010
0001
0100
0010
1000
,  // measure 19
0000
0000
1000
0001
1000
0000
0100
0000
0001
0000
0100
0000
2200
0000
0000
0000
,  // measure 20
0010
0000
3300
0000
1010
0000
1000
0001
,  // measure 21
0000
1001
0001
1000
0100
0010
0001
0100
,  // measure 22
0000
0100
0010
1000
0001
0100
0010
1000
,  // measure 23
0000
0000
1000
0100
1000
0000
0010
0000
0001
0000
0010
0000
2020
0000
0000
0000
,  // measure 24
3031
0000
0000
0000
0102
0000
0000
0000
0103
0000
0010
0000
1000
0000
0000
1010
,  // measure 25
0000
1001
1000
0001
0100
0010
1000
0000
,  // measure 26
0001
1000
0010
0100
0001
0100
1000
0100
,  // measure 27
0001
0000
0000
0000
0001
0010
0100
0010
0001
0100
0010
1000
0100
1000
0010
1000
,  // measure 28
0010
0100
0001
1000
0020
0000
0000
0000
1030
0000
0001
0000
0100
0000
0000
0110
,  // measure 29
0000
1010
0001
1000
0010
0100
0001
0000
,  // measure 30
0001
0010
0001
0100
0010
1000
0100
0010
,  // measure 31
0001
0000
0000
0000
1010
0000
0000
0101
0000
0000
0110
0000
1001
0000
0000
0000
,  // measure 32
0220
0000
1330
1000
0001
0000
0100
0010
,  // measure 33
0100
0000
0001
2000
0000
0000
3100
0010
0100
0010
0002
0000
0000
0000
0103
0000
,  // measure 34
1000
0100
0010
1000
0100
0001
0100
1000
,  // measure 35
0001
1000
0001
1000
0100
0000
1100
0000
,  // measure 36
0110
0010
2002
3003
0000
0201
0000
0301
,  // measure 37
1000
0100
0210
0000
0000
2300
0000
3010
,  // measure 38
0110
0000
0102
0000
1003
0001
0100
0010
,  // measure 39
1000
0000
0100
0000
2001
0000
3000
0000
1002
0000
0000
0000
1003
0100
1000
0100
,  // measure 40
2000
0000
0000
0000
0000
0000
0000
0000
0000
0000
0000
0000
0000
0000
0000
0000
3002
0003
0000
0000
0000
0000
0000
0000
0000
0000
0000
0000
0000
0000
0000
0000
1000
0000
0000
0000
0001
0000
0000
0000
0100
0000
0000
0000
0010
0000
0000
0000
1000
0000
0000
0000
0100
0000
0000
0000
1000
0000
0000
0000
0010
0000
0000
0000
,  // measure 41
0100
0010
1000
0100
0010
0100
1000
0010
0100
0010
0100
0010
0100
0001
0100
0001
,  // measure 42
1000
0001
1000
0001
1000
0100
1000
0100
0010
0001
0010
0100
1000
0010
0100
0001
,  // measure 43
0010
0001
0100
0010
1000
0100
0010
0001
1000
0001
0000
0001
1000
0010
0100
0000
,  // measure 44
0202
0303
0000
0000
0010
0001
0000
0001
0100
0010
0100
0010
2000
3002
2003
3002
,  // measure 45
0013
0100
0010
0100
2000
3002
2003
3002
0013
0001
0010
0001
0100
0001
0100
0001
,  // measure 46
0010
0100
0010
0100
1000
0100
1000
0100
1000
0010
0100
0001
0010
0001
0100
0010
,  // measure 47
1000
0010
0100
0001
1000
0001
0100
0010
1000
0000
0001
0100
0000
0010
1000
0000
,  // measure 48
2002
0000
3003
0000
;

//---------------dance-single - DDRDAIKENKAI----------------
#NOTES:
     dance-single:
     DDRDAIKENKAI:
     Hard:
     8:
     0.592466,0.692556,0.285590,0.335258,0.167629,334.000000,311.000000,23.000000,27.000000,0.000000,0.000000,0.592466,0.692556,0.285590,0.335258,0.167629,334.000000,311.000000,23.000000,27.000000,0.000000,0.000000:
0000
0000
0000
0000
,
0000
0000
0000
0000
,
0000
0000
0000
0000
,
0000
0000
0000
1001
,
0101
0000
0001
0000
0010
0000
0100
0000
1000
0100
0000
0100
1000
0000
0001
0000
,
0010
0000
0001
0000
0100
0000
0010
0000
0000
0000
1000
0010
0100
0000
0001
0000
,
0100
0000
0010
0000
1000
0001
1000
0000
0001
0000
0010
0000
0000
0000
0012
0000
,
0010
0013
0100
1000
0001
0100
0010
1000
,
1001
0000
1001
0001
1000
0010
0100
0010
,
1000
0100
0010
0100
1000
0001
1000
0100
,
0010
0001
0100
0010
1000
0001
1000
0010
,
0100
0000
0001
0000
0010
0000
0100
1000
0000
0100
1000
0000
2002
0000
0000
0000
,
3003
0000
1000
0010
0100
0001
0010
0001
,
0100
0010
1000
0001
1000
0100
0010
0001
,
0100
0010
1000
0001
0010
1000
0010
0001
,
0100
0000
0010
0000
1000
0000
0001
0100
0000
0001
0100
0000
0220
0000
0000
0000
,
0000
0000
0330
0000
0010
1000
0001
0100
,
0000
0102
0000
0103
0001
1000
0100
0010
,
0000
0010
0100
1000
0100
0001
0100
0010
,
0000
0010
0001
0100
0010
1000
0001
0000
,
2002
0000
3003
0000
1001
0001
0100
0010
,
0000
0120
0000
1030
0010
0100
0001
1000
,
0000
1000
0001
0100
0010
1000
0100
0010
,
0000
0010
0001
0010
0100
1000
0001
0000
,
2002
0000
0000
0000
3003
0000
0000
0000
0001
0000
0100
0000
0010
0000
0000
0110
,
0000
1000
0001
1000
0010
0100
0010
0000
,
0010
0100
0001
0100
1000
0100
0001
1000
,
0100
0000
1000
0100
0010
0001
1000
0000
,
2002
0000
0000
0000
3003
0000
0000
0000
0001
0000
1000
0000
0010
0000
0000
1010
,
0000
0010
0100
0001
0100
0010
0000
1000
,
0001
1000
0100
0010
0001
0100
0010
1000
,
0001
0000
0000
0000
1000
0000
0000
0001
0000
0000
0100
0000
0010
0000
0000
0000
,
0110
0000
2020
3030
0000
0000
0001
0001
,
1000
0000
0100
0000
0000
0000
1000
0100
1000
0100
0020
0000
0000
0000
0031
0000
,
0010
0100
1000
0001
1000
0100
0010
0001
,
0100
0010
1000
0001
0100
0000
0101
0000
,
1010
0000
2002
3003
0000
0000
0000
0001
,
1000
0010
1010
0010
1000
0200
0000
1300
,
0020
0000
2030
0000
3100
0010
0001
0100
,
0010
0000
1000
0000
0002
0000
0000
0000
2003
0000
0000
0000
3001
0100
0001
0100
,
0002
0000
0000
0000
0000
0000
0000
0000
0000
0000
0000
0000
0000
0000
0000
0000
2000
3003
0000
0000
0000
0000
0000
0000
0000
0000
0000
0000
0000
0000
0000
0000
1001
0000
0000
0000
0000
0000
0000
0000
0001
0000
0000
0000
0000
0000
0000
0000
0100
0000
0000
0000
0000
0000
0000
0000
0010
0000
0000
0000
0000
0000
0000
0000
,
1000
0010
0100
0001
0010
0001
1000
0001
,
0100
0001
1000
0001
1000
0100
0010
0100
,
1000
0000
0010
0000
0001
0000
0010
0000
1000
0001
0000
0100
0000
0001
1000
0000
,
0001
0010
0000
0000
0100
1000
0000
1000
0010
0000
1000
0000
0001
0010
0001
0010
,
0001
0000
1000
0000
0001
0100
0001
0100
0010
0000
1000
0000
0100
0000
1000
0000
,
0010
0100
0001
0010
0100
0010
0001
0100
,
0010
0000
1000
0000
0100
0000
0001
0000
0100
0000
1000
0001
0000
1000
0001
0000
,
2002
0000
3003
0000
;

//---------------dance-single - DDRDAIKENKAI----------------
#NOTES:
     dance-single:
     DDRDAIKENKAI:
     Medium:
     6:
     0.372509,0.451667,0.086919,0.533929,0.031042,210.000000,203.000000,7.000000,43.000000,0.000000,0.000000,0.372509,0.451667,0.086919,0.533929,0.031042,210.000000,203.000000,7.000000,43.000000,0.000000,0.000000:
0000
0000
0000
0000
,
0000
0000
0000
0000
,
0000
0000
0000
0000
,
0000
0000
0000
0000
,
0000
0000
0000
0000
,
0000
0000
0000
0000
,
0000
0000
0000
0000
,
0000
0000
0000
0000
,
1001
0000
0010
1000
0010
0000
1000
0001
,
0100
0002
0023
0230
,
2300
0000
3001
0010
0001
0000
1000
0100
,
1000
0000
0000
0000
0010
0000
0000
0010
0000
0000
0010
0000
2000
0000
0000
0000
,
3000
0000
0001
0100
0001
0000
1000
0100
,
1000
0020
0230
0302
,
2003
0000
3001
0010
0001
0000
0100
0010
,
0100
0000
0000
0000
0001
0000
0000
1000
0000
0000
0001
0000
2002
0000
0000
0000
,
0000
0000
3003
0000
0001
0100
0001
0100
,
0000
0000
0001
0010
0001
0010
0001
0010
,
0000
0001
1000
0100
1000
0000
0001
0100
,
0000
0001
0200
0000
0000
0000
0002
0000
,
0303
0000
0000
0000
1001
0000
0001
0100
,
0001
0000
1000
0100
1000
0100
1000
0100
,
0000
1000
0010
1000
0010
0000
0100
0010
,
0000
0010
0200
0000
0000
0000
0302
0000
,
2000
0000
3003
0000
0001
0010
0001
0000
,
1000
0000
0001
0100
0001
0000
1000
0000
,
0010
0000
0100
0001
0100
0000
0010
1000
,
0010
0000
1000
0100
0010
0001
0020
0000
,
0200
0000
0330
0000
1000
0100
1000
0000
,
0010
0000
1000
0001
1000
0000
0010
0000
,
0100
0000
0001
0010
0001
0000
1000
0100
,
1000
0000
0000
0000
0001
0000
0000
0010
0000
0000
0100
0000
2000
0000
0000
0000
,
3002
0000
1003
0100
1000
0000
0001
0010
,
0001
0000
0100
0010
1000
0000
0010
0100
,
0001
0000
1000
0100
1000
0001
0000
0010
,
0000
0001
1000
0001
0200
0000
0302
0000
,
1003
0000
2002
0000
3003
0000
1000
0100
,
1000
0000
2200
0000
3300
0000
0100
0010
,
0001
0000
0012
0000
2003
0000
3001
0010
,
0100
1000
0200
0000
2300
0000
3001
2000
,
0002
0000
3003
0000
1000
0010
1000
0000
,
0001
0100
0001
0000
0020
0000
0032
0000
,
0203
0000
0320
0000
1030
0100
1000
0000
,
0010
0000
0100
0000
0010
0000
0000
0000
0100
0000
0000
0100
0000
0000
0100
0000
,
0002
0000
0003
0000
1000
0100
0010
0000
,
0010
0001
0100
0000
0020
0000
0230
0000
,
0302
0000
0023
0000
0130
1000
0100
0000
,
0010
0000
0001
0000
0010
0000
0000
0000
0001
0000
0000
1000
0000
0000
0001
0000
,
2002
0000
3003
0000
;

//---------------dance-single - DDRDAIKENKAI----------------
#NOTES:
     dance-single:
     DDRDAIKENKAI:
     Beginner:
     2:
     0.200445,0.301111,0.099336,0.136587,0.000000,113.000000,105.000000,8.000000,11.000000,0.000000,0.000000,0.200445,0.301111,0.099336,0.136587,0.000000,113.000000,105.000000,8.000000,11.000000,0.000000,0.000000:
0000
0000
0000
0000
,
0000
0000
0000
0000
,
0000
0000
0000
0000
,
0000
0000
0000
0000
,
1000
0000
0001
0000
,
0100
0000
0100
0000
,
0010
0000
1000
0000
,
0010
0010
0010
0010
,
0010
0010
0000
0100
,
0000
0001
0000
1000
,
0000
0001
0000
0100
,
0000
0010
0010
0010
,
0000
1000
0000
0100
,
0000
1000
0000
0010
,
0000
0100
0000
0001
,
0000
0010
0010
0020
,
0000
0030
0000
0001
,
0000
1000
1000
1000
,
0000
0001
0001
0001
,
0000
0220
0000
0000
,
0330
0000
0001
0001
,
0000
1000
1000
1000
,
0000
0001
0001
0001
,
0000
2002
0000
0000
,
3003
0000
0001
0001
,
0000
0100
0100
0100
,
0000
0010
0000
0010
,
0000
1000
1000
1000
,
2000
3000
0000
0001
,
0000
0010
0010
0010
,
0000
0100
0100
0100
,
0000
2002
0000
3003
,
0000
1000
0000
1000
,
0000
0001
0000
0001
,
0000
0100
0000
0100
,
0000
0010
0010
0010
,
0000
1000
0000
1000
,
0000
0100
0000
0100
,
0000
0010
0000
0010
,
0000
0001
0001
0001
,
0000
1001
1001
0000
,
0001
0000
1000
1000
,
1000
0000
0001
0001
,
0001
0000
0100
0100
,
0200
0000
0300
0000
,
0010
0000
0010
0010
,
0010
0000
1000
1000
,
1000
0000
1001
1001
,
2002
0000
3003
0000
;

//---------------dance-single - DDRDAIKENKAI----------------
#NOTES:
     dance-single:
     DDRDAIKENKAI:
     Easy:
     4:
     0.266078,0.391445,0.211088,0.682933,0.000000,150.000000,133.000000,17.000000,55.000000,0.000000,0.000000,0.266078,0.391445,0.211088,0.682933,0.000000,150.000000,133.000000,17.000000,55.000000,0.000000,0.000000:
0000
0000
0000
0000
,
0000
0000
0000
0000
,
0000
0000
0000
0000
,
0000
0000
0000
0000
,
0000
0000
0000
0000
,
0000
0000
0000
0000
,
0000
0000
0000
0000
,
0000
0000
0000
0000
,
1001
0001
0001
1000
,
1000
0020
0230
0320
,
0230
0301
0001
1000
,
1000
0001
0100
0220
,
0330
0010
0010
0100
,
0100
0020
2030
3020
,
2030
3001
0001
0100
,
0100
0010
1000
2002
,
0000
3003
0001
1000
,
0000
0100
0010
0001
,
0000
1000
0010
0100
,
0000
0020
0000
1000
,
2000
0000
3030
1000
,
0000
0001
0001
0100
,
0000
0010
0010
1000
,
0000
0200
0000
0010
,
0020
0330
0001
0002
,
1003
1000
0100
2000
,
3001
0100
0100
0020
,
0030
1000
0001
0200
,
0002
0303
0001
0002
,
0003
0100
0010
2000
,
3000
0010
0100
0002
,
0000
1003
1000
2002
,
3003
0202
0303
2020
,
3030
0010
0100
0220
,
0330
0001
0010
0100
,
1000
0001
0100
0202
,
0303
2020
3030
0022
,
0033
1000
0100
2200
,
3300
1000
0100
0010
,
0001
1001
1001
0110
,
1002
0103
1000
1000
,
0001
0001
0200
0320
,
0230
0320
1030
1000
,
0001
0001
0100
0001
,
2002
3003
0001
0002
,
1003
2000
3020
0230
,
0320
0230
0301
0001
,
1000
1000
0001
0010
,
0220
0000
0330
0000
;
