#TITLE:Always Smiling;
#SUBTITLE:~きっと笑顔がイチバンさ~;
#ARTIST:From Tritsch-Tratsch Polka;
#TITLETRANSLIT:;
#SUBTITLETRANSLIT:~Kitto egao ga ichiban sa~;
#ARTISTTRANSLIT:;
#GENRE:HAPPINESS;
#CREDIT:;
#MENUCOLOR:;
#NEWMETERSYSTEM:NO;
#BANNER:Always Smiling.png;
#BACKGROUND:Always Smiling-bg.png;
#LYRICSPATH:;
#CDTITLE:CDtitle.png;
#MUSIC:Always Smiling.ogg;
#OFFSET:-0.029;
#SAMPLESTART:23.900;
#SAMPLELENGTH:13.800;
#SELECTABLE:YES;
#LISTSORT:;
#DISPLAYBPM:140.000;
#BPMS:0.000=140.003,80.000=140.403,96.000=140.303,104.000=140.203,120.000=140.103,136.000=140.003;
#STOPS:;
#BGCHANGES:;
#ATTACKS:;

//---------------dance-single - DDRDAIKENKAI----------------
#NOTES:
     dance-single:
     DDRDAIKENKAI:
     Easy:
     3:
     0.229,0.259,0.022,0.056,0.000:
0000
0000
0000
0000
,
0000
0000
0000
0000
,
0000
0000
0000
0000
,
0000
0000
0000
0000
,
1000
0001
1000
0001
,
2002
0000
0000
3003
,
1000
0000
0001
0000
,
0100
0010
0100
0000
,
0001
0000
1000
0000
,
0100
0010
0100
0000
,
1000
0000
0010
0000
,
0100
0001
0100
0000
,
0001
0000
0010
0000
,
0100
1000
0100
0000
,
1000
1000
1000
0000
,
0001
0001
0001
0000
,
0100
0100
0100
0000
,
0010
0010
0010
0000
,
1000
0100
1000
0000
,
0010
0100
0010
0000
,
0100
0001
0100
0000
,
0001
0010
0001
0000
,
1000
1000
0001
0000
,
0100
0100
0010
0000
,
1000
0001
1000
0001
,
2002
0000
0000
3003
,
0001
0000
1000
0000
,
0100
0010
0001
0000
,
1000
0000
0001
0000
,
0010
0100
1000
0000
,
0010
0000
0100
0000
,
0001
0010
1000
0000
,
0010
0000
0100
0000
,
1000
0010
0001
0000
,
0010
0010
1000
0000
,
0001
0001
0100
0000
,
0001
0001
0010
0000
,
0001
0001
1000
0000
,
1000
1000
0100
0000
,
1000
1000
0010
0000
,
0100
0100
0001
0000
,
1000
1000
0001
0000
,
0100
0010
1000
1000
,
0100
0010
0001
0001
,
0100
0010
1000
1000
,
0100
0010
0001
0001
,
1000
0001
0100
0100
,
0001
1000
0010
0010
,
1000
0001
0010
0010
,
0001
1000
0100
0100
,
0020
0000
0000
0000
,
0000
0000
0000
0000
0000
0000
0000
0000
0000
0000
0000
0000
0000
0000
0000
0000
0000
0000
0000
0000
0000
0000
0000
0000
0000
0000
0000
0000
0000
0000
0000
0000
0000
0000
0000
0000
0000
0000
0000
0000
0000
0000
0000
0000
0000
0000
0000
0000
0000
0000
0000
0000
0000
0000
0000
0000
0000
0000
0000
0000
0000
0000
0000
0000
0000
0000
0000
0000
0000
0000
0000
0000
0000
0000
0000
0000
0000
0000
0000
0000
0000
0000
0000
0000
0000
0000
0000
0000
0000
0000
0000
0000
0000
0000
0000
0000
0000
0000
0000
0000
0000
0000
0000
0000
0000
0000
0000
0000
0000
0000
0000
0000
0000
0000
0000
0000
0000
0000
0000
0000
0000
0000
0000
0000
0000
0000
0000
0000
0000
0000
0000
0000
0000
0000
0000
0000
0000
0000
0000
0000
0000
0000
0000
0000
0000
0000
0000
0000
0000
0000
0000
0000
0000
0000
0000
0000
0000
0000
0000
0000
0000
0000
0000
0000
0000
0000
0000
0000
0000
0000
0030
0000
0000
0000
0000
0000
0000
0000
0000
0000
0000
0000
0000
0000
0000
0000
0000
0000
0000
0000
0000
0000
;

//---------------dance-single - DDRDAIKENKAI----------------
#NOTES:
     dance-single:
     DDRDAIKENKAI:
     Medium:
     5:
     0.432,0.403,0.178,0.200,0.067:
0000
0000
0000
0000
,
0000
0000
0000
0000
,
0000
0000
0000
0000
,
0000
0000
0000
0000
,
0000
0000
0000
0000
,
0110
0000
0100
0000
0001
1000
0100
0000
,
0010
0000
0001
1000
0100
0000
1000
0001
,
0100
0000
0001
1000
0200
0000
0310
0000
,
0001
0000
1000
0001
0010
0000
0001
1000
,
0010
0000
1000
0001
0020
0000
0031
0000
,
0100
0000
0010
1000
0100
0000
0010
0001
,
0100
0000
0010
1000
0200
0000
1300
0000
,
0010
0000
0100
0001
0010
0000
0100
1000
,
0010
0000
0100
0001
0020
0000
0130
0000
,
0110
0000
1100
0000
0101
0000
1000
1000
,
0000
0001
0001
0000
0000
0100
0010
0200
,
0000
0010
0310
0000
0000
1000
0001
2000
,
0000
0001
3002
0000
0010
0000
0103
0000
,
0110
0000
1100
0000
0101
0000
1000
1000
,
0000
0001
0001
0000
0000
0100
0010
0200
,
0000
0010
0310
0000
0000
1000
0010
2000
,
0000
3100
0020
0000
0130
0000
0110
0000
,
1001
0000
0000
0000
1000
0000
0000
0000
0100
0000
0000
0100
0000
0000
0100
0000
,
0010
0000
0000
0000
0001
0000
0000
0000
1000
0000
0000
1000
0000
0000
1000
0000
,
0001
0000
0000
0000
0100
0000
0000
0000
0010
0000
0000
0010
0000
0000
0010
0000
,
1000
0000
0000
0000
0001
0000
0000
0000
1000
0000
0000
0001
0000
0000
0100
0000
,
0010
0000
1000
0100
0010
0000
0001
0000
,
0100
0001
0010
0100
1000
0000
0000
1000
,
0010
0000
0100
0001
1000
0000
0010
0000
,
1000
0100
0010
0001
0100
0000
0000
0010
,
0100
0000
0001
0010
0100
0000
1000
0000
,
0100
0010
0001
1000
0100
0000
0010
0001
,
0010
0000
0000
1000
0010
0000
0000
0001
,
0100
0001
0100
0001
2000
0000
3001
0000
,
0011
0000
0110
0000
1001
0000
1000
1000
,
0000
0001
0001
0000
0000
0010
0001
0200
,
0000
0010
0310
0000
0000
0100
0001
2000
,
0000
0100
3200
0000
0010
0000
1300
0000
,
1010
0000
0110
0000
1001
0000
1000
1000
,
0000
0001
0001
0000
0000
0100
0010
2000
,
0000
0010
3010
0000
0000
1000
0100
0020
,
0000
0001
0032
0000
1003
0000
1001
0000
,
1000
0000
0100
0000
1000
0000
0000
0000
0001
0000
0000
0001
0000
0000
0001
0000
,
0100
0000
0010
0000
0100
0000
0000
0000
0001
0000
0000
0001
0000
0000
0001
0000
,
0010
0000
0100
0000
0010
0000
0000
0000
0100
0000
0000
0100
0000
0000
0100
0000
,
1000
0000
0010
0000
1000
0000
0000
0000
0001
0000
0000
0001
0000
0000
0001
0000
,
1000
0000
0001
0000
1000
0000
0000
0000
0001
0000
0000
0100
0000
0000
0001
0000
,
1000
0000
0010
0000
1000
0000
0000
0000
0001
0000
0000
1000
0000
0000
0001
0000
,
0010
0000
0001
0000
0010
0000
0000
0000
0100
0000
0000
1000
0000
0000
0100
0000
,
1000
0000
0010
0000
1000
0000
0000
0000
0100
0000
0000
0010
0000
0000
0001
0000
,
2000
0000
0000
0000
,
0000
0000
0000
0000
0000
0000
0000
0000
0000
0000
0000
0000
0000
0000
0000
0000
0000
0000
0000
0000
0000
0000
0000
0000
0000
0000
0000
0000
0000
0000
0000
0000
0000
0000
0000
0000
0000
0000
0000
0000
0000
0000
0000
0000
0000
0000
0000
0000
0000
0000
0000
0000
0000
0000
0000
0000
0000
0000
0000
0000
0000
0000
0000
0000
0000
0000
0000
0000
0000
0000
0000
0000
0000
0000
0000
0000
0000
0000
0000
0000
0000
0000
0000
0000
0000
0000
0000
0000
0000
0000
0000
0000
0000
0000
0000
0000
0000
0000
0000
0000
0000
0000
0000
0000
0000
0000
0000
0000
0000
0000
0000
0000
0000
0000
0000
0000
0000
0000
0000
0000
0000
0000
0000
0000
0000
0000
0000
0000
0000
0000
0000
0000
0000
0000
0000
0000
0000
0000
0000
0000
0000
0000
0000
0000
0000
0000
0000
0000
0000
0000
0000
0000
0000
0000
0000
0000
0000
0000
0000
0000
0000
0000
0000
0000
0000
0000
0000
0000
0000
3000
0000
0000
0000
0000
0000
0000
0000
0000
0000
0000
0000
0000
0000
0000
0000
0000
0000
0000
0000
0000
0000
0000
;

//---------------dance-single - DDRDAIKENKAI----------------
#NOTES:
     dance-single:
     DDRDAIKENKAI:
     Hard:
     9:
     0.641,0.576,0.489,0.033,0.311: // measure 1
0000
0000
0000
0000
,  // measure 2
0000
0000
0000
0000
,  // measure 3
1000
0000
0100
0000
0010
0000
0001
0000
0100
0000
0010
1000
0000
0010
1000
0000
,  // measure 4
0001
0000
0010
0000
0100
0000
1000
0000
0010
0000
0100
0001
0000
1000
0000
1000
,  // measure 5
0001
0000
0100
0000
0010
0000
1000
0000
0100
0000
1000
0000
0010
0000
0100
0001
,  // measure 6
2000
0000
0000
0000
0000
0000
0000
0000
3000
0001
0100
0000
0010
0000
1000
0000
,  // measure 7
1100
0000
0010
0001
0101
0000
0010
1000
,  // measure 8
0100
1000
0010
0100
0001
0000
0010
0100
,  // measure 9
1100
0000
0010
0100
0101
0000
0001
0010
,  // measure 10
1000
0010
0001
0100
0010
0000
1000
0100
,  // measure 11
0110
0000
0001
0100
0110
0000
0010
1000
,  // measure 12
0100
1000
0010
0100
0001
0000
0010
0100
,  // measure 13
1100
0000
0010
0100
0101
0000
1000
0010
,  // measure 14
1000
0100
0001
0100
1000
0001
1001
0000
,  // measure 15
0001
0001
0100
0100
0010
0010
1000
0100
,  // measure 16
0010
0010
0001
0001
1000
1000
0010
0001
,  // measure 17
0010
0010
1000
1000
0001
0001
0100
0010
,  // measure 18
0100
0100
0001
0001
0010
0100
0110
1000
,  // measure 19
1001
0000
0000
0000
1010
0000
0000
0110
0000
0000
0010
0000
1000
0000
0001
0000
,  // measure 20
0010
0000
0000
0000
0110
0000
0000
0011
0000
0000
0001
0000
0100
0000
0010
0000
,  // measure 21
1000
0000
0000
0000
1100
0000
0000
1010
0000
0000
0010
0000
0001
0000
0010
0000
,  // measure 22
1000
0000
0000
0000
1010
0000
0000
0101
0000
0000
0100
0000
0110
0000
0010
0000
,  // measure 23
1010
0000
0010
0000
0100
0000
0001
0000
0010
0000
0100
1000
0000
0100
1000
0000
,  // measure 24
0100
0000
0010
0000
0001
0000
0100
0000
0010
0000
1000
0001
0000
1000
0000
1000
,  // measure 25
0001
0000
0010
0000
1000
0000
0010
0000
0001
0000
0100
0010
0000
0100
0010
0000
,  // measure 26
2000
0000
0000
0000
0000
0000
0000
0000
3000
0001
0100
0000
0110
0000
0010
0000
,  // measure 27
1001
0000
0000
0000
0100
0000
0010
0000
1001
0000
0000
0000
0010
1000
0000
0100
,  // measure 28
0000
0001
0100
0000
1000
0000
0010
0000
0100
0000
0000
0000
0100
0000
0010
0000
,  // measure 29
0101
0000
0000
0000
0010
0000
0100
0000
1010
0000
0000
0000
0100
0001
0000
0010
,  // measure 30
0000
1000
0010
0000
0001
0000
1000
0000
0001
0000
0000
0000
0001
0000
0100
0000
,  // measure 31
1010
0000
0000
0000
1000
0000
0100
0000
0011
0000
0000
0000
0001
0010
0000
0001
,  // measure 32
0000
0100
0010
0000
1000
0000
0100
0000
1000
0000
0000
0000
1000
0000
0001
0000
,  // measure 33
0011
0000
0000
0000
0001
0000
1000
0000
1010
0000
0000
0000
1000
0010
0000
1000
,  // measure 34
0000
0100
0010
0000
0001
0000
0100
0000
0010
0100
0010
0000
0110
0000
0000
0000
,  // measure 35
1001
0100
0001
0100
1000
0010
0100
0001
,  // measure 36
0010
1000
0010
0001
1000
0010
0001
0010
,  // measure 37
1000
0100
0010
0100
1000
0100
0001
0100
,  // measure 38
1000
0010
0100
0001
0100
0010
1001
0000
,  // measure 39
1010
0000
0000
0000
0110
0000
0000
0101
0000
0000
0100
0000
0001
0000
0010
0000
,  // measure 40
0100
0000
0000
0000
1100
0000
0000
0011
0000
0000
0001
0000
0100
0000
0010
0000
,  // measure 41
0001
0000
0000
0000
0011
0000
0000
1010
0000
0000
1000
0000
0100
0000
0010
0000
,  // measure 42
1000
0000
0000
0000
1010
0000
0000
0011
0000
0000
0001
0000
1001
0000
0100
0000
,  // measure 43
0101
0000
0001
0000
0100
0000
1000
0000
0100
0000
0001
1000
0000
0001
1000
0000
,  // measure 44
0001
0000
1000
0000
0010
0000
0001
0000
0010
0000
1000
0001
0000
0100
0000
0100
,  // measure 45
0010
0000
1000
0000
0100
0000
0010
0000
0100
0000
1000
0010
0000
1000
0010
0000
,  // measure 46
0100
0000
0001
0000
0010
0000
0100
0000
0010
0000
0001
0100
0000
0010
0000
1000
,  // measure 47
0001
0000
0100
0000
0010
0000
0001
0000
0010
0000
1000
0001
0000
1000
0001
0000
,  // measure 48
1000
0000
0010
0000
0100
0000
1000
0000
0100
0000
0001
1000
0000
0100
0000
0100
,  // measure 49
0010
0000
0001
0000
1000
0000
0010
0000
0001
0000
0010
1000
0000
1000
0001
0000
,  // measure 50
1000
0000
0100
0000
0010
0000
0001
0000
0100
0000
0010
1000
0000
0100
0000
0010
,  // measure 51
0002
0000
0000
0000
,  // measure 52
0000
0000
0000
0000
0000
0000
0000
0003
;
