#TITLE:STRICTLY BUSINESS;
#SUBTITLE:;
#ARTIST:MANTRONIK vs. EPMD;
#TITLETRANSLIT:;
#SUBTITLETRANSLIT:;
#ARTISTTRANSLIT:;
#CREDIT:;
#BANNER:STRICTLY BUSINESS.png;
#BACKGROUND:STRICTLY BUSINESS-bg.png;
#LYRICSPATH:;
#CDTITLE:CDTITLES/Dancemania.png;
#MUSIC:STRICTLY BUSINESS.mp3;
#OFFSET:-0.094;
#SAMPLESTART:59.490;
#SAMPLELENGTH:12.000;
#SELECTABLE:YES;
#BPMS:0.000=125.200;
#STOPS:;
#BGCHANGES:24.000=Blinds1.avi=1.000=1=0=1,
40.000=Cube6.avi=1.000=0=0=1,
64.000=Aliens1.avi=1.000=0=0=1,
72.000=Blinds1.avi=1.000=0=0=1,
80.000=Aliens1.avi=1.000=0=0=1,
88.000=Blinds1.avi=1.000=0=0=1,
96.000=Aliens1.avi=1.000=0=0=1,
104.000=Blinds1.avi=1.000=0=0=1,
112.000=Aliens1.avi=1.000=0=0=1,
116.000=Cube6.avi=1.000=0=0=1,
124.000=Dance12.avi=1.000=0=0=1,
128.000=Text16.avi=1.000=0=0=1,
132.000=Dance12.avi=1.000=0=0=1,
136.000=Lines4.avi=1.000=0=0=1,
140.000=Dance12.avi=1.000=0=0=1,
144.000=Text16.avi=1.000=0=0=1,
148.000=Dance12.avi=1.000=0=0=1,
152.000=Lines4.avi=1.000=0=0=1,
156.000=Aliens1.avi=1.000=0=0=1,
160.000=Blinds1.avi=1.000=0=0=1,
164.000=Cube6.avi=1.000=0=0=1,
168.000=Aliens1.avi=1.000=0=0=1,
172.000=Dance12.avi=1.000=0=0=1,
176.000=Text16.avi=1.000=0=0=1,
180.000=Dance12.avi=1.000=0=0=1,
184.000=Aliens1.avi=1.000=0=0=1,
187.000=STRICTLY BUSINESS-bg.png=1.000=0=0=1;

//---------------dance-single - ----------------
#NOTES:
     dance-single:
     :
     Easy:
     4:
     0.256,0.276,0.000,0.000,0.000: // measure 1
0000
0000
0000
0000
,  // measure 2
0000
0000
0000
0000
,  // measure 3
0000
0000
0000
0000
,  // measure 4
0000
0000
0000
0000
,  // measure 5
0000
0000
0000
0000
,  // measure 6
0000
0000
0000
0000
,  // measure 7
0000
0001
0000
0010
,  // measure 8
0000
0000
1000
0100
,  // measure 9
0000
0001
0000
0010
,  // measure 10
1000
0001
0010
0100
,  // measure 11
0001
0100
1000
0000
0001
0100
1000
0000
,  // measure 12
0100
0001
0010
1000
,  // measure 13
0100
0001
0010
1000
,  // measure 14
0100
0001
0010
1000
,  // measure 15
0100
0001
0010
1000
,  // measure 16
0100
0000
0100
0000
0001
0100
1000
0000
,  // measure 17
0100
0001
0010
1000
,  // measure 18
0100
0001
0010
0100
,  // measure 19
0001
0010
1000
0100
,  // measure 20
0001
0010
1000
0001
,  // measure 21
0100
1000
0010
0001
,  // measure 22
0100
1000
0010
0100
,  // measure 23
1000
0010
0001
0100
,  // measure 24
1000
0000
0010
0000
0001
0100
1000
0000
,  // measure 25
0100
0001
0010
1000
,  // measure 26
0100
0001
0010
0100
,  // measure 27
0001
0010
1000
0100
,  // measure 28
0001
0010
1000
0001
,  // measure 29
0100
1000
0010
0001
,  // measure 30
0100
1000
0010
0001
,  // measure 31
0100
0000
0100
0000
0001
0100
1000
0000
,  // measure 32
0001
0100
1000
0000
0100
0000
0001
0000
,  // measure 33
0100
1000
0100
0001
,  // measure 34
0001
0100
1000
0000
0100
0000
0001
0000
,  // measure 35
0100
1000
0100
0001
,  // measure 36
0001
1000
0100
0001
,  // measure 37
0100
1000
0100
0001
,  // measure 38
0001
0100
1000
0000
0100
0000
0001
0000
,  // measure 39
0100
1000
0100
0001
,  // measure 40
0100
1000
0100
0001
,  // measure 41
0100
1000
0100
0001
,  // measure 42
0100
1000
0100
0001
,  // measure 43
0100
1000
0100
0001
,  // measure 44
0001
1000
0100
0001
,  // measure 45
0100
1000
0100
0001
,  // measure 46
0001
0100
1000
0000
0100
0000
0001
0000
,  // measure 47
0100
1000
0100
0100
;

//---------------dance-single - ----------------
#NOTES:
     dance-single:
     :
     Medium:
     5:
     0.307,0.326,0.247,0.000,0.000: // measure 1
0000
0000
0000
0000
,  // measure 2
0000
0000
0000
0000
,  // measure 3
0000
0000
0000
0000
,  // measure 4
0000
0000
0000
0000
,  // measure 5
0000
0000
0000
0000
,  // measure 6
0000
0000
0000
0000
,  // measure 7
0000
0001
0000
0010
,  // measure 8
0000
0000
1000
0100
,  // measure 9
0000
0001
0000
0010
,  // measure 10
1000
0001
0010
0100
,  // measure 11
0001
0100
1000
0000
0001
0100
1000
0000
,  // measure 12
0100
1001
0100
0001
,  // measure 13
0100
1000
0100
0010
,  // measure 14
0100
1001
0100
0001
,  // measure 15
0100
1000
0100
0010
,  // measure 16
0100
0000
1000
0000
0001
0100
1000
0000
,  // measure 17
0100
0110
0001
0100
,  // measure 18
1000
0010
0001
0100
,  // measure 19
0100
0110
1000
0100
,  // measure 20
0001
0000
0010
0000
1000
0100
0001
0000
,  // measure 21
0010
1001
0100
0101
,  // measure 22
0010
0110
1000
0100
,  // measure 23
0001
0010
0100
0001
,  // measure 24
1100
0000
0000
0000
0001
0100
1000
0000
,  // measure 25
0010
1001
0100
0101
,  // measure 26
0010
0110
0001
0100
,  // measure 27
1000
0010
0100
1000
,  // measure 28
0101
0000
0000
0000
1000
0100
0001
0000
,  // measure 29
0100
0100
1000
0110
,  // measure 30
1000
0100
0001
0010
,  // measure 31
0100
0000
1000
0000
0001
0100
1000
0000
,  // measure 32
0001
0100
1000
0000
0100
0000
0001
0000
,  // measure 33
0100
0000
0110
0000
1000
0100
0001
0000
,  // measure 34
0001
0100
1000
0000
0100
0000
0001
0000
,  // measure 35
0100
0000
0110
0000
1000
0100
0001
0000
,  // measure 36
0001
1000
0100
0001
,  // measure 37
0100
0000
0110
0000
1000
0100
0001
0000
,  // measure 38
0001
0100
1000
0000
0100
0000
0001
0000
,  // measure 39
0100
0000
0110
0000
1000
0100
0001
0000
,  // measure 40
0100
0000
0110
0000
1000
0100
0001
0000
,  // measure 41
0100
0000
0110
0000
1000
0100
0001
0000
,  // measure 42
0100
0000
0110
0000
1000
0100
0001
0000
,  // measure 43
0100
0000
0110
0000
1000
0100
0001
0000
,  // measure 44
0001
1000
0100
0001
,  // measure 45
0100
0000
0110
0000
1000
0100
0001
0000
,  // measure 46
0001
0100
1000
0000
0100
0000
0001
0000
,  // measure 47
0100
0000
0110
0000
1000
0100
0001
0000
;

//---------------dance-single - ----------------
#NOTES:
     dance-single:
     :
     Hard:
     6:
     0.310,0.326,0.107,0.000,0.000: // measure 1
0000
0000
0000
0000
,  // measure 2
0000
0000
0000
0000
,  // measure 3
0000
0000
0000
0000
,  // measure 4
0000
0000
0000
0000
,  // measure 5
0000
0000
0000
0000
,  // measure 6
0000
0000
0000
0000
,  // measure 7
0000
0000
0000
0000
,  // measure 8
0000
0000
0000
0000
,  // measure 9
0000
0001
0000
0010
,  // measure 10
1000
0001
0010
0100
,  // measure 11
0010
1000
0100
0000
0001
0100
1000
0000
,  // measure 12
0100
1001
0100
0001
,  // measure 13
0100
1010
0100
0010
,  // measure 14
0100
1001
0100
0001
,  // measure 15
0100
1010
0100
0010
,  // measure 16
0100
0000
1000
0000
0001
0100
1000
0000
,  // measure 17
0010
1000
0001
1100
,  // measure 18
0100
0000
0001
0100
1000
0010
0001
0000
,  // measure 19
0010
0001
1000
0101
,  // measure 20
0100
0000
1000
0100
0001
0010
1000
0000
,  // measure 21
0010
1000
0100
0001
,  // measure 22
0001
0000
0100
1000
0010
1000
0100
0000
,  // measure 23
0010
0001
0100
1000
,  // measure 24
1000
0000
0100
0001
0010
0001
0100
0000
,  // measure 25
1000
0010
1001
0100
,  // measure 26
0010
0000
0110
0000
0001
0100
1000
0000
,  // measure 27
0001
0010
1001
0100
,  // measure 28
0010
0000
0110
0000
1000
0100
0001
0000
,  // measure 29
0100
0001
0010
1000
,  // measure 30
0010
0001
0100
1000
,  // measure 31
0100
0000
0001
0000
1000
0100
0001
0000
,  // measure 32
0001
0010
1000
0000
0100
0000
0001
0000
,  // measure 33
1000
0100
0001
0000
0100
1000
0010
0000
,  // measure 34
0001
0010
1000
0000
0100
0000
0001
0000
,  // measure 35
1000
0100
0001
0000
0100
1000
0010
0000
,  // measure 36
0001
1000
0100
0001
,  // measure 37
1000
0100
0001
0000
0100
1000
0010
0000
,  // measure 38
0001
0010
1000
0000
0100
0000
0001
0000
,  // measure 39
1000
0100
0001
0000
0100
1000
0010
0000
,  // measure 40
0010
0001
0100
0000
0001
0100
1000
0000
,  // measure 41
1000
0100
0001
0000
0100
0001
0010
0000
,  // measure 42
0010
1000
0100
0000
1000
0100
0001
0000
,  // measure 43
0001
0100
1000
0000
0100
1000
0010
0000
,  // measure 44
0001
1000
0100
0001
,  // measure 45
1000
0100
0001
0000
0100
1000
0010
0000
,  // measure 46
0001
0010
1000
0000
0100
0000
0001
0000
,  // measure 47
1000
0100
0001
0000
0100
1000
0001
0000
;

//---------------dance-double - ----------------
#NOTES:
     dance-double:
     :
     Easy:
     5:
     0.253,0.276,0.000,0.000,0.000:
00000000
00000000
00000000
00000000
,
00000000
00000000
00000000
00000000
,
00000000
00000000
00000000
00000000
,
00000000
00000000
00000000
00000000
,
00000000
00000000
00000000
00000000
,
00000000
00000000
00000000
00000000
,
00000000
00000000
00000000
00000000
,
00000000
00000000
00000000
00000000
,
00000000
01000000
01000000
00000000
,
00000000
00000100
00000100
00000000
,
00000100
00001000
00010000
00000000
01000000
00010000
00001000
00000000
,
00000010
00001000
00000100
00001000
,
00100000
00010000
01000000
00010000
,
00000010
00001000
00000100
00001000
,
00100000
00010000
01000000
00010000
,
00000010
00001000
00000000
00001000
,
00000010
00001000
00000100
00001000
,
00100000
00010000
01000000
00010000
,
00000000
00001000
00000000
00001000
,
00000010
00000001
00001000
00000100
,
00100000
10000000
00010000
01000000
,
00000010
00000001
00001000
00000100
,
00100000
10000000
00010000
01000000
,
00001000
00010000
01000000
00010000
,
00000010
00001000
00000100
00001000
,
00100000
00010000
01000000
00010000
,
01000000
10000000
00001000
01000000
,
00000100
00000001
00010000
00000100
,
01000000
10000000
00001000
01000000
,
00000100
00000001
00010000
00000100
,
00000010
00000000
00001000
00000000
01000000
00010000
00001000
00000000
,
00000100
00010000
01000000
10000000
,
00010000
00000000
00001000
00000000
01000000
00010000
00001000
00000000
,
00000100
00001000
00010000
00000000
01000000
00000000
10000000
00000000
,
00010000
00000000
00001000
00000000
01000000
00010000
00001000
00000000
,
00000100
00010000
01000000
10000000
,
00010000
00000000
00001000
00000000
01000000
00010000
00001000
00000000
,
00000100
00001000
00010000
00000000
01000000
00000000
10000000
00000000
,
00010000
00000000
00001000
00000000
01000000
00010000
00001000
00000000
,
00000010
00000000
00001000
00000000
01000000
00010000
00001000
00000000
,
00000010
00000000
00001000
00000000
01000000
00010000
00001000
00000000
,
00000010
00000000
00001000
00000000
01000000
00010000
00001000
00000000
,
00000010
00000000
00001000
00000000
01000000
00010000
00001000
00000000
,
00000100
00010000
01000000
10000000
,
00010000
00000000
00001000
00000000
01000000
00010000
00001000
00000000
,
00000100
00001000
00010000
00000000
01000000
00000000
10000000
00000000
,
00010000
00000000
00001000
00000000
01000000
00010000
00001000
00000000
;

//---------------dance-double - ----------------
#NOTES:
     dance-double:
     :
     Medium:
     6:
     0.305,0.326,0.150,0.000,0.000:
00000000
00000000
00000000
00000000
,
00000000
00000000
00000000
00000000
,
00000000
00000000
00000000
00000000
,
00000000
00000000
00000000
00000000
,
00000000
00000000
00000000
00000000
,
00000000
00000000
00000000
00000000
,
00000000
00000000
00000000
00000000
,
00000000
00000000
00000000
00000000
,
00000000
01000000
00000000
00000100
,
00001000
00000100
00000001
00000010
,
00000001
00000100
00001000
00000000
00010000
00000000
10000000
00000000
,
00110000
10000000
01000000
00010000
,
10100000
01000000
00010000
00100000
,
11000000
00010000
00100000
10000000
,
01010000
00100000
10000000
01000000
,
00100000
00000000
01000000
00000000
01000000
00010000
00001000
00000000
,
00000010
00000001
00001000
00000100
,
00000011
00000100
00000100
00001000
,
00000110
00001001
00000100
00000001
,
00000010
00000000
00001000
00000000
00000100
00001000
00010000
00000000
,
00100000
10000000
00010000
01000000
,
10100000
01000000
01000000
00010000
,
01100000
10010000
01000000
10000000
,
00100000
00000000
00010000
00000000
01000000
00010000
00001000
00000000
,
00001100
00000011
00000100
00000010
,
00001000
00000001
00001000
00010000
,
01010000
10100000
01000000
00100000
,
00010000
10000000
00010000
00001000
,
00000100
00001000
00000010
00000001
,
00000100
00001000
00000010
00000001
,
00000100
00000000
00001000
00000000
00000010
00000001
00000100
00000000
,
00000100
00001000
00010000
00000000
01000000
00000000
00001000
00000000
,
00010000
01000000
10000000
00000000
01000000
00010000
00001000
00000000
,
00000100
00001000
00010000
00000000
01000000
00000000
00001000
00000000
,
00010000
01000000
10000000
00000000
01000000
00010000
00001000
00000000
,
00000100
00001000
00010000
00000000
01000000
00000000
00001000
00000000
,
00010000
01000000
10000000
00000000
01000000
00010000
00001000
00000000
,
00000100
00001000
00010000
00000000
01000000
00000000
00001000
00000000
,
00010000
01000000
10000000
00000000
01000000
00010000
00001000
00000000
,
00000010
00001000
00010000
00000000
01000000
00010000
00001000
00000000
,
00000010
00001000
00010000
00000000
01000000
00010000
00001000
00000000
,
00000010
00001000
00010000
00000000
01000000
00010000
00001000
00000000
,
00000010
00001000
00010000
00000000
01000000
00010000
00001000
00000000
,
01000000
00010000
00001000
00000000
00000100
00000000
00010000
00000000
,
00001000
00000100
00000001
00000000
00000100
00001000
00010000
00000000
,
01000000
00010000
00001000
00000000
00000100
00000000
00010000
00000000
,
00001000
00000100
00000001
00000000
00000100
00001000
00010000
00000000
;

//---------------dance-couple - ----------------
#NOTES:
     dance-couple:
     :
     Easy:
     4:
     0.497,0.552,1.000,0.000,0.000:
00000000
00000000
00000000
00000000
,
00000000
00000000
00000000
00000000
,
00000000
00000000
00000000
00000000
,
00000000
00000000
00000000
00000000
,
00000000
00000000
00000000
00000000
,
00000000
00000000
00000000
00000000
,
00000000
00010001
00000000
00100010
,
00000000
00000000
10001000
01000100
,
00000000
00010001
00000000
00100010
,
10001000
00010001
00100010
01000100
,
00010001
01000100
10001000
00000000
00010001
01000100
10001000
00000000
,
01000100
00010001
00100010
10001000
,
01000100
00010001
00100010
10001000
,
01000100
00010001
00100010
10001000
,
01000100
00010001
00100010
10001000
,
01000100
00000000
01000100
00000000
00010001
01000100
10001000
00000000
,
01000100
00011000
00100010
10000001
,
01000100
00011000
00100010
01000100
,
00011000
00100010
10000001
01000100
,
00011000
00100010
10000001
00011000
,
01000100
10000001
00100010
00011000
,
01000100
10000001
00100010
01000100
,
10000001
00100010
00011000
01000100
,
10000001
00000000
00100010
00000000
00011000
01000100
10000001
00000000
,
01000100
00011000
00100010
10000001
,
01000100
00011000
00100010
01000100
,
00011000
00100010
10000001
01000100
,
00011000
00100010
10000001
00011000
,
01000100
10000001
00100010
00011000
,
01000100
10000001
00100010
00011000
,
01000100
00000000
01000100
00000000
00010001
01000100
10001000
00000000
,
00010001
01000100
10001000
00000000
01000100
00000000
00010001
00000000
,
01000100
10001000
01000100
00010001
,
00000001
00000100
10001000
00000000
00000100
00000000
00010001
00000000
,
00000100
10001000
00000100
00010001
,
00010001
10001000
01000100
00010001
,
01000100
10001000
01000100
00010001
,
00010000
01000000
10001000
00000000
01000000
00000000
00010001
00000000
,
01000000
10001000
01000000
00010001
,
01000100
10001000
01000100
00010001
,
01000100
10001000
01000100
00010001
,
01000100
10001000
01000100
00010001
,
01000100
10001000
01000100
00010001
,
00010001
10001000
01000100
00010001
,
01000100
10001000
01000100
00010001
,
00010001
01000100
10001000
00000000
01000100
00000000
00010001
00000000
,
01000100
10001000
01000100
01000100
;

//---------------dance-couple - ----------------
#NOTES:
     dance-couple:
     :
     Medium:
     5:
     0.579,0.652,1.000,0.000,0.000:
00000000
00000000
00000000
00000000
,
00000000
00000000
00000000
00000000
,
00000000
00000000
00000000
00000000
,
00000000
00000000
00000000
00000000
,
00000000
00000000
00000000
00000000
,
00000000
00000000
00000000
00000000
,
00000000
00010001
00000000
00100010
,
00000000
00000000
10001000
01000100
,
00000000
00010001
00000000
00100010
,
10001000
00010001
00100010
01000100
,
00010001
01000100
10001000
00000000
00010001
01000100
10001000
00000000
,
01000100
10011001
01000100
00010001
,
01000100
10001000
01000100
00100010
,
01000100
10011001
01000100
00010001
,
01000100
10001000
01000100
00100010
,
01000100
00000000
10001000
00000000
00010001
01000100
10001000
00000000
,
01000100
01100110
00010001
01000100
,
10001000
00100010
00010001
00010001
,
01000100
01100110
10001000
01000100
,
00010001
00000000
00100010
00000000
10001000
01000100
00010001
00000000
,
00100000
10010000
01000000
01010101
,
00100000
01100000
10000000
01000100
,
00010000
00100000
01000000
00010001
,
11001100
00000000
00000000
00000000
00010001
01000100
10001000
00000000
,
00000010
00001001
00000100
01010101
,
00000010
00000110
00000001
01000100
,
00001000
00000010
00000100
10001000
,
01010101
00000000
00000000
00000000
10001000
01000100
00010001
00000000
,
01000100
01000100
10001000
01100110
,
10001000
01000100
00010001
00100010
,
01000100
00000000
10001000
00000000
00010001
01000100
10001000
00000000
,
00010001
01000100
10001000
00000000
01000100
00000000
00010001
00000000
,
01000100
00000000
01100110
00000000
10001000
01000100
00010001
00000000
,
00010001
01000100
10001000
00000000
01000100
00000000
00010001
00000000
,
01000100
00000000
01100110
00000000
10001000
01000100
00010001
00000000
,
00010001
10001000
01000100
00010001
,
01000100
00000000
01100110
00000000
10001000
01000100
00010001
00000000
,
00010001
01000100
10001000
00000000
01000100
00000000
00010001
00000000
,
01000100
00000000
01100110
00000000
10001000
01000100
00010001
00000000
,
01000100
00000000
01100110
00000000
10001000
01000100
00010001
00000000
,
01000100
00000000
01100110
00000000
10001000
01000100
00010001
00000000
,
01000100
00000000
01100110
00000000
10001000
01000100
00010001
00000000
,
01000100
00000000
01100110
00000000
10001000
01000100
00010001
00000000
,
00010001
10001000
01000100
00010001
,
01000100
00000000
01100110
00000000
10001000
01000100
00010001
00000000
,
00010001
01000100
10001000
00000000
01000100
00000000
00010001
00000000
,
01000100
00000000
01100110
00000000
10001000
01000100
00010001
00000000
;

//---------------dance-couple - ----------------
#NOTES:
     dance-couple:
     :
     Hard:
     6:
     0.555,0.652,1.000,0.000,0.000:
00000000
00000000
00000000
00000000
,
00000000
00000000
00000000
00000000
,
00000000
00000000
00000000
00000000
,
00000000
00000000
00000000
00000000
,
00000000
00000000
00000000
00000000
,
00000000
00000000
00000000
00000000
,
00000000
00000000
00000000
00000000
,
00000000
00000000
00000000
00000000
,
00000000
00010001
00000000
00100010
,
10001000
00010001
00100010
01000100
,
00100010
10001000
01000100
00000000
00010001
01000100
10001000
00000000
,
01000100
10011001
01000100
00010001
,
01000100
10101010
01000100
00100010
,
01000100
10011001
01000100
00010001
,
01000100
10101010
01000100
00100010
,
01000100
00000000
10001000
00000000
00010001
01000100
10001000
00000000
,
00100000
10000000
00010000
11000000
,
01000100
00000000
00010001
01000100
10001000
00100010
00010001
00000000
,
00000010
00000001
00001000
00000101
,
01000100
00000000
10001000
01000100
00010001
00100010
10001000
00000000
,
00100000
10000000
01000000
00010000
,
00010001
00000000
01000100
10001000
00100010
10001000
01000100
00000000
,
00000010
00000001
00000100
00001000
,
10001000
00000000
01000100
00010001
00100010
00010001
01000100
00000000
,
10000000
00100000
10010000
01000000
,
00100010
00000000
01100110
00000000
00010001
01000100
10001000
00000000
,
00000001
00000010
00001001
00000100
,
00100010
00000000
01100110
00000000
10001000
01000100
00010001
00000000
,
01000100
00011000
00100010
10000001
,
00100010
00011000
01000100
10000001
,
01000100
00000000
00010001
00000000
10001000
01000100
00010001
00000000
,
00010001
00100010
10001000
00000000
01000100
00000000
00010001
00000000
,
10001000
01000100
00010001
00000000
01000100
10001000
00100010
00000000
,
00010000
00100000
10001000
00000000
01000000
00000000
00010001
00000000
,
10000000
01000000
00010001
00000000
01000000
10000000
00100010
00000000
,
00010001
10001000
01000100
00010001
,
10001000
01000100
00010001
00000000
01000100
10001000
00100010
00000000
,
00000001
00000010
10001000
00000000
00000100
00000000
00010001
00000000
,
00001000
00000100
00010001
00000000
00000100
00001000
00100010
00000000
,
00100010
00010001
01000100
00000000
00010001
01000100
10001000
00000000
,
10001000
01000100
00010001
00000000
01000100
00010001
00100010
00000000
,
00100010
10001000
01000100
00000000
10001000
01000100
00010001
00000000
,
00010001
01000100
10001000
00000000
01000100
10001000
00100010
00000000
,
00010001
10001000
01000100
00010001
,
10001000
01000100
00010001
00000000
01000100
10001000
00100010
00000000
,
00010001
00100010
10001000
00000000
01000100
00000000
00010001
00000000
,
10001000
01000100
00010001
00000000
01000100
10001000
00010001
00000000
;

//---------------dance-double - ----------------
#NOTES:
     dance-double:
     [MURAI MITSURU]:
     Hard:
     9:
     0.527,0.527,0.107,0.000,0.209:
00000000
00000000
00000000
00000000
,
00000000
00000000
00000000
00000000
,
00000000
00000000
00000000
00000000
,
00000000
00000000
00000000
00000000
,
00000000
00000000
00000000
00000000
,
00000000
00000000
00000000
00000000
,
10000000
00000000
01000000
00000000
00010000
00000000
00001000
00000000
00000100
00000001
00000100
00000001
00000100
00000000
00000010
00000000
,
00001000
00000000
00000100
00000000
00010000
00000000
00000000
00000000
00100000
10000000
00000000
00010000
10000000
00000000
00000000
00000000
,
01000000
00000000
10000000
00000000
00100000
00000000
01000000
00000000
00010000
10000000
00010000
10000000
00010000
00000000
00000010
00000000
,
00000001
00000000
00000100
00000000
00001000
00000000
00000100
00000001
00000100
00000000
00000001
00001000
00000000
00000000
00000000
00000000
,
00010000
00000000
10000000
00010000
00000000
10000000
01000000
00000000
00100000
01000000
00100000
01000000
00100000
01000000
00100000
00000000
,
00001000
00000100
00000001
00000100
00001000
00000100
00000001
00000100
,
00001000
00010000
01000000
10000000
01000000
00010000
01000000
10000000
,
00100000
00010000
00100000
10000000
00100000
00010000
00100000
10000000
,
00010000
00001000
00000010
00000001
00000010
00001000
00000010
00000001
,
00000010
00000000
00001000
00000000
00000100
00000000
00001000
00000000
00000001
00000100
00000001
00000100
00000001
00000100
00000001
00000000
,
00001000
00000010
00010000
01000000
10000000
00100000
01000000
00010000
,
00010000
10000000
01000000
00100000
00010000
00000100
00000001
00000010
,
00000100
00001000
00000010
00000100
00000001
00000100
00000010
00001000
,
00100000
10000000
00010000
10000000
01000000
10000000
00010000
01000000
,
00010000
00000100
00000001
00001000
00000100
00010000
00100000
10000000
,
00010000
00000010
00000001
00000010
00000100
00001000
00010000
00100000
,
01000000
10000000
00100000
01000000
00010000
00001000
00000010
00000100
,
00000001
00000010
00000100
00001000
00010000
00100000
01000000
10000000
,
00100000
01000000
00010000
00001000
00000010
00000100
00000001
00001000
,
00010000
10000000
00010000
10000000
00010000
00001000
00000001
00001000
,
00010000
10000000
00100000
10000000
00010000
00001000
00000100
00000001
,
00000100
00000010
00010000
01000000
00100000
00010000
00000100
00000001
,
00000010
00000100
00010000
00100000
10000000
01000000
00001000
00000100
,
00000001
00000000
00000100
00000000
00010000
00000000
00000000
00000000
10000000
01000000
00000000
00010000
01000000
00000000
00000000
00000000
,
00001000
00000100
00000000
00000001
00001000
00000000
00000000
00000000
00000100
00010000
00000100
00010000
00000100
00010000
00000100
00000000
,
00001000
00000000
00000010
00000000
00000100
00000000
00000001
00000000
00001000
00000000
00010000
10000000
00000000
00000000
00000000
00000000
,
01000000
00000000
00100000
00000000
00010000
00001000
00010000
00000000
00000010
00000000
00000100
00000000
00000101
00000000
00000000
00000000
,
00010000
00000000
00100000
00000000
10000000
00000000
01000000
00000000
00010000
00000000
00001000
00000001
00000000
00000000
00000000
00000000
,
00000100
00000000
00000010
00000000
00001000
00010000
00001000
00000000
00100000
00000000
01000000
00000000
11000000
00000000
00000000
00000000
,
01000000
00000000
10000000
00000000
00010000
00000000
01000000
00000000
00010000
00000000
00001000
00000100
00000000
00000000
00000000
00000000
,
00000010
00000000
00001000
00000000
00010000
10000000
00010000
00000000
10000000
00000000
00010000
00000000
00000110
00000000
00000000
00000000
,
00000100
00000000
00000001
00000000
00000100
00000000
00001000
00000000
00010000
00000000
01000000
00100000
00000000
00000000
00000000
00000000
,
10000000
00000000
01000000
00000000
00010000
10000000
00010000
00000000
00001000
00000000
00000001
00000000
00000110
00000000
00000000
00000000
,
00000100
00000000
00001000
00000000
00000001
00000100
00000001
00000000
00001000
00000000
00010000
00000000
10010000
00000000
00000000
00000000
,
01000000
00000000
00100000
00000000
10000000
01000000
10000000
00000000
00010000
00000000
00001000
00000000
00011000
00000000
00000000
00000000
,
00000010
00000000
00000001
00000000
00000100
00000010
00000100
00000000
00001000
00000000
00010000
00000000
10010000
00000000
00000000
00000000
,
00010000
00000000
00001000
00000000
00000001
00001000
00000001
00000000
00001000
00000000
00010000
00000000
10010000
00000000
00000000
00000000
,
01000000
00000000
10000000
00000000
00010000
00000000
01000000
00000000
00010000
00000000
00001000
00000001
00000000
00000000
00000000
00000000
,
00000100
00000000
00001000
00000000
00000100
00000010
00000100
00000000
00000001
00000000
00001000
00000000
00000110
00000000
00000000
00000000
,
00000100
00000000
00010000
00000000
10000000
00000000
01000000
00000000
00100000
00000000
00010000
01000000
00000000
00000000
00000000
00000000
,
00001000
00000000
00000100
00000000
00010000
10000000
00010000
00000000
10000000
00000000
00010000
00000000
00001001
00000000
00000000
00000000
;
