#TITLE:GET UP'N MOVE;
#SUBTITLE:[BASS MIX Edit];
#ARTIST:S & K;
#TITLETRANSLIT:;
#SUBTITLETRANSLIT:;
#ARTISTTRANSLIT:;
#CREDIT:;
#BANNER:GET UP'N MOVE [BASS MIX Edit].png;
#BACKGROUND:GET UP'N MOVE [BASS MIX Edit]-bg.png;
#LYRICSPATH:;
#CDTITLE:CDTITLES/Dancemania.png;
#MUSIC:GET UP'N MOVE [BASS MIX Edit].mp3;
#OFFSET:-1.564;
#SAMPLESTART:21.480;
#SAMPLELENGTH:12.000;
#SELECTABLE:YES;
#BPMS:0.000=132.000;
#STOPS:;
#BGCHANGES:;
#LASTBEAT:198;

//---------------dance-single - ----------------
#NOTES:
     dance-single:
     :
     Easy:
     3:
     0.242,0.235,0.118,0.000,0.000:
0000
0000
0000
0000
,
0000
0000
0000
0000
,
0000
0000
0000
0000
,
0000
0001
0000
1000
,
0001
0010
0001
0000
,
1000
0010
1000
0010
,
0001
0010
0100
1001
,
0000
0001
0001
0001
,
1000
1000
0001
1001
,
0000
0010
1000
0010
,
0001
0010
0100
1001
,
0000
0010
0001
0000
,
1000
1000
0001
1001
,
0000
0010
1000
0000
,
0000
0000
0001
0000
0001
0000
1000
0001
,
0000
1000
0010
1000
,
0001
0010
0001
0000
,
0010
0010
0100
0000
,
0001
0010
0100
1001
,
0010
0000
1000
0000
,
0001
1000
0001
0001
,
0000
0001
1000
1000
,
0000
1000
0001
0001
,
0000
1000
0000
0010
,
0000
0001
0000
0010
,
0000
1000
1000
1000
,
0000
0001
0001
0001
,
1000
0010
0001
0000
,
1000
0010
0010
0000
,
0100
0001
0001
0000
,
1000
0010
0010
0000
,
0001
0001
0001
0000
,
1000
1000
0010
0010
,
0100
0001
0010
1000
,
0010
0010
1000
0001
,
1000
0010
1000
0010
,
0001
0010
0100
1001
,
0000
0001
0001
0001
,
1000
1000
0001
1001
,
0000
0010
1000
0010
,
0001
0010
0100
1001
,
0000
0010
0001
0000
,
1000
1000
0001
1001
,
0000
0010
1000
0000
,
0001
0001
0100
0000
,
0000
0010
0001
0000
,
1000
0010
1000
0000
,
0010
0001
0001
0001
,
1000
0010
1001
1001
;

//---------------dance-single - ----------------
#NOTES:
     dance-single:
     :
     Medium:
     5:
     0.306,0.287,0.011,0.000,0.000:
0000
0000
0000
0000
,
0000
0000
0000
0000
,
0000
0000
0000
0000
,
0001
0001
0000
0000
1000
1000
0000
0000
,
0001
0010
1000
0000
,
0000
0010
0001
0100
,
1000
0000
0100
0100
0010
0100
0010
0000
,
0000
0010
1000
0100
,
0001
0000
0100
0001
1000
0001
1000
0000
,
0000
0010
0001
0100
,
1000
0000
0010
0010
0100
0010
0010
0000
,
0000
0010
1000
0100
,
0001
0000
0100
0001
1000
0001
1000
0000
,
0000
0010
0001
0100
,
1000
0000
0010
0000
0010
0000
1000
0001
,
0000
0010
1000
0100
,
0001
0100
0100
0000
,
0000
0010
0001
0100
,
1000
0000
0100
0100
0010
0100
0010
0000
,
1000
0001
1000
0001
,
1000
0000
0100
0000
1000
0001
0100
0000
,
0100
1000
0100
0001
,
0001
0000
0000
0000
0001
1000
0100
0000
,
0100
0001
0100
1000
,
0100
0000
0000
0000
0100
1000
0001
0000
,
0010
1000
0001
0100
,
1000
0000
0000
0000
0001
0100
0010
0000
,
0100
0100
0001
0000
1000
0000
0000
0000
,
0001
0001
1000
0000
0001
0000
0000
0000
,
0010
0010
0100
0000
0010
0000
0000
0000
,
0001
0001
0001
0000
1000
0000
0000
0000
,
0010
1000
0001
0000
0100
0000
0000
0000
,
1000
0001
0001
0000
0100
0000
0000
0000
,
1000
0010
1000
0001
0100
0100
0000
0000
,
0010
0100
0001
0000
1000
0010
0100
0000
,
0000
0010
0001
0100
,
1000
0000
0100
0100
0010
0100
0010
0000
,
0000
0010
1000
0100
,
0001
0000
0100
0001
1000
0001
1000
0000
,
0000
0010
0001
0100
,
1000
0000
0010
0010
0100
0010
0010
0000
,
0000
0010
1000
0100
,
0001
0000
0100
0001
1000
0001
1000
0000
,
0000
0010
0001
0100
,
1000
0000
0010
0000
1000
0001
0100
0000
,
0001
1000
0001
1000
,
0100
0000
0001
0000
0100
0010
1000
0000
,
0001
1000
1000
0001
,
1000
1000
0001
0001
1000
0001
1001
0000
;

//---------------dance-single - ----------------
#NOTES:
     dance-single:
     :
     Hard:
     7:
     0.378,0.444,0.043,0.000,0.214:
0000
0000
0000
0000
,
0000
0000
0000
0000
,
0000
0000
0000
0000
,
0010
0001
0000
0000
1000
0010
0000
0000
,
0010
0010
0010
0000
,
0000
0000
1000
0000
0000
0010
0000
0000
1000
0000
0000
0010
0000
0000
1000
0000
,
0000
0000
0001
0000
0000
0010
0000
0000
0001
0000
0000
0000
1000
0000
0000
0000
,
0000
0000
0010
0000
0000
1000
0000
0000
0010
0000
0000
1000
0000
0000
0010
0000
,
0000
0000
1000
0000
0000
0010
0000
0000
1000
0000
0000
0000
0001
0000
0000
0000
,
0000
0000
1000
0000
0000
0010
0000
0000
1000
0000
0000
0010
0000
0000
1000
0000
,
0000
0000
0010
0000
0000
1000
0000
0000
0001
0000
0000
0000
1000
0000
0000
0000
,
0010
0000
0000
0000
1000
0000
0001
0100
0000
0000
0000
0000
0000
0000
0000
0000
,
0010
0000
0000
0000
0001
0000
1000
0100
0000
0000
0000
0000
0000
0000
0000
0000
,
1000
0000
0000
0000
0010
0000
0100
0001
0000
0000
0000
0000
0000
0000
0000
0000
,
1000
0000
0000
0000
0010
0000
0100
0001
0000
0000
0000
0000
1000
0000
0001
0000
,
0000
0000
0010
0000
0000
0010
0000
0000
0010
0000
0000
0010
0000
0000
0010
0000
,
0000
0000
0100
0000
0000
0100
0000
0000
0100
0000
0000
0100
0000
0000
0000
0000
,
0010
0001
0010
0001
,
1000
0000
1001
1001
,
0010
0001
1000
0001
0100
0010
1000
0000
,
0001
0010
0001
0000
0100
0010
1000
0000
,
0100
0100
1000
0000
0100
0100
0001
0000
,
0100
0010
0001
0000
0100
0010
1000
0000
,
0100
0010
0001
0000
0100
0010
1000
0000
,
0100
0010
0001
0000
0100
0010
1000
0001
,
0000
0100
0010
1000
0001
0100
0010
1000
,
0000
0100
0010
0001
1000
0001
1000
0000
,
0010
0100
0001
0100
1000
0100
1000
0100
,
0010
0100
0001
0100
1000
0100
1000
0100
,
0010
0100
0001
0100
1000
0100
1000
0100
,
0010
0100
1000
0100
0010
0100
0010
1000
,
0100
1000
0100
0010
0001
0010
0001
0010
,
0001
0100
1000
0000
0100
0000
0100
0000
,
1001
0000
0001
1000
0100
0010
0100
0000
,
0010
0100
1000
0000
1001
0001
0100
0000
,
0010
0000
0000
0000
1000
0000
0001
0100
0000
0000
0000
0000
0000
0000
0000
0000
,
0010
0000
0000
0000
0001
0000
1000
0100
0000
0000
0000
0000
0000
0000
0000
0000
,
0000
0000
0100
0000
0000
0100
0000
0000
0100
0000
0000
0100
0000
0000
0100
0000
,
0000
0000
1000
0000
0000
1000
0000
0000
0001
0000
0000
0000
1000
0000
0000
0000
,
0010
0000
0000
0000
1000
0000
0001
0100
0000
0000
0000
0000
0000
0000
0000
0000
,
0010
0000
0000
0000
0001
0000
1000
0100
0000
0000
0000
0000
0000
0000
0000
0000
,
0000
0000
1000
0000
0000
0010
0000
0000
1000
0000
0000
0010
0000
0000
1000
0000
,
0000
0000
0010
0000
0000
1000
0000
0000
0001
0000
0000
0000
1000
0000
0000
0000
,
0000
0000
0010
0000
0000
1000
0000
0000
0010
0000
0000
1000
0000
0000
0010
0000
,
0000
0000
0001
0000
0000
0001
0000
0000
0001
0000
0000
0001
0000
0000
0001
0000
,
0000
0000
0010
0000
0000
1000
0000
0000
0010
0000
0000
1000
0000
0000
0010
0000
,
0000
0000
0001
0000
0000
0001
0000
0000
0001
0000
0000
0001
0000
0000
0001
0000
,
0000
0000
0010
0000
0000
0100
0000
0000
0010
0000
0000
0100
0000
0000
0010
0000
,
0000
0001
0010
0001
1000
0001
1000
0000
0001
0000
0000
0000
1000
0000
0000
0000
;

//---------------dance-solo - ----------------
#NOTES:
     dance-solo:
     :
     Beginner:
     3:
     0.240,0.235,0.118,0.000,0.000:
000000
000000
000000
000000
,
000000
000000
000000
000000
,
000000
000000
000000
000000
,
000000
000010
000000
010000
,
000010
001000
000010
000000
,
010000
001000
010000
001000
,
000010
001000
001000
010010
,
000000
001000
000010
001000
,
010000
001000
000010
010010
,
000000
001000
010000
001000
,
000010
001000
001000
010010
,
000000
001000
000010
000000
,
010000
001000
000010
010010
,
000000
001000
010000
000000
,
000000
000010
001000
010000
,
000000
010000
001000
010000
,
000010
001000
000010
000000
,
001000
001000
001000
000000
,
000010
001000
001000
010010
,
001000
000000
010000
000000
,
000010
010000
000010
001000
,
000000
000010
010000
001000
,
000000
010000
000010
001000
,
000000
010000
000000
001000
,
000000
000010
000000
001000
,
000000
010000
001000
010000
,
000000
000010
001000
000010
,
010000
001000
000010
000000
,
010000
001000
001000
000000
,
001000
000010
001000
000000
,
010000
001000
001000
000000
,
000010
001000
000010
000000
,
010000
001000
001000
001000
,
001000
000010
001000
010000
,
001000
001000
010000
000010
,
010000
001000
010000
001000
,
000010
001000
001000
010010
,
000000
001000
000010
001000
,
010000
001000
000010
010010
,
000000
001000
010000
001000
,
000010
001000
001000
010010
,
000000
001000
000010
000000
,
010000
001000
000010
010010
,
000000
001000
010000
000000
,
000010
000010
001000
000000
,
000000
001000
000010
000000
,
010000
001000
010000
000000
,
001000
000010
001000
000010
,
010000
001000
010010
010010
;

//---------------dance-solo - ----------------
#NOTES:
     dance-solo:
     :
     Easy:
     3:
     0.242,0.235,0.118,0.000,0.000:
000000
000000
000000
000000
,
000000
000000
000000
000000
,
000000
000000
000000
000000
,
000000
000010
000000
010000
,
000010
000010
000010
000000
,
010000
010000
010000
010000
,
000010
000010
010000
100001
,
000000
000001
000001
000001
,
100000
100000
000001
010010
,
000000
010000
010000
010000
,
000010
000010
010000
100001
,
000000
000100
000001
000000
,
100000
100000
000001
010010
,
000000
000100
100000
000000
,
000000
000000
000001
000000
000001
000000
010000
000010
,
000000
010000
010000
010000
,
000010
000010
000010
000000
,
000100
000100
001000
000000
,
000010
000010
010000
100001
,
000010
000000
010000
000000
,
000001
100000
000001
000001
,
000000
000001
100000
100000
,
000000
100000
000001
000001
,
000000
010000
000000
010000
,
000000
000010
000000
000010
,
000000
100000
100000
100000
,
000000
000001
000001
000001
,
010000
010000
000001
000000
,
100000
000100
000100
000000
,
000010
000001
000001
000000
,
100000
000100
000100
000000
,
000001
000001
000001
000000
,
100000
100000
000100
000100
,
000010
000001
010000
100000
,
000100
000100
010000
000010
,
010000
010000
010000
010000
,
000010
000010
010000
100001
,
000000
000001
000001
000001
,
100000
100000
000001
010010
,
000000
010000
010000
010000
,
000010
000010
010000
100001
,
000000
000100
000001
000000
,
100000
100000
000001
010010
,
000000
000100
100000
000000
,
000001
000001
000010
000000
,
000000
000100
000001
000000
,
010000
010000
100000
000000
,
000100
000001
000001
000001
,
010000
010000
010010
100001
;

//---------------dance-solo - ----------------
#NOTES:
     dance-solo:
     :
     Medium:
     5:
     0.308,0.287,0.021,0.000,0.000: // measure 1
000000
000000
000000
000000
,  // measure 2
000000
000000
000000
000000
,  // measure 3
000000
000000
000000
000000
,  // measure 4
000001
000001
000000
000000
100000
100000
000000
000000
,  // measure 5
000010
000010
010000
000000
,  // measure 6
000000
000100
000001
001000
,  // measure 7
100000
000000
001000
001000
000100
001000
000100
000000
,  // measure 8
000000
000100
100000
001000
,  // measure 9
000001
000000
001000
000001
100000
000001
100000
000000
,  // measure 10
000000
000100
000001
001000
,  // measure 11
100000
000000
000100
000100
001000
000100
000100
000000
,  // measure 12
000000
000100
100000
001000
,  // measure 13
000001
000000
001000
100000
000001
100000
000001
000000
,  // measure 14
000000
000100
000001
001000
,  // measure 15
100000
000000
000100
000000
000100
000000
010000
000010
,  // measure 16
000000
000100
100000
001000
,  // measure 17
000001
001000
001000
000000
,  // measure 18
000000
000100
000001
001000
,  // measure 19
100000
000000
001000
001000
000100
001000
000100
000000
,  // measure 20
010000
000010
100000
000001
,  // measure 21
100000
000000
001000
000000
100000
000001
001000
000000
,  // measure 22
001000
100000
001000
000001
,  // measure 23
000001
000000
000000
000000
000001
100000
001000
000000
,  // measure 24
001000
000001
001000
100000
,  // measure 25
001000
000000
000000
000000
001000
100000
000010
000000
,  // measure 26
010000
100000
000001
001000
,  // measure 27
100000
000000
000000
000000
000001
001000
100000
000000
,  // measure 28
001000
001000
100000
000000
000001
000000
000000
000000
,  // measure 29
000001
000001
100000
000000
000001
000000
000000
000000
,  // measure 30
000100
000100
001000
000000
000100
000000
000000
000000
,  // measure 31
000001
000001
000001
000000
100000
000000
000000
000000
,  // measure 32
010000
010000
000010
000000
001000
000000
000000
000000
,  // measure 33
100000
000001
000001
000000
001000
000000
000000
000000
,  // measure 34
010000
010000
000001
100000
001000
001000
000000
000000
,  // measure 35
000100
001000
000001
000000
100001
000001
000010
000000
,  // measure 36
000000
000100
000001
001000
,  // measure 37
100000
000000
001000
001000
000100
001000
000100
000000
,  // measure 38
000000
000100
100000
001000
,  // measure 39
000001
000000
001000
100000
000001
100000
000001
000000
,  // measure 40
000000
000100
000001
001000
,  // measure 41
100000
000000
000100
000100
001000
000100
000100
000000
,  // measure 42
000000
000100
100000
001000
,  // measure 43
000001
000000
001000
000001
100000
000001
100000
000000
,  // measure 44
000000
000100
000001
001000
,  // measure 45
100000
000000
000100
000000
100000
000001
001000
000000
,  // measure 46
000001
010000
000010
100000
,  // measure 47
001000
000000
000001
000000
001000
100000
010000
000000
,  // measure 48
000010
100000
100000
000001
,  // measure 49
100000
100000
000001
000001
010000
000010
010010
000000
;

//---------------dance-solo - ----------------
#NOTES:
     dance-solo:
     :
     Hard:
     7:
     0.396,0.444,0.171,0.000,0.214: // measure 1
000000
000000
000000
000000
,  // measure 2
000000
000000
000000
000000
,  // measure 3
000000
000000
000000
000000
,  // measure 4
000010
000001
000000
000000
010000
100000
000000
000000
,  // measure 5
000100
000100
000100
000000
,  // measure 6
000000
000000
100000
000000
000000
000100
000000
000000
100000
000000
000000
000100
000000
000000
100000
000000
,  // measure 7
000000
000000
000100
000000
000000
000001
000000
000000
110000
000000
000000
000000
000011
000000
000000
000000
,  // measure 8
000000
000000
000100
000000
000000
000001
000000
000000
000100
000000
000000
000001
000000
000000
000100
000000
,  // measure 9
000000
000000
000001
000000
000000
000100
000000
000000
110000
000000
000000
000000
000011
000000
000000
000000
,  // measure 10
000000
000000
100000
000000
000000
000100
000000
000000
100000
000000
000000
000100
000000
000000
100000
000000
,  // measure 11
000000
000000
000100
000000
000000
000001
000000
000000
110000
000000
000000
000000
000011
000000
000000
000000
,  // measure 12
000100
000000
000000
000000
000001
000000
100000
001000
000000
000000
000000
000000
000000
000000
000000
000000
,  // measure 13
000100
000000
000000
000000
000001
000000
100000
001000
000000
000000
000000
000000
000000
000000
000000
000000
,  // measure 14
100000
000000
000000
000000
000100
000000
001000
000001
000000
000000
000000
000000
000000
000000
000000
000000
,  // measure 15
100000
000000
000000
000000
000100
000000
001000
000001
000000
000000
000000
000000
010000
000000
000010
000000
,  // measure 16
000000
000000
000100
000000
000000
000100
000000
000000
000100
000000
000000
000100
000000
000000
000100
000000
,  // measure 17
000000
000000
001000
000000
000000
001000
000000
000000
001000
000000
000000
001000
000000
000000
000000
000000
,  // measure 18
000010
000001
010000
100000
,  // measure 19
000001
000000
010010
100001
,  // measure 20
010000
000010
100000
000001
001000
000100
100000
000000
,  // measure 21
000010
000010
000010
000000
001000
000100
000001
000000
,  // measure 22
001000
001000
100000
000000
001000
001000
000001
000000
,  // measure 23
001000
000100
000001
000000
001000
000100
100000
000000
,  // measure 24
001000
000100
000001
000000
001000
000100
100000
000000
,  // measure 25
001000
000100
000001
000000
001000
000100
100000
000001
,  // measure 26
000000
001000
000100
100000
000001
001000
000100
000001
,  // measure 27
000000
001000
000100
100000
000001
100000
000001
000000
,  // measure 28
000100
001000
000001
001000
100000
001000
100000
001000
,  // measure 29
000100
001000
000001
001000
100000
001000
100000
001000
,  // measure 30
000100
001000
000001
001000
100000
001000
100000
001000
,  // measure 31
000100
001000
100000
001000
000100
001000
000100
000001
,  // measure 32
001000
100000
001000
000001
000100
000001
000100
000001
,  // measure 33
100000
001000
000001
000000
001000
000000
001000
000000
,  // measure 34
010010
000000
000001
100000
001000
000100
001000
000000
,  // measure 35
000100
001000
000001
000000
100001
000001
000010
000000
,  // measure 36
000100
000000
000000
000000
000001
000000
100000
001000
000000
000000
000000
000000
000000
000000
000000
000000
,  // measure 37
000100
000000
000000
000000
000001
000000
100000
001000
000000
000000
000000
000000
000000
000000
000000
000000
,  // measure 38
000000
000000
001000
000000
000000
001000
000000
000000
001000
000000
000000
001000
000000
000000
001000
000000
,  // measure 39
000000
000000
100000
000000
000000
100000
000000
000000
000011
000000
000000
000000
110000
000000
000000
000000
,  // measure 40
000100
000000
000000
000000
000001
000000
100000
001000
000000
000000
000000
000000
000000
000000
000000
000000
,  // measure 41
000100
000000
000000
000000
000001
000000
100000
001000
000000
000000
000000
000000
000000
000000
000000
000000
,  // measure 42
000000
000000
100000
000000
000000
000100
000000
000000
100000
000000
000000
000100
000000
000000
100000
000000
,  // measure 43
000000
000000
000100
000000
000000
000001
000000
000000
110000
000000
000000
000000
000011
000000
000000
000000
,  // measure 44
000000
000000
000100
000000
000000
000001
000000
000000
000100
000000
000000
000001
000000
000000
000100
000000
,  // measure 45
000000
000000
100000
000000
000000
100000
000000
000000
100000
000000
000000
100000
000000
000000
100000
000000
,  // measure 46
000000
000000
000100
000000
000000
100000
000000
000000
000100
000000
000000
100000
000000
000000
000100
000000
,  // measure 47
000000
000000
000001
000000
000000
000001
000000
000000
000001
000000
000000
000001
000000
000000
000001
000000
,  // measure 48
000000
000000
000100
000000
000000
001000
000000
000000
000100
000000
000000
001000
000000
000000
000100
000000
,  // measure 49
000000
100000
000100
100000
000001
100000
000001
000000
110000
000000
000000
000000
000011
000000
000000
000000
;

//---------------dance-double - ----------------
#NOTES:
     dance-double:
     :
     Medium:
     5:
     0.306,0.287,0.011,0.000,0.000:
00000000
00000000
00000000
00000000
,
00000000
00000000
00000000
00000000
,
00000000
00000000
00000000
00000000
,
00010000
00010000
00000000
00000000
10000000
10000000
00000000
00000000
,
00010000
00100000
10000000
00000000
,
00000000
00100000
00010000
01000000
,
10000000
00000000
01000000
01000000
00100000
01000000
00100000
00000000
,
00000000
00100000
10000000
01000000
,
00010000
00000000
01000000
00010000
10000000
00010000
10000000
00000000
,
00000000
00100000
00010000
01000000
,
10000000
00000000
00100000
00100000
01000000
00100000
00100000
00000000
,
00000000
00100000
10000000
01000000
,
00010000
00000000
01000000
00010000
10000000
00010000
10000000
00000000
,
00000000
00100000
00010000
01000000
,
10000000
00000000
00100000
00000000
00100000
00000000
10000000
00010000
,
00000000
00100000
10000000
01000000
,
00010000
01000000
01000000
00000000
,
00000000
00100000
00010000
01000000
,
10000000
00000000
01000000
01000000
00100000
01000000
00100000
00000000
,
10000000
00010000
10000000
00010000
,
10000000
00000000
01000000
00000000
10000000
00010000
01000000
00000000
,
01000000
10000000
01000000
00010000
,
00010000
00000000
00000000
00000000
00010000
10000000
01000000
00000000
,
01000000
00010000
01000000
10000000
,
01000000
00000000
00000000
00000000
01000000
10000000
00010000
00000000
,
00100000
10000000
00010000
01000000
,
10000000
00000000
00000000
00000000
00010000
01000000
00100000
00000000
,
01000000
01000000
00010000
00000000
10000000
00000000
00000000
00000000
,
00010000
00010000
10000000
00000000
00010000
00000000
00000000
00000000
,
00100000
00100000
01000000
00000000
00100000
00000000
00000000
00000000
,
00010000
00010000
00010000
00000000
10000000
00000000
00000000
00000000
,
00100000
10000000
00010000
00000000
01000000
00000000
00000000
00000000
,
10000000
00010000
00010000
00000000
01000000
00000000
00000000
00000000
,
10000000
00100000
10000000
00010000
01000000
01000000
00000000
00000000
,
00100000
01000000
00010000
00000000
10000000
00100000
01000000
00000000
,
00000000
00100000
00010000
01000000
,
10000000
00000000
01000000
01000000
00100000
01000000
00100000
00000000
,
00000000
00100000
10000000
01000000
,
00010000
00000000
01000000
00010000
10000000
00010000
10000000
00000000
,
00000000
00100000
00010000
01000000
,
10000000
00000000
00100000
00100000
01000000
00100000
00100000
00000000
,
00000000
00100000
10000000
01000000
,
00010000
00000000
01000000
00010000
10000000
00010000
10000000
00000000
,
00000000
00100000
00010000
01000000
,
10000000
00000000
00100000
00000000
10000000
00010000
01000000
00000000
,
00010000
10000000
00010000
10000000
,
01000000
00000000
00010000
00000000
01000000
00100000
10000000
00000000
,
00010000
10000000
10000000
00010000
,
10000000
10000000
00010000
00010000
10000000
00010000
10010000
00000000
;

//---------------dance-double - ----------------
#NOTES:
     dance-double:
     :
     Easy:
     3:
     0.242,0.235,0.118,0.000,0.000:
00000000
00000000
00000000
00000000
,
00000000
00000000
00000000
00000000
,
00000000
00000000
00000000
00000000
,
00000000
00010000
00000000
10000000
,
00010000
00100000
00010000
00000000
,
10000000
00100000
10000000
00100000
,
00010000
00100000
01000000
10010000
,
00000000
00010000
00010000
00010000
,
10000000
10000000
00010000
10010000
,
00000000
00100000
10000000
00100000
,
00010000
00100000
01000000
10010000
,
00000000
00100000
00010000
00000000
,
10000000
10000000
00010000
10010000
,
00000000
00100000
10000000
00000000
,
00000000
00000000
00010000
00000000
00010000
00000000
10000000
00010000
,
00000000
10000000
00100000
10000000
,
00010000
00100000
00010000
00000000
,
00100000
00100000
01000000
00000000
,
00010000
00100000
01000000
10010000
,
00100000
00000000
10000000
00000000
,
00010000
10000000
00010000
00010000
,
00000000
00010000
10000000
10000000
,
00000000
10000000
00010000
00010000
,
00000000
10000000
00000000
00100000
,
00000000
00010000
00000000
00100000
,
00000000
10000000
10000000
10000000
,
00000000
00010000
00010000
00010000
,
10000000
00100000
00010000
00000000
,
10000000
00100000
00100000
00000000
,
01000000
00010000
00010000
00000000
,
10000000
00100000
00100000
00000000
,
00010000
00010000
00010000
00000000
,
10000000
10000000
00100000
00100000
,
01000000
00010000
00100000
10000000
,
00100000
00100000
10000000
00010000
,
10000000
00100000
10000000
00100000
,
00010000
00100000
01000000
10010000
,
00000000
00010000
00010000
00010000
,
10000000
10000000
00010000
10010000
,
00000000
00100000
10000000
00100000
,
00010000
00100000
01000000
10010000
,
00000000
00100000
00010000
00000000
,
10000000
10000000
00010000
10010000
,
00000000
00100000
10000000
00000000
,
00010000
00010000
01000000
00000000
,
00000000
00100000
00010000
00000000
,
10000000
00100000
10000000
00000000
,
00100000
00010000
00010000
00010000
,
10000000
00100000
10010000
10010000
;

//---------------dance-double - ----------------
#NOTES:
     dance-double:
     [TOMOKAZU-N]:
     Hard:
     8:
     0.426,0.444,0.021,0.000,0.391:
00000000
00000000
00000000
00000000
,
00000000
00000000
00000000
00000000
,
00000000
00000000
00000000
00000000
,
00010000
00100000
00000000
00000000
10000000
00100000
00000000
00000000
,
00100000
00000000
10000000
01000000
00000000
00010000
01000000
00000000
00100000
00000000
00000000
00000000
00000000
00000000
00000000
00000000
,
00000000
00000000
10000000
00000000
00000000
01000000
00000000
00000000
00010000
00000000
00000000
00001000
00000000
00000000
00000100
00000000
,
00000000
00000000
00000000
00000000
00000000
00000000
00000001
00000000
00000000
00000000
00000000
00000000
00000000
00000000
00000000
00000100
00000000
00000000
00000000
00000000
00000000
00000000
00000000
00000000
00000010
00000000
00000000
00000000
00001000
00000000
00000000
00000000
00000001
00000000
00000000
00000000
00000100
00000000
00000000
00000000
00000000
00000000
00000000
00000000
00000000
00000000
00000000
00000000
,
00000000
00000000
00000010
00000000
00000000
00001000
00000000
00000000
00010000
00000000
00000000
01000000
00000000
00000000
00100000
00000000
,
00000000
00000000
00000000
00000000
00000000
00000000
00010000
00000000
00000000
00000000
00000000
00000000
00000000
00000000
00000000
10000000
00000000
00000000
00000000
00000000
00000000
00000000
00000000
00000000
00010000
00000000
00000000
00000000
00100000
00000000
00000000
00000000
00010000
00000000
00000000
00000000
01000000
00000000
00000000
00000000
00000000
00000000
00000000
00000000
00000000
00000000
00000000
00000000
,
00000000
00000000
10000000
00000000
00000000
00100000
00000000
00000000
00010000
00000000
00000000
00001000
00000000
00000000
00000100
00000000
,
00000000
00000000
00000000
00000000
00000000
00000000
00001000
00000000
00000000
00000000
00000000
00000000
00000000
00000000
00000000
00010000
00000000
00000000
00000000
00000000
00000000
00000000
00000000
00000000
01000000
00000000
00000000
00000000
10000000
00000000
00000000
00000000
00010000
00000000
00000000
00000000
01000000
00000000
00000000
00000000
00000000
00000000
00000000
00000000
00000000
00000000
00000000
00000000
,
00100000
00000000
00000000
00000000
10000000
00000000
00010000
01000000
00000000
00000000
00000000
00000000
00000000
00000000
00000000
00000000
,
00100000
00000000
00000000
00010000
00000000
00000000
00001000
00000000
00000000
00000000
00000000
00000000
00000010
00000000
00001000
00000000
00000001
00000000
00000100
00000000
00000000
00000000
00000000
00000000
,
00000001
00000000
00000000
00000000
00000010
00000000
00000100
00001000
00000000
00000000
00000000
00000000
00000000
00000000
00000000
00000000
,
00010000
00000000
00000000
00000000
10000000
00000000
01000000
00100000
00000000
00000000
00000000
00000000
10000000
00000000
00010000
00000000
,
00000000
00000000
10000000
00000000
00000000
01000000
00000000
00000000
00010000
00000000
00000000
00001000
00000000
00000000
00000100
00000000
,
00000000
00000000
00000001
00000000
00000000
00000010
00000000
00000000
00001000
00000000
00000000
00010000
00000000
00000000
00000000
00000000
,
00001000
00000000
00001000
00010000
00000000
00010000
00100000
00000000
01000000
00000000
00000000
00000000
00000000
00000000
00100000
01000000
,
00000000
00000000
00000000
00000000
00000000
00000000
10000000
00100000
10000000
01000000
00000000
00000000
,
00100000
10000000
00100000
01000000
00100000
00010000
00001000
00000100
,
00000010
00001000
00000100
00000000
00000010
00000001
00000100
00000000
,
00000100
00001000
00001000
00000000
00010000
00010000
01000000
00000000
,
00100000
10000000
00000000
00000000
00010000
00000000
01000000
00000000
00001000
00000000
00010000
00000000
00000100
00000000
00000000
00000000
,
00000000
00001000
00000010
00000000
00000100
00000000
00001000
00000000
00010000
00000000
01000000
00000000
00100000
00000000
00000000
00000000
,
10000000
00000000
00010000
00000000
01000000
00000000
00000000
00000000
10000000
00010000
00000000
01000000
00000000
01000000
00000000
00000000
,
00000000
00000000
00100000
00001000
00010000
00000100
00000010
00000000
,
00000000
00001000
00000001
00000000
00000100
00000000
00001000
00000000
00010000
00000000
01000000
00000000
10000000
00000000
00000000
00000000
,
00100000
10000000
01000000
00010000
01000000
10000000
01000000
00100000
,
01000000
00010000
00001000
00000100
00000010
00000100
00000001
00000100
,
00000010
00001000
00000010
00000100
00000010
00000001
00001000
00000100
,
00010000
01000000
10000000
00010000
00100000
10000000
00010000
00000000
,
10000000
00100000
00110000
00000000
00010000
00001000
00001100
00000000
,
00000010
00000000
00000001
00000000
00001000
00000000
00000001
00000100
00000000
00000000
00001000
00000000
00010000
00000000
00000000
00000000
,
00010000
00000000
01000000
00000000
10000000
00000000
00000000
00000000
00010000
10000000
00100000
00000000
01000000
00000000
00000000
00000000
,
00100000
00000000
00000000
00010000
00000000
00000000
00001000
00000000
00000000
00000100
00000000
00000000
00001000
00000000
00000001
00000000
00000010
00000000
00000100
00000000
00000000
00000000
00000000
00000000
,
00000010
00000000
00000000
00000000
00001000
00000000
00010000
01000000
00000000
00000000
00000000
00000000
00000000
00000000
00000000
00000000
,
00100000
00000000
00000000
00010000
00000000
00000000
00001000
00000000
00000000
00000000
00000000
00000000
00001000
00000000
00000100
00000000
00001000
00000000
00000100
00000000
00000000
00000000
00000000
00000000
,
00000000
00000000
00000010
00000000
00000000
00001000
00000000
00000000
00010000
00000000
00000000
01000000
00000000
00000000
10000000
00000000
,
00000000
00000000
00000000
00000000
00000000
00000000
00010000
00000000
00000000
00000000
00000000
00000000
00000000
00000000
00000000
00100000
00000000
00000000
00000000
00000000
00000000
00000000
00000000
00000000
00010000
00000000
00000000
00000000
01000000
00000000
00000000
00000000
00010000
00000000
00000000
00000000
01000000
00000000
00000000
00000000
00000000
00000000
00000000
00000000
00000000
00000000
00000000
00000000
,
00100000
00000000
00000000
00000000
00010000
00000000
00001000
00010000
00000000
00000000
00000000
00000000
00000000
00000000
00000000
00000000
,
00001000
00000000
00000000
00000010
00000000
00000000
00000100
00000000
00000000
00000000
00000000
00000000
00001000
00000000
00000001
00000000
00000010
00000000
00000100
00000000
00000000
00000000
00000000
00000000
,
00000000
00000000
00000001
00000000
00000000
00000010
00000000
00000000
00000001
00000000
00000000
00001000
00000000
00000000
00000010
00000000
,
00000000
00000000
00000000
00000000
00000000
00000000
00010000
00000000
00000000
00000000
00000000
00000000
00000000
00000000
00000000
00001000
00000000
00000000
00000000
00000000
00000000
00000000
00000000
00000000
00010000
00000000
00000000
00000000
00001000
00000000
00000000
00000000
00010000
00000000
00000000
00000000
00001000
00000000
00000000
00000000
00000000
00000000
00000000
00000000
00000000
00000000
00000000
00000000
,
00000000
00000000
00100000
00000000
00000000
10000000
00000000
00000000
00010000
00000000
00000000
00100000
00000000
00000000
00001000
00000000
,
00000000
00000000
00010000
00000000
00000000
01000000
00000000
00000000
10000000
00000000
00000000
00010000
00000000
00000000
01000000
00000000
,
00000000
00000000
00100000
00000000
00000000
10000000
00000000
00000000
00010000
00000000
00000000
00100000
00000000
00000000
00001000
00000000
,
00000000
00000000
00000100
00000000
00000000
00000010
00000000
00000000
00000001
00000000
00000000
00000100
00000000
00000000
00001000
00000000
,
00000000
00000000
00010000
00000000
00000000
00100000
00000000
00000000
01000000
00000000
00000000
10000000
00000000
00000000
00100000
00000000
,
10000000
00100000
10000000
00010000
00100000
00010000
10000000
01000000
10000000
01000000
00000000
00000000
;

//---------------dance-solo - [3P-TRICK]----------------
#NOTES:
     dance-solo:
     [3P-TRICK]:
     Edit:
     5:
     0.306,0.287,0.011,0.000,0.000: // measure 1
000000
000000
000000
000000
,  // measure 2
000000
000000
000000
000000
,  // measure 3
000000
000000
000000
000000
,  // measure 4
000010
001000
000000
000000
010000
001000
000000
000000
,  // measure 5
000010
001000
010000
000000
,  // measure 6
000000
001000
000010
001000
,  // measure 7
010000
000000
001000
001000
001000
001000
001000
000000
,  // measure 8
000000
001000
010000
001000
,  // measure 9
000010
000000
001000
000010
010000
000010
010000
000000
,  // measure 10
000000
001000
000010
001000
,  // measure 11
010000
000000
001000
001000
001000
001000
001000
000000
,  // measure 12
000000
001000
010000
001000
,  // measure 13
000010
000000
001000
000010
010000
000010
010000
000000
,  // measure 14
000000
001000
000010
001000
,  // measure 15
010000
000000
001000
000000
001000
000000
010000
000010
,  // measure 16
000000
001000
010000
001000
,  // measure 17
000010
001000
001000
000000
,  // measure 18
000000
001000
000010
001000
,  // measure 19
010000
000000
001000
001000
001000
001000
001000
000000
,  // measure 20
010000
000010
010000
000010
,  // measure 21
010000
000000
001000
000000
010000
000010
001000
000000
,  // measure 22
001000
010000
001000
000010
,  // measure 23
001000
000000
000000
000000
000010
010000
001000
000000
,  // measure 24
001000
000010
001000
010000
,  // measure 25
001000
000000
000000
000000
001000
010000
000010
000000
,  // measure 26
001000
010000
000010
001000
,  // measure 27
010000
000000
000000
000000
000010
001000
001000
000000
,  // measure 28
001000
001000
000010
000000
010000
000000
000000
000000
,  // measure 29
000010
001000
010000
000000
000010
000000
000000
000000
,  // measure 30
001000
001000
001000
000000
001000
000000
000000
000000
,  // measure 31
000010
001000
000010
000000
010000
000000
000000
000000
,  // measure 32
001000
010000
000010
000000
001000
000000
000000
000000
,  // measure 33
010000
000010
000010
000000
001000
000000
000000
000000
,  // measure 34
010000
001000
010000
000010
001000
001000
000000
000000
,  // measure 35
001000
001000
000010
000000
010000
001000
001000
000000
,  // measure 36
000000
001000
000010
001000
,  // measure 37
010000
000000
001000
001000
001000
001000
001000
000000
,  // measure 38
000000
001000
010000
001000
,  // measure 39
000010
000000
001000
000010
010000
000010
010000
000000
,  // measure 40
000000
001000
000010
001000
,  // measure 41
010000
000000
001000
001000
001000
001000
001000
000000
,  // measure 42
000000
001000
010000
001000
,  // measure 43
000010
000000
001000
000010
010000
000010
010000
000000
,  // measure 44
000000
001000
000010
001000
,  // measure 45
010000
000000
001000
000000
010000
000010
001000
000000
,  // measure 46
000010
010000
000010
010000
,  // measure 47
001000
000000
000010
000000
001000
001000
010000
000000
,  // measure 48
000010
010000
001000
000010
,  // measure 49
010000
001000
000010
001000
010000
000010
010010
000000
;

//---------------dance-solo - ----------------
#NOTES:
     dance-solo:
     :
     Challenge:
     7:
     0.378,0.444,0.043,0.000,0.214: // measure 1
000000
000000
000000
000000
,  // measure 2
000000
000000
000000
000000
,  // measure 3
000000
000000
000000
000000
,  // measure 4
001000
000010
000000
000000
010000
001000
000000
000000
,  // measure 5
001000
001000
001000
000000
,  // measure 6
000000
000000
010000
000000
000000
001000
000000
000000
010000
000000
000000
001000
000000
000000
010000
000000
,  // measure 7
000000
000000
000010
000000
000000
001000
000000
000000
000010
000000
000000
000000
010000
000000
000000
000000
,  // measure 8
000000
000000
001000
000000
000000
010000
000000
000000
001000
000000
000000
010000
000000
000000
001000
000000
,  // measure 9
000000
000000
010000
000000
000000
001000
000000
000000
010000
000000
000000
000000
000010
000000
000000
000000
,  // measure 10
000000
000000
010000
000000
000000
001000
000000
000000
010000
000000
000000
001000
000000
000000
010000
000000
,  // measure 11
000000
000000
001000
000000
000000
010000
000000
000000
000010
000000
000000
000000
010000
000000
000000
000000
,  // measure 12
001000
000000
000000
000000
010000
000000
000010
001000
000000
000000
000000
000000
000000
000000
000000
000000
,  // measure 13
001000
000000
000000
000000
000010
000000
010000
001000
000000
000000
000000
000000
000000
000000
000000
000000
,  // measure 14
010000
000000
000000
000000
001000
000000
001000
000010
000000
000000
000000
000000
000000
000000
000000
000000
,  // measure 15
010000
000000
000000
000000
001000
000000
001000
000010
000000
000000
000000
000000
010000
000000
000010
000000
,  // measure 16
000000
000000
001000
000000
000000
001000
000000
000000
001000
000000
000000
001000
000000
000000
001000
000000
,  // measure 17
000000
000000
001000
000000
000000
001000
000000
000000
001000
000000
000000
001000
000000
000000
000000
000000
,  // measure 18
001000
000010
001000
000010
,  // measure 19
010000
000000
010010
010010
,  // measure 20
001000
000010
010000
000010
001000
001000
010000
000000
,  // measure 21
000010
001000
000010
000000
001000
001000
010000
000000
,  // measure 22
001000
001000
010000
000000
001000
001000
000010
000000
,  // measure 23
001000
001000
000010
000000
001000
001000
010000
000000
,  // measure 24
001000
001000
000010
000000
001000
001000
010000
000000
,  // measure 25
001000
001000
000010
000000
001000
001000
010000
000010
,  // measure 26
000000
001000
001000
010000
000010
001000
001000
010000
,  // measure 27
000000
001000
001000
000010
010000
000010
010000
000000
,  // measure 28
001000
001000
000010
001000
010000
001000
010000
001000
,  // measure 29
001000
001000
000010
001000
010000
001000
010000
001000
,  // measure 30
001000
001000
000010
001000
010000
001000
010000
001000
,  // measure 31
001000
001000
010000
001000
001000
001000
001000
010000
,  // measure 32
001000
010000
001000
001000
000010
001000
000010
001000
,  // measure 33
000010
001000
010000
000000
001000
000000
001000
000000
,  // measure 34
010010
000000
001000
010000
001000
001000
001000
000000
,  // measure 35
001000
001000
010000
000000
010010
000010
001000
000000
,  // measure 36
001000
000000
000000
000000
010000
000000
000010
001000
000000
000000
000000
000000
000000
000000
000000
000000
,  // measure 37
001000
000000
000000
000000
000010
000000
010000
001000
000000
000000
000000
000000
000000
000000
000000
000000
,  // measure 38
000000
000000
001000
000000
000000
001000
000000
000000
001000
000000
000000
001000
000000
000000
001000
000000
,  // measure 39
000000
000000
010000
000000
000000
001000
000000
000000
000010
000000
000000
000000
010000
000000
000000
000000
,  // measure 40
001000
000000
000000
000000
010000
000000
000010
001000
000000
000000
000000
000000
000000
000000
000000
000000
,  // measure 41
001000
000000
000000
000000
000010
000000
010000
001000
000000
000000
000000
000000
000000
000000
000000
000000
,  // measure 42
000000
000000
010000
000000
000000
001000
000000
000000
010000
000000
000000
001000
000000
000000
010000
000000
,  // measure 43
000000
000000
001000
000000
000000
010000
000000
000000
000010
000000
000000
000000
010000
000000
000000
000000
,  // measure 44
000000
000000
001000
000000
000000
010000
000000
000000
001000
000000
000000
010000
000000
000000
001000
000000
,  // measure 45
000000
000000
000010
000000
000000
001000
000000
000000
000010
000000
000000
001000
000000
000000
000010
000000
,  // measure 46
000000
000000
001000
000000
000000
010000
000000
000000
001000
000000
000000
010000
000000
000000
001000
000000
,  // measure 47
000000
000000
000010
000000
000000
001000
000000
000000
000010
000000
000000
001000
000000
000000
000010
000000
,  // measure 48
000000
000000
001000
000000
000000
001000
000000
000000
001000
000000
000000
001000
000000
000000
001000
000000
,  // measure 49
000000
000010
001000
000010
010000
000010
010000
000000
000010
000000
000000
000000
010000
000000
000000
000000
;

//---------------dance-solo - [MULTI-6B]----------------
#NOTES:
     dance-solo:
     [MULTI-6B]:
     Edit:
     3:
     0.306,0.287,0.236,0.000,0.000: // measure 1
000000
000000
000000
000000
,  // measure 2
000000
000000
000000
000000
,  // measure 3
000000
000000
000000
000000
,  // measure 4
000100
000100
001000
001000
,  // measure 5
000100
000001
100000
000000
,  // measure 6
010000
010000
010000
010000
,  // measure 7
000010
000010
101000
001001
,  // measure 8
000010
000010
000010
000010
,  // measure 9
010000
010000
001001
101000
,  // measure 10
010000
010000
010000
010000
,  // measure 11
000010
000010
101000
001001
,  // measure 12
000100
000001
100000
000000
,  // measure 13
000100
100000
001001
101000
,  // measure 14
000100
000001
100000
000000
,  // measure 15
000100
100000
000001
100001
,  // measure 16
010000
010000
010000
010000
,  // measure 17
000100
000001
100000
000000
,  // measure 18
010000
010000
010000
001000
,  // measure 19
000010
000010
101000
001001
,  // measure 20
000010
010000
000010
010000
,  // measure 21
000001
100000
000001
100001
,  // measure 22
100000
000001
100000
100000
,  // measure 23
000001
100000
000001
000001
,  // measure 24
100000
000001
100000
100000
,  // measure 25
000001
100000
000001
000001
,  // measure 26
010000
000010
100000
001000
,  // measure 27
000001
001000
000010
010000
,  // measure 28
000100
100000
000001
001000
,  // measure 29
000100
001000
000001
100000
,  // measure 30
000100
000001
100000
001000
,  // measure 31
000100
001000
100000
000001
,  // measure 32
000100
100000
000001
001000
,  // measure 33
000100
001000
000001
100000
,  // measure 34
000010
000001
010000
100000
,  // measure 35
000100
000100
010000
000010
,  // measure 36
000100
100000
000001
000000
,  // measure 37
000100
000001
101000
001001
,  // measure 38
000010
000010
000010
000010
,  // measure 39
010000
010000
101000
001001
,  // measure 40
000100
100000
000001
000000
,  // measure 41
000100
000001
101000
001001
,  // measure 42
000010
000010
000010
000010
,  // measure 43
010000
010000
001001
101000
,  // measure 44
010000
010000
010000
010000
,  // measure 45
000010
000010
100000
001000
,  // measure 46
000001
000001
000001
000001
,  // measure 47
000100
000100
100000
000001
,  // measure 48
010000
010000
000100
000100
,  // measure 49
000010
000010
101000
001001
;

//---------------dance-solo - [MULTI-6T]----------------
#NOTES:
     dance-solo:
     [MULTI-6T]:
     Edit:
     4:
     0.357,0.392,0.021,0.000,0.000: // measure 1
000000
000000
000000
000000
,  // measure 2
000000
000000
000000
000000
,  // measure 3
000000
000000
000000
000000
,  // measure 4
000000
010000
010000
000000
000000
000010
000010
000000
,  // measure 5
000100
000100
000100
000000
,  // measure 6
000100
000001
001000
100000
,  // measure 7
000100
000000
000001
000000
000010
000001
000010
000000
,  // measure 8
000100
100000
001000
000001
,  // measure 9
000100
000000
100000
000000
010000
100000
010000
000000
,  // measure 10
000100
000001
001000
100000
,  // measure 11
000100
000000
000001
000000
000010
000001
000010
000000
,  // measure 12
010000
000001
100000
000000
,  // measure 13
000010
000000
100000
000000
000001
000010
000001
000000
,  // measure 14
010000
000001
100000
000000
,  // measure 15
000010
000000
100000
000000
000001
000000
001000
000100
,  // measure 16
000000
000001
000001
000001
,  // measure 17
010000
000010
010000
000000
,  // measure 18
000100
000001
001000
100000
,  // measure 19
000100
000000
000001
000000
000010
000001
000010
000000
,  // measure 20
100000
000100
000001
001000
100000
001000
000001
000000
,  // measure 21
100000
000001
100000
000000
100000
001000
000001
000000
,  // measure 22
100000
001000
100000
000000
000001
001000
100000
000000
,  // measure 23
000001
001000
000001
000000
100000
001000
000001
000000
,  // measure 24
100000
001000
100000
000000
000001
100000
001000
000000
,  // measure 25
000001
001000
000001
000000
010000
000010
001000
000000
,  // measure 26
000001
001000
000001
001000
100000
001000
100000
000000
,  // measure 27
000000
100000
001000
100000
001000
000001
100000
000000
,  // measure 28
010000
010000
000001
000000
000001
000001
100000
000000
,  // measure 29
100000
100000
001000
000000
001000
001000
000001
000000
,  // measure 30
000001
000001
010000
000000
010000
010000
000010
000000
,  // measure 31
000010
000010
100000
000000
100000
100000
000001
000000
,  // measure 32
000001
001000
100000
000000
100000
001000
000001
000000
,  // measure 33
000001
001000
100000
001000
000100
001000
000100
000000
,  // measure 34
010000
010000
000001
001000
100000
001000
000001
000000
,  // measure 35
001000
001000
001000
000000
100100
000001
000010
000000
,  // measure 36
000100
000000
000001
001000
000001
000000
000000
000000
,  // measure 37
000100
000000
100000
001000
100000
000001
100000
000000
,  // measure 38
000100
100000
001000
000001
,  // measure 39
000100
001000
100000
000000
010000
100000
010000
000000
,  // measure 40
000100
000000
000001
001000
000001
000000
000000
000000
,  // measure 41
000100
000000
100000
001000
100000
000001
100000
000000
,  // measure 42
000100
100000
001000
000001
,  // measure 43
000100
001000
100000
000000
010000
100000
010000
000000
,  // measure 44
000100
000001
001000
100000
,  // measure 45
000100
000001
001000
100000
,  // measure 46
000100
100000
001000
000001
,  // measure 47
000100
100000
001000
000001
,  // measure 48
100000
100000
000001
000000
010000
010000
000010
001000
,  // measure 49
000000
000000
000000
000000
010000
000010
100001
000000
;
