#VERSION:0.83;
#TITLE:u gotta groove;
#SUBTITLE:;
#ARTIST:dj nagureo;
#TITLETRANSLIT:;
#SUBTITLETRANSLIT:;
#ARTISTTRANSLIT:;
#GENRE:;
#ORIGIN:;
#TAGS:;
#CREDIT:;
#BANNER:u gotta groove-bn.png;
#BACKGROUND:u gotta groove-bg.png;
#PREVIEWVID:;
#JACKET:u gotta groove-jacket.png;
#CDIMAGE:;
#DISCIMAGE:;
#LYRICSPATH:;
#CDTITLE:;
#MUSIC:u gotta groove.ogg;
#OFFSET:0.000000;
#SAMPLESTART:21.600000;
#SAMPLELENGTH:20.000000;
#SELECTABLE:YES;
#DISPLAYBPM:94.000000:100.000000;
#BPMS:0.000000=100.000000,
36.000000=94.000000,
68.000000=96.000000;
#STOPS:;
#DELAYS:;
#WARPS:;
#TIMESIGNATURES:0.000000=4=4;
#TICKCOUNTS:0.000000=4;
#COMBOS:0.000000=1;
#SPEEDS:0.000000=1.000000=0.000000=0;
#SCROLLS:0.000000=1.000000;
#FAKES:;
#LABELS:0.000000=Song Start;
#BGCHANGES:;
#KEYSOUNDS:;
#ATTACKS:
;

//---------------dance-single - ----------------
#NOTEDATA:;
#CHARTNAME:;
#CHARTHASH:2744754075:
#STEPSTYPE:dance-single;
#BANNER:;
#DESCRIPTION:;
#CHARTSTYLE:;
#DIFFICULTY:Hard;
#METER:11;
#METERF:0.000000;
#RADARVALUES:0.577516,0.551072,0.368800,0.170215,0.758876,285.000000,259.000000,26.000000,12.000000,0.000000,0.000000,0.000000,0.000000,0.000000,0.577516,0.551072,0.368800,0.170215,0.758876,285.000000,259.000000,26.000000,12.000000,0.000000,0.000000,0.000000,0.000000,0.000000;
#CREDIT:;
#DISPLAYBPM:94.000000:100.000000;
#NOTES:
0000
0000
0000
0000
,
1100
0000
0001
0000
1000
0100
0000
0010
0000
0001
0100
0000
0110
0000
0000
0000
,
1000
0001
1000
0000
0100
0000
0010
0000
0001
0000
0100
0000
0101
0000
0000
0000
,
1000
0001
1000
0000
0010
0000
0100
0000
0001
0000
1010
0000
0100
0000
0000
0000
,
0001
0010
0001
0000
1000
0010
1000
0000
0100
0000
1001
0000
0011
0000
0000
0000
,
1010
0000
0001
0000
1000
0000
0100
0000
1001
0000
0001
0010
0100
0000
0000
1000
,
0100
1000
0001
0000
0101
0000
0000
0100
0010
1000
0000
0001
0010
0000
0000
0000
,
0001
1000
0000
1100
0000
0001
1000
0000
0010
0100
0000
0010
0100
0000
0000
0000
,
0110
0000
0001
0000
1000
0001
0100
0000
0011
0000
0010
0000
0100
0000
0000
0000
,
1000
0100
1000
0001
0000
0001
0100
0010
0000
0010
0100
0001
1000
0010
0100
0001
,
1000
0010
0000
0000
1001
0000
0100
0010
0001
0000
1000
0000
0001
0100
0000
0000
,
0010
1000
0010
0100
0000
0100
0001
1000
0000
1000
0001
0010
0001
0100
0010
1000
,
0100
1000
0001
0000
1000
0100
0000
0000
0010
0001
0010
0100
0010
1000
0000
0000
,
0010
0001
1000
0001
0000
0001
1000
0100
0000
0100
0010
0100
1000
0001
0100
0010
,
1000
0100
0001
0100
1000
0000
0010
0000
0110
0000
0100
0001
0010
0000
0000
0000
,
0001
1000
0100
1000
0000
1000
0001
0010
0000
0010
0001
0100
0001
1000
0010
0100
,
0001
0010
0100
0000
1100
0000
0000
0000
0001
0100
0010
1000
0100
0000
0011
0000
,
0101
0000
1000
0001
1000
0100
0010
0000
0001
0000
0200
0000
0000
0000
0310
1000
,
0100
0010
0000
0001
0000
1000
0000
0002
0000
0000
0103
0000
1010
0000
0010
0000
,
0101
0000
0010
0000
1000
0000
0100
0000
1100
0000
1020
0000
0100
0000
1030
0001
,
0100
0010
0000
1000
0000
0001
0000
0021
0000
0000
0031
0100
0010
0000
1000
0000
,
0110
0000
0010
0000
1000
0001
0000
0200
0000
0000
0301
0100
1000
0100
0001
0010
,
0100
1000
0000
0010
0000
0100
0000
0002
0000
0000
1003
0001
0100
0010
1000
0000
,
2001
0000
0010
0000
3100
0001
0000
2000
0000
0000
3001
0010
0100
1000
0100
0010
,
0001
0000
0100
0010
1000
0010
0000
0200
0000
0000
0301
0010
0100
1000
0010
0000
,
0100
0010
0000
1000
0000
0001
0000
0200
0000
0000
0310
0000
0110
0000
0000
0000
,
1000
0001
0000
0010
0000
0001
0000
2000
0000
0000
3010
0000
1001
0000
0100
0000
,
0002
0000
0000
0003
;

//---------------dance-single - ----------------
#NOTEDATA:;
#CHARTNAME:;
#CHARTHASH:0:
#STEPSTYPE:dance-single;
#BANNER:;
#DESCRIPTION:;
#CHARTSTYLE:;
#DIFFICULTY:Medium;
#METER:9;
#METERF:0.000000;
#RADARVALUES:0.437696,0.413304,0.510646,0.141846,0.063831,216.000000,180.000000,36.000000,10.000000,0.000000,0.000000,0.000000,0.000000,0.000000,0.437696,0.413304,0.510646,0.141846,0.063831,216.000000,180.000000,36.000000,10.000000,0.000000,0.000000,0.000000,0.000000,0.000000;
#CREDIT:;
#DISPLAYBPM:94.000000:100.000000;
#NOTES:
0000
0000
0000
0000
,
1100
0010
0100
0101
0001
1000
0100
0000
,
0011
0001
1000
1010
0100
0010
1000
0000
,
1001
0100
0010
0110
0001
1000
0100
0000
,
0011
0001
0100
0110
0010
1000
0100
0000
,
1100
0010
1000
1010
0100
0010
0001
0000
,
1001
0001
0100
0101
0001
1000
0100
0000
,
0110
0010
1000
1001
0010
0100
0001
0000
,
0011
1010
1100
0101
,
1000
0001
0100
0001
0010
0100
1000
0000
,
0010
0100
0000
0000
0001
0000
1000
0000
0100
0000
0010
0000
0001
1000
0000
0000
,
0010
1000
0001
1000
0100
0010
0001
0000
,
0100
0010
0000
0000
1000
0001
0000
0000
1000
0000
0100
0000
0010
0001
0000
0000
,
0100
0010
1000
0001
1000
0100
0010
0000
,
0001
0100
0010
1000
0100
0010
0001
0000
,
0010
0101
1100
0000
0010
1000
0001
0100
,
0110
0000
1010
0000
0011
1000
1001
0100
,
1020
0000
0000
0000
0130
0000
0010
0000
2001
0000
0002
0000
3000
0000
1003
0100
,
1000
0010
0100
0001
0010
0100
1000
0000
,
1100
0001
1000
0100
0011
0200
0010
0000
,
0301
0100
0010
1000
0210
0000
0301
1000
,
0102
0000
0000
0000
2003
0000
0000
3020
0000
0000
0130
0000
0001
0000
1000
0001
,
1000
0010
0100
0001
0010
0100
1000
0000
,
0101
0000
1100
0001
1000
0010
0100
0001
,
0011
0000
0000
0000
1010
0000
0000
0020
0000
0000
0130
0000
0001
0000
1000
0000
,
0010
1000
0100
0010
0001
1000
1001
0000
,
0100
0010
1000
0001
1000
0100
0110
0000
,
0002
0000
0000
0003
;

//---------------dance-single - ----------------
#NOTEDATA:;
#CHARTNAME:;
#CHARTHASH:0:
#STEPSTYPE:dance-single;
#BANNER:;
#DESCRIPTION:;
#CHARTSTYLE:;
#DIFFICULTY:Easy;
#METER:6;
#METERF:0.000000;
#RADARVALUES:0.251270,0.295217,0.312061,0.198584,0.000000,124.000000,102.000000,22.000000,14.000000,0.000000,0.000000,0.000000,0.000000,0.000000,0.251270,0.295217,0.312061,0.198584,0.000000,124.000000,102.000000,22.000000,14.000000,0.000000,0.000000,0.000000,0.000000,0.000000;
#CREDIT:;
#DISPLAYBPM:94.000000:100.000000;
#NOTES:
0000
0000
0000
0000
,
1001
0010
1000
0001
,
0010
0100
1000
0010
,
0110
0001
1000
0100
,
1000
0010
0100
0001
,
1001
0010
1000
0100
,
1000
0010
0001
0100
,
0110
0001
1000
0100
,
1001
0110
1001
0110
,
1000
1010
0001
0101
,
0010
0100
0001
1000
,
0100
0011
0001
1100
,
0010
1000
0100
0001
,
0010
0101
0010
1100
,
1000
0010
1000
0001
,
0100
1010
0100
0011
,
1000
0100
0010
0001
,
0200
0000
0000
0310
1000
0002
0000
0000
,
0013
0001
0102
1003
,
0002
0000
0000
0013
0100
2000
0000
0000
,
3010
1000
2100
3001
,
1000
0001
0021
0130
,
1000
0010
2010
3100
,
1000
0001
2001
3010
,
0100
0010
0220
0030
,
0301
1000
0020
0030
,
1000
0001
0200
0300
,
0002
0000
0000
0003
;

//---------------dance-single - ----------------
#NOTEDATA:;
#CHARTNAME:;
#CHARTHASH:0:
#STEPSTYPE:dance-single;
#BANNER:;
#DESCRIPTION:;
#CHARTSTYLE:;
#DIFFICULTY:Beginner;
#METER:2;
#METERF:0.000000;
#RADARVALUES:0.127661,0.153194,0.085108,0.000000,0.000000,63.000000,57.000000,6.000000,0.000000,0.000000,0.000000,0.000000,0.000000,0.000000,0.127661,0.153194,0.085108,0.000000,0.000000,63.000000,57.000000,6.000000,0.000000,0.000000,0.000000,0.000000,0.000000,0.000000;
#CREDIT:;
#DISPLAYBPM:94.000000:100.000000;
#NOTES:
// measure 0
0000
0000
0000
0000
,  // measure 1
1000
0000
0000
1000
0000
0000
0000
0000
,  // measure 2
0001
0000
0000
0001
0000
0000
0000
0000
,  // measure 3
0100
0000
0000
0100
0000
0000
0000
0000
,  // measure 4
0010
0000
0000
0010
0000
0000
0000
0000
,  // measure 5
1000
0000
0000
1000
0000
0000
0000
0000
,  // measure 6
0010
0000
0000
0010
0000
0000
0000
0000
,  // measure 7
0100
0000
0000
0100
0000
0000
0000
0000
,  // measure 8
0001
0000
0001
0000
,  // measure 9
0010
0000
0001
0000
,  // measure 10
0100
0000
1000
0000
,  // measure 11
0001
0000
1000
0000
,  // measure 12
0100
0000
0010
0000
,  // measure 13
0100
0000
1000
0000
,  // measure 14
0010
0000
0001
0000
,  // measure 15
1000
0000
0001
0000
,  // measure 16
0100
0000
0010
0000
,  // measure 17
0100
0000
1001
0000
,  // measure 18
0001
0001
0001
0000
,  // measure 19
0010
0000
0110
0000
,  // measure 20
1000
1000
1000
0000
,  // measure 21
0001
0000
1001
0000
,  // measure 22
1000
0000
0110
0000
,  // measure 23
0010
0000
1001
0000
,  // measure 24
0100
0000
0110
0000
,  // measure 25
0010
0010
0010
0000
,  // measure 26
0100
0100
0100
0000
,  // measure 27
0001
0000
0000
0000
;
