#VERSION:0.83;
#TITLE:true... (radio edit);
#SUBTITLE:;
#ARTIST:小坂りゆ;
#TITLETRANSLIT:;
#SUBTITLETRANSLIT:;
#ARTISTTRANSLIT:RIYU KOSAKA;
#GENRE:;
#ORIGIN:;
#TAGS:;
#CREDIT:;
#BANNER:true... (radio edit)-bn.png;
#BACKGROUND:true... (radio edit)-bg.png;
#PREVIEWVID:;
#JACKET:true... (radio edit)-jacket.png;
#CDIMAGE:;
#DISCIMAGE:;
#LYRICSPATH:;
#CDTITLE:;
#MUSIC:true... (radio edit).ogg;
#OFFSET:0.000000;
#SAMPLESTART:47.490002;
#SAMPLELENGTH:20.000000;
#SELECTABLE:YES;
#DISPLAYBPM:125.000000;
#BPMS:0.000000=123.985001,
4.000000=124.999992;
#STOPS:;
#DELAYS:;
#WARPS:;
#TIMESIGNATURES:0.000000=4=4;
#TICKCOUNTS:0.000000=4;
#COMBOS:0.000000=1;
#SPEEDS:0.000000=1.000000=0.000000=0;
#SCROLLS:0.000000=1.000000;
#FAKES:;
#LABELS:0.000000=Song Start;
#BGCHANGES:;
#KEYSOUNDS:;
#ATTACKS:
;

//---------------dance-single - ----------------
#NOTEDATA:;
#CHARTNAME:;
#CHARTHASH:2147483647:
#STEPSTYPE:dance-single;
#BANNER:;
#DESCRIPTION:;
#CHARTSTYLE:;
#DIFFICULTY:Beginner;
#METER:1;
#METERF:0.000000;
#RADARVALUES:0.090454,0.122550,0.000000,0.000000,0.000000,62.000000,62.000000,0.000000,0.000000,0.000000,0.000000,0.000000,0.000000,0.000000,0.090454,0.122550,0.000000,0.000000,0.000000,62.000000,62.000000,0.000000,0.000000,0.000000,0.000000,0.000000,0.000000,0.000000;
#CREDIT:;
#DISPLAYBPM:125.000000;
#NOTES:
0000
0000
0000
0000
,
0000
0000
0000
0000
,
0000
0000
0000
0000
,
0000
0000
0000
0000
,
0000
0000
0000
0000
,
0100
0000
0000
0000
,
0010
0000
0000
0000
,
0100
0000
0000
0000
,
0010
0000
0000
0000
,
0001
0000
0000
0000
,
1000
0000
0000
0000
,
0010
0000
0000
0000
,
1000
0000
0000
0000
,
0001
0000
0000
0000
,
0010
0000
0000
0000
,
0001
0000
0000
0000
,
0100
0000
0000
0000
,
0001
0000
0000
0000
,
0010
0000
0000
0000
,
0001
0000
0000
0000
,
0100
0000
0000
0000
,
0001
0000
0000
0000
,
0001
0000
0000
0000
,
0010
0000
0000
0000
,
0001
0000
0000
0000
,
1000
0000
1000
0000
,
0010
0000
1000
0000
,
0001
0000
0001
0000
,
0010
0000
0001
0000
,
1000
0000
0000
0000
,
0010
0000
0100
0000
,
0001
0000
1000
0000
,
0100
0000
0000
0000
,
0010
0000
0001
0000
,
1000
0000
0001
0000
,
0100
0000
0001
0000
,
1000
0000
0100
0000
,
1000
0000
0000
0000
,
0010
0000
0100
0000
,
0001
0000
1000
0000
,
0010
0000
0000
0000
,
0100
0000
0001
0000
,
1000
0000
0100
0000
,
0010
0000
0010
0000
,
0001
0000
0001
0000
,
1000
0000
0001
0000
,
0100
0000
0001
0000
,
1000
0000
0000
0000
,
1000
0000
0000
0000
,
0000
0000
0000
0000
;

//---------------dance-single - ----------------
#NOTEDATA:;
#CHARTNAME:;
#CHARTHASH:164451291:
#STEPSTYPE:dance-single;
#BANNER:;
#DESCRIPTION:;
#CHARTSTYLE:;
#DIFFICULTY:Easy;
#METER:2;
#METERF:0.000000;
#RADARVALUES:0.122550,0.174251,0.000000,0.010213,0.000000,84.000000,84.000000,0.000000,1.000000,0.000000,0.000000,0.000000,0.000000,0.000000,0.122550,0.174251,0.000000,0.010213,0.000000,84.000000,84.000000,0.000000,1.000000,0.000000,0.000000,0.000000,0.000000,0.000000;
#CREDIT:;
#DISPLAYBPM:125.000000;
#NOTES:
0000
0000
0000
0000
,
0000
0000
0000
0000
,
0000
0000
0000
0000
,
0000
0000
0000
0000
,
0000
0000
0000
0000
,
0010
0000
0000
0000
,
0010
0000
0000
0000
,
0010
0000
0000
0000
,
1000
1000
1000
0000
,
0001
0000
0000
0000
,
1000
0000
0000
0000
,
0010
0000
0000
0000
,
1000
0000
0000
0000
,
0001
0000
0000
0000
,
0010
0000
0000
0000
,
0001
0000
0000
0000
,
0100
0100
0100
0000
,
0001
1000
0000
0000
,
0010
1000
0000
0000
,
0001
1000
0000
0000
,
0100
0010
0000
0000
,
0001
1000
0000
0000
,
0001
0100
0000
0000
,
0010
1000
0001
0100
,
0001
0000
0000
0000
,
1000
0000
1000
0000
,
0010
0000
1000
0000
,
0001
0000
0001
0000
,
0010
0000
0001
0000
,
1000
1000
1000
0000
,
0010
0000
0100
0000
,
0001
0000
1000
0000
,
0100
0100
0100
0000
,
0010
0000
0001
0000
,
1000
0000
0001
0000
,
0100
0000
0001
0000
,
1000
0000
0100
0000
,
1000
1000
1000
0000
,
0010
0000
0100
0000
,
0001
0000
1000
0000
,
0010
0010
0010
0000
,
0100
0000
0001
0000
,
1000
0000
0100
0000
,
0010
0010
0010
0000
,
0001
0001
0001
0000
,
1000
0000
0001
0000
,
0100
0000
0001
0000
,
2000
0000
0000
0000
,
0000
0000
0000
3000
,
0000
0000
0000
0000
;

//---------------dance-single - ----------------
#NOTEDATA:;
#CHARTNAME:;
#CHARTHASH:2147483647:
#STEPSTYPE:dance-single;
#BANNER:;
#DESCRIPTION:;
#CHARTSTYLE:;
#DIFFICULTY:Medium;
#METER:8;
#METERF:0.000000;
#RADARVALUES:0.274279,0.400331,0.030638,0.142975,0.000000,188.000000,185.000000,3.000000,14.000000,0.000000,0.000000,0.000000,0.000000,0.000000,0.274279,0.400331,0.030638,0.142975,0.000000,188.000000,185.000000,3.000000,14.000000,0.000000,0.000000,0.000000,0.000000,0.000000;
#CREDIT:;
#DISPLAYBPM:125.000000;
#NOTES:
0000
0000
0000
0000
,
0000
0000
0000
0000
,
0000
0000
0000
0000
,
0000
0000
0000
0000
,
0000
0000
0000
0000
,
1001
0000
0100
0010
,
1010
0000
0100
0001
,
1001
0000
0000
0000
,
0001
0001
0001
0001
,
2000
0000
3000
0010
0100
0000
0001
0000
,
2000
0000
3000
0100
0010
0000
0001
0000
,
0200
0000
0300
0010
1000
0000
0001
0000
,
0020
0000
0030
0100
1000
0000
0001
0000
,
2000
0000
3000
0010
0100
0000
0001
0000
,
2000
0000
3000
0100
0010
0000
0001
0000
,
0200
0000
0300
0010
1000
0000
0001
0000
,
0020
0000
0030
0100
1000
0000
0001
0000
,
1000
0100
0010
0001
,
2000
3000
0002
0003
,
1000
0010
0100
0001
,
2000
3000
0002
0003
,
1000
0100
0010
0001
,
2000
3000
0002
0003
,
1000
0001
0100
0001
,
1000
0100
1000
0001
1000
0000
0000
0000
,
0001
0000
0000
0000
0010
0100
0010
0000
,
0001
0000
0000
0000
1000
0100
1000
0000
,
0010
0000
0100
0001
,
1000
0000
0010
1000
,
0001
0100
0010
0000
1000
0100
0010
0000
,
0001
0100
0010
0000
1000
0001
0010
0000
,
0100
0000
0100
0000
,
1000
1000
1000
0000
,
0100
0000
0001
0100
,
1000
0000
0010
1000
,
0001
0100
0010
0000
1000
0100
0010
0000
,
0001
0100
0010
0000
1000
0100
0010
0000
,
0001
0000
1000
0000
0010
0000
1000
0010
,
1000
0000
0001
0010
0001
0000
1000
0010
,
1000
0000
0001
0010
0001
0000
1000
0010
,
1000
0001
1000
1000
,
0010
0100
0010
0000
1000
0100
1000
0000
,
0001
0100
0001
0000
1000
0100
1000
0000
,
0001
0100
0010
0000
1000
0100
0010
0001
,
0100
0010
1000
0000
0000
0000
0001
0000
,
0000
0100
0001
0000
0000
0000
1000
0000
,
0000
0100
1000
0000
0000
0000
0001
0000
,
0000
1000
0010
1000
0010
1000
0010
1000
,
0010
0100
0001
0100
0001
0100
0001
0100
,
0001
0000
0000
0000
,
0000
0000
0000
0000
;

//---------------dance-single - ----------------
#NOTEDATA:;
#CHARTNAME:;
#CHARTHASH:2147483647:
#STEPSTYPE:dance-single;
#BANNER:;
#DESCRIPTION:;
#CHARTSTYLE:;
#DIFFICULTY:Hard;
#METER:11;
#METERF:0.000000;
#RADARVALUES:0.463940,0.524094,0.194038,0.204250,0.081700,318.000000,299.000000,19.000000,20.000000,0.000000,0.000000,0.000000,0.000000,0.000000,0.463940,0.524094,0.194038,0.204250,0.081700,318.000000,299.000000,19.000000,20.000000,0.000000,0.000000,0.000000,0.000000,0.000000;
#CREDIT:;
#DISPLAYBPM:125.000000;
#NOTES:
0000
0000
0000
0000
,
0000
0000
0000
0000
,
0000
0000
0000
0000
,
0000
0000
0000
0000
,
0000
0000
0000
0000
,
0010
1000
0200
0000
1300
0001
0200
0000
,
0310
1000
0200
0000
1300
0001
0200
0000
,
0310
0100
0002
0000
1003
0010
0200
0000
,
0301
1000
0001
0100
0001
1000
0001
0100
,
0001
0000
1000
0100
1100
0000
0001
0000
,
0100
0000
0010
1000
1010
0000
0001
0000
,
0100
0000
0010
0100
0110
0000
1000
0000
,
0001
1000
1001
1000
0010
1010
1001
0000
,
0001
0000
0011
0000
0100
1100
1001
0000
,
1000
0000
1001
0000
0001
0101
1001
0000
,
0010
0000
0110
0000
0100
0101
1001
0100
,
0000
0010
1010
0000
0100
0101
1001
0000
,
0200
0000
0310
0100
0000
1000
0100
0000
,
0002
0000
1003
0100
0000
1000
0001
0000
,
0200
0000
0310
1000
0000
0001
1000
0000
,
0200
0000
0310
0001
0000
1000
0001
0000
,
0020
0000
0130
1000
0000
0100
0010
0000
,
0002
0000
1003
0010
0000
0100
0001
0000
,
1000
0010
0100
0010
1000
0010
0100
0001
,
1000
0100
1000
0001
1001
0000
0100
0010
,
1000
0001
1000
0100
1000
0001
0200
0000
,
0310
1000
0010
0100
0010
1000
0200
0000
,
0310
0001
0010
0100
0010
0001
0200
0000
,
0310
1000
0100
0010
0001
0100
0020
0000
,
1030
0100
1000
0100
1000
0100
0020
0000
,
0031
0100
0010
1000
0100
0010
0002
0000
,
1003
0010
1000
0010
0100
0010
0200
0000
,
0301
0001
0001
0001
1000
1000
2000
0000
,
3010
0000
0100
1000
0000
0000
0100
0000
0001
0000
0010
0100
0000
0000
1000
0000
,
0001
0000
0100
0010
0000
0000
1000
0000
0100
0000
0010
0000
0100
0000
0000
0000
,
1000
0000
0010
0100
0000
0000
1000
0000
0100
0000
0010
1000
0000
0000
0100
0000
,
0010
0000
0100
0001
0000
0000
0100
0000
1000
0000
0010
0000
0100
0000
0000
0000
,
0010
1000
0100
0000
0010
0001
0100
0000
,
1000
0100
0001
0000
1000
0100
0010
0000
,
0001
0100
0010
1000
0010
0100
1000
0100
,
0001
1000
0100
0000
0010
0000
0001
0000
,
1000
0000
0100
1000
0010
0000
0100
0000
0001
0000
0100
0000
0010
0000
0100
0000
,
1000
0000
0100
0010
1000
0000
0100
0000
1000
0000
0001
0000
0100
0000
0010
0000
,
1000
0000
0100
1000
0010
0000
0100
0000
0001
0000
0100
0000
0010
0000
0100
0000
,
1000
0000
0100
0010
1000
0000
0100
0000
1000
0000
0001
0000
0100
0000
0010
0000
,
1000
0000
0100
1000
0001
0000
0100
0000
0001
0000
0100
0000
0010
0000
1000
0000
,
0100
0000
0010
0001
1000
0000
0010
0000
0100
0000
0001
0000
1000
0000
0001
0000
,
0100
0000
0010
1000
0100
0000
1000
0000
0010
0000
1000
0001
0100
0000
0010
0000
,
1000
0000
0100
0010
0001
0000
0100
0000
0010
0000
1000
0100
0010
0000
0001
0000
,
0000
0000
0000
0000
;

//---------------dance-double - ----------------
#NOTEDATA:;
#CHARTNAME:;
#CHARTHASH:1837975724:
#STEPSTYPE:dance-double;
#BANNER:;
#DESCRIPTION:;
#CHARTSTYLE:;
#DIFFICULTY:Easy;
#METER:4;
#METERF:0.000000;
#RADARVALUES:0.157565,0.222888,0.000000,0.040850,0.000000,108.000000,108.000000,0.000000,4.000000,0.000000,0.000000,0.000000,0.000000,0.000000,0.157565,0.222888,0.000000,0.040850,0.000000,108.000000,108.000000,0.000000,4.000000,0.000000,0.000000,0.000000,0.000000,0.000000;
#CREDIT:;
#DISPLAYBPM:125.000000;
#NOTES:
00000000
00000000
00000000
00000000
,
00000000
00000000
00000000
00000000
,
00000000
00000000
00000000
00000000
,
00000000
00000000
00000000
00000000
,
00000000
00000000
00000000
00000000
,
10000000
00000000
00000000
00000000
,
00010000
00000000
00000000
00000000
,
00001000
00000000
00000000
00000000
,
00000001
00000001
00000001
00000000
,
00001000
00000000
00000010
00000000
,
00001000
00000000
00010000
00000000
,
01000000
00000000
10000000
00000000
,
01000000
00000000
00010000
00000000
,
00100000
00000000
00100000
00000000
,
00010000
00000000
00001000
00000000
,
00000100
00000000
00000100
00000000
,
00001000
00000000
00000001
00000100
,
00001000
00010000
01000000
00100000
,
00010000
10000000
00010000
10000000
,
01000000
00100000
01000000
00100000
,
00001000
00010000
00001000
00010000
,
00001000
00000010
00001000
00000010
,
00000100
00001000
00000001
00000100
,
00000010
00000000
00010000
00000000
,
00001000
00001000
00001000
00000000
,
01000000
00000000
00000000
00100000
,
10000000
00000000
00000000
01000000
,
00100000
00000000
00000000
00001000
,
00010000
00000000
00000000
00100000
,
00010000
00000000
00000000
00001000
,
00010000
00000000
00000000
00000100
,
00001000
00001000
00000001
00000001
,
00000100
00000100
00000100
00000100
,
00002000
00000000
00003000
00000000
,
02000000
00000000
03000000
00000000
,
00020000
00000000
00030000
00000000
,
20000000
00000000
30000000
00000000
,
01000000
01000000
01000000
01000000
,
00100000
00001000
00010000
00001000
,
00010000
00000100
00001000
00000100
,
00001000
00000000
00000000
00000000
,
00000001
00000000
00000100
00000000
,
00001000
00000000
00010000
00000000
,
01000000
00000000
10000000
00000000
,
00100000
00100000
00100000
00000000
,
01000000
00000000
00001000
00000000
,
00010000
00000000
00000100
00000000
,
00000010
00000010
00000010
00000000
,
00000001
00000001
00000001
00000000
,
00000000
00000000
00000000
00000000
;

//---------------dance-double - ----------------
#NOTEDATA:;
#CHARTNAME:;
#CHARTHASH:2147483647:
#STEPSTYPE:dance-double;
#BANNER:;
#DESCRIPTION:;
#CHARTSTYLE:;
#DIFFICULTY:Medium;
#METER:6;
#METERF:0.000000;
#RADARVALUES:0.242183,0.348502,0.000000,0.163400,0.000000,166.000000,166.000000,0.000000,16.000000,0.000000,0.000000,0.000000,0.000000,0.000000,0.242183,0.348502,0.000000,0.163400,0.000000,166.000000,166.000000,0.000000,16.000000,0.000000,0.000000,0.000000,0.000000,0.000000;
#CREDIT:;
#DISPLAYBPM:125.000000;
#NOTES:
00000000
00000000
00000000
00000000
,
00000000
00000000
00000000
00000000
,
00000000
00000000
00000000
00000000
,
00000000
00000000
00000000
00000000
,
00000000
00000000
00000000
00000000
,
20000000
30000000
01000000
00010000
,
00002000
00003000
00000100
00000001
,
00002000
00003000
00000010
00000100
,
00020000
00000000
00000000
00030000
,
01000000
00000000
00000000
00000000
00100000
00000000
00000000
10000000
,
01000000
00000000
00000000
00000000
00010000
00000000
00000000
00001000
,
00010000
00000000
00000100
00000000
,
00000010
00000000
00000000
00000001
00000010
00000000
00000100
00000000
,
00001000
00000000
00000000
00000000
00000010
00000000
00000000
00010000
,
00001000
00000000
00000000
00000000
01000000
00000000
00000000
00100000
,
01000000
00000000
00010000
00000000
,
00000010
00000000
00000000
00000100
00001000
00000000
00000010
00000000
,
00000100
00000000
00001000
00000000
00000100
00000001
00001000
00000000
,
00000100
00000000
00010000
00000000
00001000
00100000
01000000
00000000
,
10000000
00000000
01000000
00000000
00100000
00010000
00001000
00000000
,
00000010
00000000
00000100
00000000
00000001
00001000
00000100
00000000
,
00010000
00000000
01000000
00000000
00100000
00010000
10000000
00000000
,
00100000
00000000
00010000
00000000
00000100
00001000
00000100
00000000
,
00001000
00000001
00001000
00000000
00000010
00001000
00000010
00000000
,
00010000
00100000
01000000
10000000
01000000
00000000
00000000
00000000
,
10000000
10000000
01000000
01000000
,
00100000
00100000
00010000
00010000
,
00001000
00001000
00000100
00000100
,
00000010
00000010
00000001
00000001
,
00001000
00001000
00002000
00003000
,
00010000
00010000
00020000
00030000
,
02000000
00000000
00000000
03000000
,
00100000
00100000
00200000
00300000
,
00010000
00010000
01000000
01000000
,
00010000
00010000
00001000
00001000
,
00000010
00000010
00001000
00001000
,
00000100
00000100
00001000
00001000
,
00010000
00010000
00020000
00030000
,
00100000
00100000
00200000
00300000
,
01000000
02000000
03100000
00200000
,
00310000
00020000
01030000
02000000
,
03010000
00000000
00010000
00000000
00000010
00001000
00000010
00000000
,
00000100
00000000
00000100
00000000
00001000
00000100
00010000
00000000
,
01000000
00000000
01000000
00000000
00100000
00010000
10000000
00000000
,
00100000
00100000
00020000
00030000
,
00001000
00000000
00001000
00000000
00000100
00000010
00000100
00000000
,
00001000
00000000
00001000
00000000
00000100
00010000
00001000
00000000
,
00010000
01000000
00010000
00000000
10000000
01000000
10000000
00000000
,
00020000
00000000
00000000
00030000
,
00000000
00000000
00000000
00000000
;

//---------------dance-double - ----------------
#NOTEDATA:;
#CHARTNAME:;
#CHARTHASH:2147483647:
#STEPSTYPE:dance-double;
#BANNER:;
#DESCRIPTION:;
#CHARTSTYLE:;
#DIFFICULTY:Hard;
#METER:11;
#METERF:0.000000;
#RADARVALUES:0.434762,0.499137,0.142975,0.245101,0.045956,298.000000,284.000000,14.000000,24.000000,0.000000,0.000000,0.000000,0.000000,0.000000,0.434762,0.499137,0.142975,0.245101,0.045956,298.000000,284.000000,14.000000,24.000000,0.000000,0.000000,0.000000,0.000000,0.000000;
#CREDIT:;
#DISPLAYBPM:125.000000;
#NOTES:
00000000
00000000
00000000
00000000
,
00000000
00000000
00000000
00000000
,
00000000
00000000
00000000
00000000
,
00000000
00000000
00000000
00000000
,
00000000
00000000
00000000
00000000
,
00010000
10000000
02000000
00000000
03100000
00001000
00010000
00000000
,
00000100
00000010
00000002
00000000
00001003
00000010
00000100
00000000
,
00000010
00010000
00002000
00000000
01003000
00100000
10000000
00000000
,
01000000
00000000
00100000
00010000
00100000
00000000
00010000
10000000
00010000
00000000
01000000
00100000
01000000
00000000
00010000
10000000
,
00010000
00000000
01000000
00001000
00011000
00000000
00000010
00000000
,
00000100
00000000
00000001
00001000
00001001
00000000
00000100
00000000
,
00010000
01000000
00100000
00010000
10000000
00100000
01000000
00001000
,
00010000
00000010
00001000
00000100
00000010
00000001
00001001
00000000
,
00000100
00000000
00010000
00001000
00011000
00000000
01000000
00000000
,
00010000
00000000
10000000
00010000
10010000
00000000
00100000
00000000
,
00001000
00000010
00000100
00001000
00000001
00000100
00000010
00010000
,
00001000
01000000
00010000
00100000
00010000
10000000
10010000
00000000
,
00100000
00000000
00100000
00020000
00000000
00000000
00030000
00000010
,
00000100
00000000
00001000
00000002
00000000
00000000
00000003
00000100
,
00001000
00000000
01000000
00010000
00000000
10000000
01000000
10000000
,
00010000
01000000
00000000
00100000
00000000
00000000
01000000
00001000
,
00010000
00000000
00000100
00000020
00000000
00000000
00000030
00000001
,
00001000
00000000
00000010
00020000
00000000
00000000
00030000
01000000
,
00010000
01000000
00100000
01000000
10000000
00010000
01000000
00010000
,
10000000
01000000
00100000
00010000
00002000
00000000
00003000
00000000
,
00000100
00001000
00000200
00000000
00000310
00000001
00000020
00000000
,
00000031
00001000
00000002
00000000
00000103
00001000
00000200
00000000
,
00001300
00010000
00002000
00000000
01003000
00010000
02000000
00000000
,
03100000
10000000
00200000
00000000
01300000
00001000
00020000
00000000
,
00030010
00000100
00002000
00000000
00003100
00000001
00002000
00000000
,
00003100
00010000
00002000
00000000
01003000
00100000
20000000
00000000
,
31000000
00100000
00020000
00000000
00030010
00000100
00002000
00000000
,
00003001
00000100
00000020
00000000
00010030
00001000
02000000
00000000
,
03010000
00100000
01000000
10000000
00010000
01000000
10010000
00000000
,
00100000
00001000
00010000
00000100
00000010
00000100
00000110
00000000
,
00000001
00001000
00000010
00000100
00010000
00001000
00011000
00000000
,
01000000
00010000
10000000
01000000
00100000
01000000
01100000
00000000
,
10000000
01000000
00100000
00010000
00001000
00000100
00001001
00000000
,
00000010
00000100
00000001
00001000
00000100
00000010
00000110
00000000
,
00001000
00010000
00100000
01000000
00100000
00010000
10010000
00100000
,
00001000
00010000
00000100
00000010
00000001
00001000
00001001
00000000
,
00000001
00000000
00001000
00000100
00001000
00000000
00000010
00000000
00001000
00000000
00000000
00000000
01000000
00000000
00000000
00000000
,
10000000
00000000
00010000
01000000
00010000
00000000
10000000
00000000
01000000
00000000
00000000
00000000
00100000
00000000
00000000
00000000
,
00001000
00000000
00010000
00001000
00010000
00000000
00000100
00000000
00001000
00000000
00000001
00000000
00000100
00000000
00000000
00000000
,
00000010
00001000
00000100
00010000
00001000
00100000
00010000
00000000
,
10000000
00000000
00100000
01000000
00100000
00000000
10000000
00000000
00010000
00000000
00000000
00000000
00000010
00000000
00000000
00000000
,
00001000
00000000
00000010
00000100
00000010
00000000
00000001
00000000
00001000
00000000
00000000
00000000
00000010
00000000
00000000
00000000
,
00001000
00000010
00001000
00000010
00001000
00000001
00001000
00000001
,
00001000
00000100
00010000
00001000
01000000
00100000
10000000
00010000
,
00000000
00000000
00000000
00000000
;

//---------------dance-single - ----------------
#NOTEDATA:;
#CHARTNAME:;
#CHARTHASH:0:
#STEPSTYPE:dance-single;
#BANNER:;
#DESCRIPTION:;
#CHARTSTYLE:;
#DIFFICULTY:Challenge;
#METER:15;
#METERF:0.000000;
#RADARVALUES:0.679862,0.749663,0.265526,0.347226,0.719983,466.000000,440.000000,26.000000,34.000000,0.000000,0.000000,0.000000,0.000000,0.000000,0.679862,0.749663,0.265526,0.347226,0.719983,466.000000,440.000000,26.000000,34.000000,0.000000,0.000000,0.000000,0.000000,0.000000;
#CREDIT:;
#DISPLAYBPM:125.000000;
#NOTES:
// measure 0
0000
0000
0000
0000
,  // measure 1
0000
0000
0000
0000
,  // measure 2
0000
0000
0000
0000
,  // measure 3
0000
0000
0000
0000
,  // measure 4
0000
0000
0000
0000
,  // measure 5
0010
1000
0010
1000
0100
0000
0010
0001
2000
0000
3002
0000
0203
0000
0320
0000
,  // measure 6
0030
0000
1000
0100
0010
0000
0001
0100
0002
0000
0023
0000
0230
0000
2300
0000
,  // measure 7
3000
0000
0000
0000
0000
0000
0001
0000
0000
1000
0000
0000
0010
0000
0000
0000
0000
0000
2200
0000
0000
0000
0300
0000
0000
0000
0000
3001
0000
0000
0100
0000
0000
0001
0000
0000
0100
0000
0000
0010
0000
0000
1000
0000
0000
0001
0000
0000
,  // measure 8
0200
0000
0010
0000
0010
0000
0310
0000
1000
0100
1000
0000
0001
0100
0001
0000
,  // measure 9
0022
0000
0000
0000
0000
0000
0000
0030
0000
0000
0000
0000
1003
0000
0001
0000
1000
0000
0000
0000
0010
0000
0000
0000
0010
0000
0000
0000
0100
0000
0001
0000
,  // measure 10
1000
0000
0000
0000
0000
0000
0000
0000
0000
0000
0000
0000
0220
0000
0000
0000
0000
0030
0000
0000
0001
0000
0000
0000
0310
0000
0000
0000
0100
0000
0000
0000
,  // measure 11
2020
0000
0000
0000
0000
0000
0000
0030
0000
0000
0000
0000
3001
0000
0000
0000
0000
0000
0100
0000
0000
0000
0000
0000
1001
0000
0000
0000
0000
0000
0010
0000
0000
0000
0000
0000
1000
0000
0000
0000
0000
0000
0002
0000
0000
0000
0000
0000
,  // measure 12
0000
0000
0103
0000
0101
0000
0010
0000
1000
0001
0000
0001
0100
0000
0010
1000
,  // measure 13
0100
0000
0010
0000
0001
0000
0100
0010
0000
1000
0000
0010
0100
0000
0001
0000
,  // measure 14
1000
0000
0100
0000
0001
0000
0100
0010
0000
0001
0000
0100
0010
0000
1000
0000
,  // measure 15
0001
0000
1000
0000
0010
0000
1000
0100
0000
0010
0000
0001
1000
0000
0010
0000
,  // measure 16
0100
0000
1000
0000
0100
0000
0001
0010
0000
0001
0000
1000
0010
0000
0100
0000
,  // measure 17
0110
0000
0001
0000
1000
0000
0100
0010
0000
0001
0000
1000
0100
1000
0001
0000
,  // measure 18
0010
0000
0001
0000
0100
0000
0010
1000
0000
0100
0000
1000
0010
0100
0001
0000
,  // measure 19
0010
0000
1000
0000
0010
0000
0001
0100
0000
0001
0000
1000
0100
0001
0100
0000
,  // measure 20
1000
0000
0010
0000
0100
0001
0000
1000
0100
0010
0001
0000
0100
0010
1000
0000
,  // measure 21
0001
0000
1000
0000
0010
1000
0000
0001
0000
0100
0000
0001
0010
0001
0100
0000
,  // measure 22
1000
0000
0100
0000
0010
0000
0100
0001
0000
1000
0000
0010
1000
0001
0100
0000
,  // measure 23
0001
0000
0010
0000
0100
0000
0001
0100
0000
1000
0000
0010
0100
0001
1000
0000
,  // measure 24
0001
0010
0001
0010
0001
0010
0001
0000
1000
0001
0010
0100
0001
0100
1000
0010
,  // measure 25
0100
0000
0010
1000
0000
1000
0002
0000
0000
0000
0013
0000
1001
0000
0100
0000
,  // measure 26
1010
0000
1000
0100
0000
0100
0010
0000
0000
0001
0100
0001
0010
0100
1000
0000
,  // measure 27
2100
0001
3001
0101
0021
0100
0130
1000
,  // measure 28
1001
0000
0012
0000
0100
0000
0010
0000
1003
0100
0010
0001
0100
0010
1000
0001
,  // measure 29
0010
0000
0001
0000
1000
0000
0010
1000
0000
0100
0000
0010
0001
1000
0001
0000
,  // measure 30
0100
0000
0010
0000
1000
0001
0000
0010
0000
0001
0000
1000
0010
1000
0100
0000
,  // measure 31
1010
0000
0010
0100
0000
0001
0100
0000
0110
0000
1000
0000
0001
0000
0010
0000
,  // measure 32
0001
0010
0001
0010
0001
0100
0001
0100
0010
1000
0010
1000
0100
1000
0100
1000
,  // measure 33
0001
0000
0010
0001
0000
1000
0001
0000
0100
0010
1000
0000
0100
0000
0001
0000
,  // measure 34
0100
0000
1000
0001
0000
0010
0200
0000
0000
0301
0100
0000
1100
0000
0101
0000
,  // measure 35
0020
0000
0001
0000
0130
0000
0011
0000
2100
0000
0001
0000
3100
1000
0020
0000
,  // measure 36
0230
0000
0302
0000
0023
0000
0230
0000
1300
0001
0010
0000
0000
1001
0000
0000
,  // measure 37
0110
0000
1000
0000
0001
0000
0010
0000
0001
0100
0010
1000
0100
0000
1000
0000
,  // measure 38
1010
0000
0001
0000
0010
0000
0001
1000
0100
0000
0010
0000
0001
0000
1000
0100
,  // measure 39
1000
0000
0010
0100
0001
0000
0010
0001
1000
0000
0100
0000
0010
0000
0001
0100
,  // measure 40
0000
0000
0010
1000
0010
1000
0010
1000
0001
0000
0100
0000
0101
0000
1000
0001
,  // measure 41
0010
0000
0100
0000
1000
0000
0001
0100
0001
0000
1000
0000
0010
0000
0100
0000
,  // measure 42
1000
0000
0100
0000
0001
0000
0010
0100
0010
0000
0001
0000
0100
0000
1000
0200
,  // measure 43
0001
0001
1000
0010
0310
2000
3002
0203
,  // measure 44
0310
0000
0101
0000
1100
0000
0001
0010
0001
0000
0100
0000
0010
0000
1000
0001
,  // measure 45
0100
0000
0010
0000
1000
0000
0100
0001
0100
0000
0010
0000
0001
0000
1000
0001
,  // measure 46
1000
0000
0010
0000
0100
0000
0010
1000
0001
0000
0100
0000
0001
0000
0010
0000
,  // measure 47
0100
0001
0100
0010
0100
1000
0100
0000
0100
0001
0100
0010
0100
1000
0100
0000
,  // measure 48
1000
0001
1000
0001
0010
0100
0010
0100
1000
0010
1000
0010
0100
0001
0100
0001
;
