#TITLE:special energy;
#ARTIST:DJ FX;
#BANNER:special energy.png;
#BACKGROUND:special energy-bg.png;
#JACKET:special energy-jacket.png;
#MUSIC:special energy.ogg;
#SAMPLESTART:56.499;
#SAMPLELENGTH:20;
#DISPLAYBPM:140;
#BPMS:0=140.18;
#BGCHANGES:;

//---------------dance-single - ----------------
#NOTES:
     dance-single:
     :
     Beginner:
     3:
     :
0000
0000
0000
0000
,
0000
0000
0000
0000
,
0000
0000
0000
0000
,
0000
0000
0000
0000
,
0000
0000
0000
0000
,
1000
0000
0001
0000
,
1001
0000
0000
0000
,
0100
0000
0010
0000
,
0110
0000
0000
0000
,
1001
0000
0000
0000
,
0110
0000
0000
0000
,
1001
0000
0000
0000
,
0010
0010
0010
0010
,
0010
0000
1000
0000
,
0001
0000
0100
0100
,
0100
0000
0010
0000
,
0110
0000
0001
0000
,
1000
0000
0001
0001
,
0000
0000
0010
0010
,
0000
0000
0100
0100
,
0000
0000
1000
1000
,
0000
0001
0000
0001
,
0000
1000
0000
1000
,
0000
0010
0000
0010
,
0000
0100
0000
0100
,
0100
0000
0110
0000
,
0010
0000
1001
0000
,
1000
0000
0110
0000
,
0001
0000
1001
0000
,
0010
0000
0001
0000
,
0001
0000
0001
0000
,
0100
0000
0010
0000
,
1000
0000
1000
0000
,
0110
0000
0010
0010
,
0000
1000
0000
0001
,
0001
0000
0100
0100
,
0000
0010
0000
0010
,
0010
0000
1000
0000
,
0001
0000
0100
0000
,
1001
0000
0001
0000
,
1000
0000
0100
0000
,
1001
0000
0010
0000
,
0000
0100
0100
0000
,
0110
0000
0001
0000
,
1000
1000
1000
1000
,
1000
0000
0010
0010
;

//---------------dance-single - ----------------
#NOTES:
     dance-single:
     :
     Easy:
     7:
     :
0000
0000
0000
0000
,
0000
0000
0000
0000
,
0000
0000
0000
0000
,
0000
0000
0000
0000
,
0000
0001
0000
0001
,
0000
0001
0000
0100
,
0000
0001
0000
0100
,
0000
0001
0000
0100
,
0000
1000
0000
0100
,
0001
0100
1000
0100
,
0001
0100
1000
0100
,
0001
0100
1000
0010
,
0001
0100
1000
0010
,
0000
0100
0000
0100
,
0010
0010
0100
0100
,
0000
0000
0000
0000
0100
0000
0000
0000
0100
0000
0000
0001
0000
0000
0010
0000
,
0000
0000
0000
0000
0100
0000
0000
0000
0100
0000
0000
1000
0000
0000
0010
0000
,
0000
0001
0000
1000
,
0001
0001
1000
1000
,
0000
0000
0000
0000
0100
0000
0000
0000
0010
0000
0000
1000
0000
0000
0100
0000
,
0000
0000
0000
0000
0100
0000
0000
0000
0010
0000
0000
0001
0000
0000
0100
0000
,
0000
1001
0000
0110
,
1000
0100
0001
0010
,
0000
0000
0000
0000
0001
0000
0000
0000
1000
0000
0000
1000
0000
0000
1000
0000
,
0000
0000
0000
0000
0100
0000
0000
0000
0010
0000
0000
0010
0000
0000
0010
0000
,
0000
0001
0000
1000
,
0001
0100
1000
0100
,
0000
0000
0000
0000
0010
0000
0000
0000
0100
0000
0000
0100
0000
0000
0100
0000
,
0000
0100
0000
0100
,
0000
0000
0000
0001
0000
0000
0000
0001
,
0000
0000
0000
1000
0000
0000
0000
1000
,
0000
0001
0000
0001
0000
1000
0000
1000
,
0000
0010
0000
0010
0000
0010
0000
0010
,
0000
0000
0000
0000
0000
0000
0000
0000
0010
0000
0000
0001
0000
0000
0100
0000
,
0000
0000
0000
0000
0010
0000
0000
0000
0010
0000
0000
0001
0000
0000
0000
0100
,
0000
0000
0000
0000
0010
0000
0000
0000
0100
0000
0000
1000
0000
0000
0010
0000
,
0000
0000
0000
0000
0010
0000
0000
0000
0100
0000
0000
1000
0000
0000
0010
0000
,
0000
0000
0000
0000
0100
0000
0000
0000
0010
0000
0000
0001
0000
0000
1000
0000
,
0000
0000
0000
0000
0100
0000
0000
0000
0010
0000
0000
0001
0000
0000
1000
0000
,
0000
0000
0000
0000
1100
0000
0000
0000
1000
0000
0000
1000
0000
0000
1000
0000
,
0000
0000
0000
0000
1100
0000
0000
0000
1000
0000
0000
1000
0000
0000
1000
0000
,
0000
0000
0000
0000
0110
0000
0000
0000
1000
0000
0000
1000
0000
0000
0001
0000
,
0000
0000
0000
0000
0110
0000
0000
0000
1000
0000
0000
1000
0000
0000
0001
0000
,
0000
0000
0000
0000
0010
0000
0000
0000
0001
0000
0000
1000
0000
0000
0100
0000
,
0000
0000
0000
0000
0010
0000
0000
0000
0001
0000
0000
1000
0000
0000
0100
0000
;

//---------------dance-single - ----------------
#NOTES:
     dance-single:
     :
     Medium:
     8:
     :
0000
0000
0000
0000
,
0000
0000
0000
0000
,
0000
0000
0000
0000
,
0000
0000
0000
0000
,
0000
0001
0000
0001
,
0000
0001
0000
0100
,
0000
0001
0000
0100
,
0001
0100
0001
0100
,
0001
0100
0001
0100
,
0001
0100
1000
0100
,
0001
0100
1000
0100
,
0001
0100
1000
0010
,
0001
0100
1000
0010
,
0000
0100
0000
0001
,
0100
0001
0010
0010
,
0000
0000
0001
0000
0100
0000
0000
0000
0100
0000
0000
0001
0000
0000
0010
0000
,
0000
0000
1000
0000
0100
0000
0000
0000
0100
0000
0000
1000
0000
0000
0010
0000
,
0000
0001
0000
0100
,
0010
0010
1000
0100
,
0000
0000
0001
0000
1000
0000
0000
0000
0010
0000
0000
1000
0000
0000
0100
0000
,
0000
0000
1000
0000
0001
0000
0000
0000
0010
0000
0000
0001
0000
0000
0100
0000
,
0000
0001
0000
0110
,
1000
1000
0001
0001
,
0000
0000
0100
0000
0001
0000
0000
0000
1000
0000
0000
1000
0000
0000
0001
0000
,
0000
0000
0100
0000
1000
0000
0000
0000
0001
0000
0000
0001
0000
0000
1000
0000
,
0000
0010
0000
0100
,
0010
0100
1100
0100
,
0000
0000
0010
0000
1000
0000
0000
0000
0100
0000
0000
0100
0000
0000
0100
0000
,
0000
0100
0000
0100
,
0000
0000
0000
0001
0000
0000
0000
1000
,
0000
0000
0000
0010
0000
0000
0000
0100
,
0000
0001
0000
1000
0000
0010
0000
0100
,
0000
0001
0000
1000
0000
0010
0000
0100
,
0000
0000
0000
0000
0000
0000
0000
0000
1000
0000
0000
0001
0000
0000
0100
0000
,
0000
0000
0000
0000
1000
0000
0000
0000
0001
0000
0000
1000
0000
0000
1000
0000
,
0000
0000
0000
0000
0010
0000
0000
0000
0001
0000
0000
1000
0000
0000
0100
0000
,
0000
0000
0000
0000
0010
0000
0000
0000
1000
0000
0000
0001
0000
0000
0001
0000
,
0000
0000
0000
0000
0100
0000
0000
0000
0010
0000
0000
0001
0000
0000
0100
0000
,
0000
0000
0000
0000
0100
0000
0000
0000
0010
0000
0000
1000
0000
0000
1000
0000
,
0000
0000
0000
0000
1001
0000
0000
0000
0010
0000
0000
0001
0000
0000
0100
0000
,
0000
0000
0000
0000
1001
0000
0000
0000
0010
0000
0000
0010
0000
0000
0010
0000
,
0000
0000
0000
0000
0100
0000
0000
0000
0010
0000
0000
0001
0000
0000
0100
0000
,
0000
0000
0000
0000
0100
0000
0000
0000
0010
0000
0000
1000
0000
0000
1000
0000
,
0000
0000
0000
0000
0010
0000
0000
0000
0001
0000
0000
1000
0000
0000
0100
0000
,
0000
0000
0000
0000
0010
0000
0000
0000
1000
0000
0000
0001
0000
0000
0001
0000
;

//---------------dance-single - ----------------
#NOTES:
     dance-single:
     :
     Hard:
     10:
     :
0000
0000
0000
0000
,
0000
0000
0000
0000
,
0000
0000
0000
0000
,
0000
0000
0000
0000
,
0001
0001
0001
0001
,
0001
0100
0001
0100
,
0001
0100
1000
0100
,
0001
0100
1000
0010
,
0001
0100
1000
0000
0001
0100
1000
0000
,
0001
1000
0100
0000
0001
1000
0100
0000
,
0010
0001
0100
0000
0010
0001
0100
0000
,
0001
0010
1000
0000
0001
0010
1000
0000
,
0010
0010
0010
0010
,
1001
0101
1000
0100
,
0011
0101
1000
0001
,
0000
0000
0001
0000
0010
0000
1000
0000
0010
0000
0000
0001
0000
0000
0001
0000
,
0000
0000
1000
0000
0010
0000
0001
0000
0010
0000
0000
1000
0000
0000
1000
0000
,
0000
0000
1000
0000
0100
0000
0001
0000
0001
0000
0000
0001
0000
0000
0001
0000
,
0000
0000
0001
0000
0100
0000
1000
0000
1000
0000
0000
1000
0000
0000
1000
0000
,
0000
0000
0001
0000
1000
0000
0100
0000
0010
0000
0000
0001
0000
0000
0100
0000
,
0000
0000
1000
0000
0001
0000
0100
0000
0010
0000
0000
1000
0000
0000
0100
0000
,
0000
0000
0010
0000
0001
0000
0100
0000
0100
0000
0000
1000
0000
0000
0100
0000
,
0000
0000
0010
0000
1000
0000
0100
0000
0100
0000
0000
0001
0000
0000
0100
0000
,
0000
0000
1001
0000
0010
0000
0100
0000
0001
0000
0000
1000
0000
0000
0100
0000
,
0000
0000
1001
0000
0010
0000
0100
0000
1000
0000
0000
0001
0000
0000
0100
0000
,
0010
1001
0010
0100
,
0001
0001
1100
0101
,
0000
0000
0010
0000
1000
0000
0001
0000
0010
0000
0000
0001
0000
0000
1000
0000
,
0000
0000
0100
0000
0001
0000
1000
0000
0100
0000
0000
1000
0000
0000
0001
0000
,
0000
0000
0000
0001
0000
0000
0000
1000
,
0000
0000
0000
0010
0000
0000
0000
0100
,
0000
1010
0000
1100
0000
0001
0000
0100
,
0000
0000
0000
0000
,
0000
0000
0000
0000
0101
0000
0000
0000
1000
0000
0000
0001
0000
0000
0100
0000
,
0000
0000
0110
0000
1000
0000
0100
0000
0001
0000
0000
1000
0000
0000
0100
0000
,
0000
0000
1000
0000
0001
0000
0010
0000
0100
0000
0000
0100
0000
0000
0100
0000
,
0000
0000
0010
0000
1000
0000
0001
0000
0100
0000
0000
0001
0000
0000
0001
0000
,
0000
0000
0000
0000
0010
0000
0000
0000
0100
0000
0000
0001
0000
0000
0010
0000
,
0000
0000
0110
0000
0001
0000
1000
0000
0001
0000
0000
0100
0000
0000
1000
0000
,
0000
0000
0100
0000
0001
0000
0100
0000
0010
0000
0000
1000
0000
0000
0001
0000
,
0000
0000
0100
0000
0001
0000
0000
0000
0010
0000
0000
0010
0000
0000
0010
0000
,
0000
0000
0000
0000
0010
0000
0000
0000
1000
0000
0000
0001
0000
0000
0010
0000
,
0000
0000
1000
0000
0010
0000
0001
0000
0001
0000
0000
0010
0000
0000
1000
0000
,
0000
0000
0100
0000
1000
0000
0001
0000
0001
0000
0000
0100
0000
0000
1000
0000
,
0000
0000
0100
0000
0001
0000
1000
0000
1000
0000
0000
0100
0000
0000
0001
0000
;

//---------------dance-single - ----------------
#NOTES:
     dance-single:
     :
     Challenge:
     12:
     :
0000
0000
0000
0000
,
0000
0000
0000
0000
,
0000
0000
0000
0000
,
0000
0000
0000
0000
,
0000
0000
0000
0000
,
1000
0000
0000
0001
0010
0000
0100
0000
1000
0000
0000
0010
0100
0000
0001
0000
,
1000
0100
0000
1000
0000
0000
0000
0000
0001
0000
0000
0010
0100
0000
1000
0000
,
0010
0000
0000
1000
0100
0000
0010
0000
0001
0000
0000
1000
0001
0000
0100
0000
,
0001
0010
0000
0001
0000
0000
0000
0000
1000
0000
0000
0010
0100
0000
0001
0000
,
1000
0000
0010
0000
0100
0000
0001
0000
0010
0001
0000
0100
0000
0000
1000
0000
,
0000
0000
0001
0000
0010
0000
0100
0000
1000
0010
0000
0100
0000
0000
0001
0000
,
0000
0000
0010
0000
0001
0000
1000
0000
0100
0010
0000
0100
0000
0000
1000
0000
,
1100
0000
0000
0000
0011
0000
0000
0000
1000
0001
0000
1000
0001
0000
0100
0000
,
0010
1000
0100
0010
0001
0100
0001
1000
,
0010
0100
0010
1000
1001
0000
0110
0000
,
1000
0020
0000
0000
0130
0000
0100
0000
0001
0000
0000
0101
0000
0000
1100
0000
,
1000
0001
0000
0001
0010
0000
0010
0000
0100
0000
0000
1100
0000
0000
0011
0000
,
1000
0000
0001
0000
0001
0000
0100
0000
0100
0000
0000
0101
0000
0000
1010
0000
,
0000
1000
0000
0100
1000
0000
0001
0000
0001
0000
0000
0011
0000
0000
1010
0000
,
0000
0200
0000
0000
1300
0000
1000
0000
0001
0000
0000
1001
0000
0000
0110
0000
,
0000
0002
0000
0000
0013
0000
0100
0000
1000
0000
0000
0011
0000
0000
0101
0000
,
0000
2000
0000
0000
3010
0000
1000
0000
0100
0000
0000
1001
0000
0000
0011
0000
,
0000
0001
0010
0000
0001
0000
0100
0000
1000
0000
0000
0110
0000
0000
1010
0000
,
1000
0100
0010
0100
0001
0100
0010
0100
,
0001
0100
1000
0100
0001
0100
0010
0001
,
1000
0001
0000
0010
0000
0000
0000
0001
1000
0000
0000
0010
0000
0000
0100
0000
,
0001
0010
0000
0100
0000
0000
0000
1000
0010
0000
0000
0100
0000
0000
0001
0000
,
1000
0000
0001
0000
0001
0000
1000
0000
1000
0000
0000
0010
0000
0000
0100
0000
,
1000
0000
0100
0000
0100
0000
0010
0000
0010
0000
0000
0001
0000
0000
1000
0000
,
0000
0001
0010
0101
0000
0100
1000
1010
,
0000
1000
0010
1100
0000
0100
0001
0011
,
0000
0000
0001
0000
0001
0000
0100
0000
0100
0000
0000
0010
0000
0000
1000
0000
,
0000
0000
0100
0000
1000
0000
0001
0000
0001
0000
0000
0100
0000
0000
0010
0000
,
1000
0002
0000
0000
0013
0000
0100
0000
1100
0000
0000
0110
0000
0000
0011
0000
,
1000
0020
0000
0000
0130
0000
0001
0000
1001
0000
0000
0101
0000
0000
0011
0000
,
0100
2000
0000
0000
3010
0000
0100
0000
0101
0000
0000
1100
0000
0000
0101
0000
,
0010
0002
0000
0000
1003
0000
0100
0000
1001
0000
0000
1010
0000
0000
1100
0000
,
1000
0010
1000
0000
0100
0000
0010
0000
0011
0000
0000
1001
0000
0000
1100
0000
,
0100
0010
0100
0000
1000
0000
0001
0000
0011
0000
0000
1100
0000
0000
0101
0000
,
0010
1000
0010
0000
1000
0000
0100
0000
0110
0000
0000
1001
0000
0000
0110
0000
,
1000
0001
1000
0000
0100
0000
0010
0000
0011
0000
0000
1010
0000
0000
0011
0000
,
0100
0001
0100
0000
0010
0000
1000
0000
1100
0000
0000
1001
0000
0000
0101
0000
,
0000
0010
0100
0000
1000
0000
0001
0000
0110
0000
0000
1010
0000
0000
1001
0000
,
1000
0100
1000
0000
0010
0000
0100
0000
0101
0000
0000
1010
0000
0000
0101
0000
,
0000
0001
0010
0000
0100
0000
1000
0000
1001
0000
0000
0011
0000
0000
0110
0000
,
1000
0100
1000
0000
0001
0000
0001
0000
0020
0000
0000
0230
0000
0000
0310
0000
;

//---------------dance-double - ----------------
#NOTES:
     dance-double:
     :
     Easy:
     8:
     :
00000000
00000000
00000000
00000000
,
00000000
00000000
00000000
00000000
,
00000000
00000000
00000000
00000000
,
00000000
00000000
00000000
00000000
,
00000000
10000000
00000000
10000000
,
00000000
10000000
00000000
01000000
,
00000000
10000000
00000000
01000000
,
10000000
01000000
00010000
00001000
,
00000100
00000001
00001000
00000001
,
00000010
00001000
00000010
00001000
,
00000010
00000001
00000100
00000100
,
00000001
00001000
00010000
10000000
,
00100000
01000000
10010000
01100000
,
00000000
10000000
00000000
01000000
,
10000000
00100000
00010000
01000000
,
00000000
00000000
01000000
00000000
00100000
00000000
00000000
00000000
00100000
00000000
00000000
10000000
00000000
00000000
01000000
00000000
,
00000000
00000000
00010000
00000000
00100000
00000000
00000000
00000000
10000000
00000000
00000000
00010000
00000000
00000000
01000000
00000000
,
00000000
00100000
00000000
00010000
,
00100000
00010000
00001000
00000100
,
00000000
00000000
00000001
00000000
00001000
00000000
00000000
00000000
00000010
00000000
00000000
00000001
00000000
00000000
00000100
00000000
,
00000000
00000000
00001000
00000000
00000001
00000000
00000000
00000000
00000100
00000000
00000000
00000001
00000000
00000000
00001000
00000000
,
00000000
00000010
00000000
00000100
,
00000010
00000100
00001000
00010000
,
00000000
00000000
01000000
00000000
10000000
00000000
00000000
00000000
00010000
00000000
00000000
00010000
00000000
00000000
00010000
00000000
,
00000000
00000000
01000000
00000000
00010000
00000000
00000000
00000000
01000000
00000000
00000000
10000000
00000000
00000000
00010000
00000000
,
00000000
00100000
00000000
00100000
,
01000000
01000000
00100000
01100000
,
00000000
00000000
10000000
00000000
00100000
00000000
00000000
00000000
00010000
00000000
00000000
00010000
00000000
00000000
00010000
00000000
,
00000000
10000000
00000000
10000000
,
00000000
00000000
00000000
01000000
00000000
00000000
00000000
00010000
,
00000000
00000000
00000000
00001000
00000000
00000000
00000000
00000100
,
00000000
00000001
00000000
00001000
00000000
00000010
00000000
00000010
,
00000000
00000001
00000000
00001000
00000000
00000100
00000000
00000100
,
00000000
00000000
00000000
00000000
00000000
00000000
00000000
00000000
00001000
00000000
00000000
00000100
00000000
00000000
00000001
00000000
,
00000000
00000000
00000000
00000000
00001000
00000000
00000000
00000000
00000001
00000000
00000000
00001000
00000000
00000000
00001000
00000000
,
00000000
00000000
00000000
00000000
00000010
00000000
00000000
00000000
00000001
00000000
00000000
00000100
00000000
00000000
00001000
00000000
,
00000000
00000000
00000000
00000000
00010000
00000000
00000000
00000000
01000000
00000000
00000000
00010000
00000000
00000000
00001000
00000000
,
00000000
00000000
00000000
00000000
00001000
00000000
00000000
00000000
00000100
00000000
00000000
00001000
00000000
00000000
00010000
00000000
,
00000000
00000000
00000000
00000000
00010000
00000000
00000000
00000000
00100000
00000000
00000000
00010000
00000000
00000000
00001000
00000000
,
00000000
00000000
00000000
00000000
00001000
00000000
00000000
00000000
00000010
00000000
00000000
00001000
00000000
00000000
00010000
00000000
,
00000000
00000000
00000000
00000000
01000000
00000000
00000000
00000000
10000000
00000000
00000000
00010000
00000000
00000000
01000000
00000000
,
00000000
00000000
00000000
00000000
01000000
00000000
00000000
00000000
00010000
00000000
00000000
00010000
00000000
00000000
00010000
00000000
,
00000000
00000000
00000000
00000000
10000000
00000000
00000000
00000000
00010000
00000000
00000000
01000000
00000000
00000000
10000000
00000000
,
00000000
00000000
00000000
00000000
00100000
00000000
00000000
00000000
10000000
00000000
00000000
10000000
00000000
00000000
10000000
00000000
,
00000000
00000000
00000000
00000000
01000000
00000000
00000000
00000000
00010000
00000000
00000000
10000000
00000000
00000000
01000000
00000000
;

//---------------dance-double - ----------------
#NOTES:
     dance-double:
     :
     Medium:
     10:
     :
00000000
00000000
00000000
00000000
,
00000000
00000000
00000000
00000000
,
00000000
00000000
00000000
00000000
,
00000000
00000000
00000000
00000000
,
00001000
00001000
00001000
00001000
,
00000010
00001000
00000010
00001000
,
00010000
01000000
00010000
01000000
,
00001000
00000100
00010000
01000000
,
00001000
00010000
01000000
00000000
00010000
00001000
00000100
00000000
,
00001000
00010000
00100000
00000000
00010000
00001000
00000010
00000000
,
00000010
00001000
00010000
00000000
00100000
00010000
00001000
00000000
,
00000001
00001000
00010000
00000000
10000000
00010000
00001000
00000000
,
00000110
00001001
00000100
00000001
,
00000011
00001000
00000100
00000101
,
00001000
00001000
00000001
00000001
,
00000000
00000000
00000001
00000000
00000010
00000000
00001000
00000000
00010000
00000000
00000000
00100000
00000000
00000000
10000000
00000000
,
00000000
00000000
00010000
00000000
00100000
00000000
10000000
00000000
00100000
00000000
00000000
01000000
00000000
00000000
00010000
00000000
,
00000000
00000000
01000000
00000000
10000000
00000000
00010000
00000000
00100000
00000000
00000000
00100000
00000000
00000000
00100000
00000000
,
00000000
00000000
00100000
00000000
00010000
00000000
10000000
00000000
01000000
00000000
00000000
01000000
00000000
00000000
01000000
00000000
,
00000000
00000000
00010000
00000000
10000000
00000000
01000000
00000000
00100000
00000000
00000000
00010000
00000000
00000000
01000000
00000000
,
00000000
00000000
10000000
00000000
00010000
00000000
01000000
00000000
00100000
00000000
00000000
10000000
00000000
00000000
01000000
00000000
,
00010000
00000000
00000000
00000000
00001000
00000000
00000100
00000000
00001000
00000000
00000000
00010000
00000000
00000000
01000000
00000000
,
00010000
00000000
00000000
00000000
00001000
00000000
00000010
00000000
00001000
00000000
00000000
00010000
00000000
00000000
00100000
00000000
,
00000000
00000000
00010000
00000000
00001000
00000000
00000100
00000000
00000001
00000000
00000000
00001000
00000000
00000000
00000100
00000000
,
00000000
00000000
00000011
00000000
00001000
00000000
00000010
00000000
00000100
00000000
00000000
00000001
00000000
00000000
00001000
00000000
,
00000010
00001001
00000010
00000100
,
00000001
00000001
00001100
00000101
,
00000000
00000000
00000001
00000000
00000001
00000000
00000100
00000000
00001000
00000000
00000000
00001000
00000000
00000000
00001000
00000000
,
00000000
00000000
00001000
00000000
00001000
00000000
00000010
00000000
00000001
00000000
00000000
00000001
00000000
00000000
00000001
00000000
,
00000000
00000000
00000000
00001001
00000000
00000000
00000000
00000110
,
00000000
00000000
00000000
00001100
00000000
00000000
00000000
00001001
,
00000000
00000010
00000000
00000101
00000000
00001000
00000000
00010000
,
00000000
00000000
00000000
00000000
,
00011000
00000000
00000000
00000000
00001000
00000000
00000000
00000000
01000000
00000000
00000000
00010000
00000000
00000000
00001000
00000000
,
00000000
00000000
00000010
00000000
00010000
00000000
00001000
00000000
00000100
00000000
00000000
00001000
00000000
00000000
00010000
00000000
,
00000000
00000000
00100000
00000000
00010000
00000000
00001000
00000000
00001000
00000000
00000000
00000100
00000000
00000000
00001000
00000000
,
00000000
00000000
00100000
00000000
00001000
00000000
00010000
00000000
01000000
00000000
00000000
00010000
00000000
00000000
00001000
00000000
,
00000000
00000000
00000000
00000000
00000110
00000000
00000000
00000000
00000100
00000000
00000000
00000100
00000000
00000000
00000100
00000000
,
00000000
00000000
00000001
00000000
00000010
00000000
00001000
00000000
01100000
00000000
00000000
10000000
00000000
00000000
00010000
00000000
,
00000000
00000000
00001000
00000000
01000000
00000000
10000000
00000000
10000000
00000000
00000000
01000000
00000000
00000000
00010000
00000000
,
00000000
00000000
10000000
00000000
01000000
00000000
00010000
00000000
00001000
00000000
00000000
00000010
00000000
00000000
00000001
00000000
,
00000000
00000000
00000000
00000000
00000010
00000000
00000000
00000000
00001000
00000000
00000000
00000001
00000000
00000000
00000100
00000000
,
00000000
00000000
00000010
00000000
00010000
00000000
00001000
00000000
00001000
00000000
00000000
00010000
00000000
00000000
01000000
00000000
,
00000000
00000000
00100000
00000000
00010000
00000000
00100000
00000000
01000000
00000000
00000000
00100000
00000000
00000000
10000000
00000000
,
00000000
00000000
00010000
00000000
00100000
00000000
00010000
00000000
10000000
00000000
00000000
00010000
00000000
00000000
01000000
00000000
;

//---------------dance-double - ----------------
#NOTES:
     dance-double:
     :
     Hard:
     12:
     :
00000000
00000000
00000000
00000000
,
00000000
00000000
00000000
00000000
,
00000000
00000000
00000000
00000000
,
00000000
00000000
00000000
00000000
,
00000000
00000000
00000000
00000000
,
00100000
00000000
00000000
00001000
00010000
00000000
01000000
00000000
00100000
00000000
00000000
00001000
00010000
00000000
01000000
00000000
,
10000000
00010000
00000000
10000000
00000000
00000000
00000000
00000000
01000000
00000000
00000000
00100000
00010000
00000000
01000000
00000000
,
00001000
00000000
00000000
00010000
01000000
00000000
00100000
00000000
00001000
00000000
00000000
00010000
01000000
00000000
00100000
00000000
,
00001000
00010000
00000000
00001000
00000000
00000000
00000000
00000000
00000100
00000000
00000000
00000001
00000010
00000000
00000100
00000000
,
00001000
00000000
00000001
00000000
00000010
00000000
00000100
00000000
00001000
00000010
00000000
00000100
00000000
00000000
00000001
00000000
,
00000000
00000000
00000010
00000000
00000001
00000000
00000100
00000000
00000010
00001000
00000000
00000001
00000000
00000000
00000100
00000000
,
00000010
00000000
00001000
00000000
00000100
00000000
00000010
00000000
00000001
00001000
00000000
00000001
00000000
00000000
00000100
00000000
,
00000101
00010100
01001000
11000000
,
10000000
00100000
01000000
00010000
00100000
01000000
10000000
00010000
,
01000000
00100000
10000000
00010000
00110000
00000000
11000000
00000000
,
01000000
20000000
00000000
00000000
30010000
00000000
00010000
00000000
00100000
00000000
00000000
00001000
00000000
00000000
01000000
00000000
,
00100000
20000000
00000000
00000000
31000000
00000000
01000000
00000000
00100000
00000000
00000000
00001000
00000000
00000000
00010000
00000000
,
00000000
00000000
00000010
00000000
00000100
00000000
00000001
00000000
00001001
00000000
00000000
00000011
00000000
00000000
00001100
00000000
,
00000000
00001000
00000000
00000000
00000010
00000000
00000100
00000000
00000101
00000000
00000000
00000110
00000000
00000000
00001010
00000000
,
00000000
00000100
00001000
00000000
00000010
00000000
00010000
00000000
00011000
00000000
00000000
00101000
00000000
00000000
00110000
00000000
,
00000000
00010000
10000000
00000000
01000000
00000000
00100000
00000000
01100000
00000000
00000000
11000000
00000000
00000000
01010000
00000000
,
00000000
10000000
00010000
00000000
00100000
00000000
01000000
00000000
11000000
00000000
00000000
01100000
00000000
00000000
00110000
00000000
,
00000000
00000100
00001000
00000000
00000001
00000000
00000100
00000000
00001010
00000000
00000000
00001001
00000000
00000000
00001100
00000000
,
00000010
00001000
00000100
00000010
00000001
00000100
00000001
00001000
,
00000100
00000010
00000100
00010000
00001000
01000000
00100000
10000000
,
01000000
10000000
00000000
00010000
00000000
00000000
00000000
00100000
00010000
00000000
00000000
01000000
00000000
00000000
00100000
00000000
,
10000000
01000000
00000000
00100000
00000000
00000000
00000000
00010000
10000000
00000000
00000000
00010000
00000000
00000000
01000000
00000000
,
00100000
00000000
10000000
00000000
10000000
00000000
00010000
00000000
00010000
00000000
00000000
01010000
00000000
00000000
10100000
00000000
,
10000000
00000000
01000000
00000000
01000000
00000000
00100000
00000000
00100000
00000000
00000000
01100000
00000000
00000000
10010000
00000000
,
00000000
10000000
00010000
00101000
00000000
00001000
00010000
01001000
,
00000000
00010000
00001000
00010010
00000000
00000001
00001000
00010100
,
00000000
00000000
00000010
00000000
00000100
00000000
00000001
00000000
00002000
00000000
00000000
00003002
00000000
00000000
00000103
00000000
,
00000010
00000000
00001000
00000000
00000100
00000000
00000010
00000000
00000001
00000000
00000000
00000001
00000000
00000000
00000001
00000000
,
00001000
00000200
00000000
00000000
00000310
00000000
00000001
00000000
00000011
00000000
00000000
00001001
00000000
00000000
00000110
00000000
,
00000000
00000020
00000000
00000000
00001030
00000000
00000100
00000000
00010100
00000000
00000000
00011000
00000000
00000000
01010000
00000000
,
00000000
00200000
10000000
00000000
10300000
00000000
00010000
00000000
00110000
00000000
00000000
11000000
00000000
00000000
01001000
00000000
,
00000000
00020000
00000000
00000000
00130000
00000000
00001000
00000000
00011000
00000000
00000000
00000110
00000000
00000000
00001001
00000000
,
00000001
00000100
00000001
00000000
00000010
00000000
00000100
00000000
00001100
00000000
00000000
00001010
00000000
00000000
00000011
00000000
,
00000000
00000010
00000001
00000000
00001000
00000000
00000100
00000000
00000110
00000000
00000000
00001100
00000000
00000000
00011000
00000000
,
00010000
00000100
00010000
00000000
00000010
00000000
00000100
00000000
00001010
00000000
00000000
00000110
00000000
00000000
00010010
00000000
,
00010000
00001000
00010000
00000000
01000000
00000000
00100000
00000000
00110000
00000000
00000000
10010000
00000000
00000000
11000000
00000000
,
10000000
00010000
10000000
00000000
00100000
00000000
01000000
00000000
01010000
00000000
00000000
00110000
00000000
00000000
10010000
00000000
,
00000000
10000000
01000000
00000000
00100000
00000000
00010000
00000000
11000000
00000000
00000000
00101000
00000000
00000000
01010000
00000000
,
01000000
00100000
01000000
00000000
00010000
00000000
10000000
00000000
11000000
00000000
00000000
00110000
00000000
00000000
01001000
00000000
,
00000000
00001000
00100000
00000000
00010000
00000000
00000100
00000000
00000101
00000000
00000000
00000011
00000000
00000000
00000110
00000000
,
00000010
00000001
00000010
00000000
00000001
00000000
00000100
00000000
00000020
00000000
00000000
00020030
00000000
00000000
00031000
00000000
;

//---------------dance-double - ----------------
#NOTES:
     dance-double:
     :
     Challenge:
     13:
     :
00000000
00000000
00000000
00000000
,
00000000
00000000
00000000
00000000
,
00000000
00000000
00000000
00000000
,
10000000
00100000
00001000
00100000
10000000
00100000
00001000
00100000
,
00100000
00000000
01000000
00000000
00001000
00000000
01000000
00000000
00100000
10000000
00100000
10000000
00100000
10000000
00100000
10000000
,
00100000
10000000
00000000
00000000
01010000
00000000
00000000
00000000
00100000
00001000
00000000
00000000
00010100
00000000
00000000
00000000
,
00000010
00000001
00000000
00000010
00000001
00000000
00000000
00000000
00001000
00000100
00000000
00000000
00000011
00000000
00000000
00000000
,
00000100
00000001
00000000
00000000
00001010
00000000
00000000
00000000
00000100
00010000
00000000
00000000
00101000
00000000
00000000
00000000
,
01000000
10000000
00000000
01000000
10000000
00000000
00000000
00000000
00010000
00100000
00000000
00000000
11000000
00000000
00000000
00000000
,
10000000
00100000
00000000
10000000
00100000
00000000
01000000
00000000
00001000
00010000
00000000
00001000
00010000
00000000
01000000
00000000
,
00100000
00001000
00000000
00100000
00001000
00000000
00000100
00000000
00000001
00000010
00000000
00000001
00000010
00000000
00000100
00000000
,
00001000
00000010
00000000
00001000
00000010
00000000
00000100
00000000
00000001
00001000
00000000
00000001
00001000
00000000
00000010
00000000
,
00001001
00000000
00000000
00000000
00000110
00000000
00000000
00000000
00001010
00000000
00000000
00000101
00000000
00000000
00001100
00000000
,
00011000
00001000
01000000
00001000
00000100
00001000
01000000
00001000
,
00000100
00000000
00001000
00000000
01000000
00000000
00001000
00000000
00010000
00001000
00010000
00001000
00010000
00001000
00010000
00001000
,
00010000
00001000
00000000
00010000
01000000
00000000
01000000
00000000
01000000
00000000
10000000
00100000
00000000
00100000
01000000
00000000
,
00010000
10000000
00000000
10000000
01000000
00000000
01000000
00000000
01000000
00000000
00100000
00010000
00000000
00010000
10000000
00000000
,
00100000
10000000
01000000
00000000
01000000
00000000
01000000
00000000
01100000
00000000
00000000
00110000
00000000
00000000
01010000
00000000
,
01000000
00001000
00010000
00000000
00010000
00000000
00010000
00000000
00010010
00000000
00000000
00000110
00000000
00000000
00001001
00000000
,
00000010
00001000
00000000
00001000
00000100
00000000
00000100
00000000
00000010
00000000
00000001
00001000
00000000
00001000
00000001
00000000
,
00000010
00000001
00000000
00000001
00000100
00000000
00000100
00000000
00000010
00000000
00001000
00000100
00000000
00000100
00010000
00000000
,
00001000
00100000
00000000
00100000
01000000
00000000
01000000
00000000
00100000
00000000
00010000
10000000
00000000
10000000
00100000
00000000
,
01000000
00001000
00000000
00001000
00010000
00000000
00010000
00000000
01000000
00000000
10000000
00100000
00000000
00100000
01000000
00000000
,
00010000
00100000
00010000
00100000
00010000
00100000
00001000
01000000
00001000
01000000
00001000
01000000
,
00100000
10000000
00100000
10000000
00100000
10000000
01000000
00100000
01000000
00100000
01000000
00100000
,
00001000
00010000
00000000
00011000
00000000
00000000
00001000
00000100
00000001
00000010
00000000
00000001
00000000
00000000
00000100
00000000
,
00000010
00001000
00000000
00001010
00000000
00000000
00001000
00010000
01000000
00100000
00000000
00001000
00000000
00000000
00010000
00000000
,
00000010
00000100
00000001
00000000
00000001
00000000
00000001
00000000
00000011
00000000
00000000
00000101
00000000
00000000
00001001
00000000
,
00001000
00000100
00010000
00000000
00010000
00000000
00010000
00000000
00011000
00000000
00000000
00010100
00000000
00000000
00010010
00000000
,
00000100
00000010
00000000
00000100
00000010
00000000
00001001
00000000
00000100
00000010
00000000
00000100
00000010
00000000
00001001
00000000
,
00000100
00000010
00000000
00000100
00000010
00000000
00001001
00000000
00000100
00000010
00000000
00000100
00000010
00000000
00001001
00000000
,
00001000
00000100
00000020
00000000
00000032
00000000
00000203
00000000
00000310
00000000
00001000
00000100
00000000
00001000
00000010
00000000
,
00000100
00000001
00002000
00000000
00003200
00000000
00020300
00000000
00130000
00000000
00000000
10100000
00000000
00000000
11000000
00000000
,
10000000
00010000
00100000
00000000
00010000
00000000
01000000
00000000
01100000
00000000
00000000
10100000
00000000
00000000
01010000
00000000
,
00100000
00001000
00010000
00000000
01000000
00000000
00100000
00000000
00110000
00000000
00000000
01010000
00000000
00000000
10010000
00000000
,
10000000
00100000
01000000
00000000
00001000
00000000
00010000
00000000
00011000
00000000
00000000
00101000
00000000
00000000
01001000
00000000
,
00000100
00001000
00000001
00000000
00000100
00000000
00000010
00000000
00010010
00000000
00000000
00001001
00000000
00000000
00001100
00000000
,
00000010
00000001
00001000
00000000
00000100
00000000
00000010
00000000
00000001
00000100
00000000
00000001
00000100
00000000
00000010
00001000
,
00000000
00000100
00001000
00000000
00000001
00000000
00000100
00000000
00000010
00010000
00000000
00000100
00010000
00000000
00001000
00010000
,
00001000
00100000
00001000
00100000
00001000
00100000
01000000
00100000
01000000
00100000
01000000
00100000
,
00010000
01000000
00010000
01000000
00010000
01000000
00100000
10000000
00100000
10000000
00100000
10000000
,
01000000
10000000
00010000
00000000
00110000
00000000
00110000
00000000
00110000
00000000
00000000
11000000
00000000
00000000
01100000
00000000
,
00000000
10010000
00000000
00010000
10000000
00000000
11000000
00000000
11000000
00000000
00000000
01100000
00000000
00000000
00110000
00000000
,
00001000
00010000
00000010
00000000
00000110
00000000
00000110
00000000
00000110
00000000
00000000
00001010
00000000
00000000
00000101
00000000
,
00000000
00001001
00000000
00001000
00000001
00000000
00000011
00000000
00000011
00000000
00000000
00000110
00000000
00000000
00001100
00000000
,
00010000
00001000
00010000
00000000
00001000
00000000
00010000
00000000
00001000
00000000
00000000
00010000
00000000
00000000
00001000
00000000
;
