#TITLE:someday...;
#SUBTITLE:;
#ARTIST:杏野はるな;
#TITLETRANSLIT:;
#SUBTITLETRANSLIT:;
#ARTISTTRANSLIT:Haruna Anno;
#GENRE:;
#CREDIT:;
#BANNER:someday-bn.png;
#BACKGROUND:someday-bg.png;
#LYRICSPATH:;
#CDTITLE:;
#MUSIC:someday.ogg;
#OFFSET:0.000000;
#SAMPLESTART:76.370003;
#SAMPLELENGTH:20.000000;
#SELECTABLE:YES;
#DISPLAYBPM:154.000000;
#BPMS:0.000000=153.699997
,4.000000=154.000000
;
#STOPS:
;
#BGCHANGES:0.000=someday.avi=1.000=0=0=0=StretchNoLoop====,
99999=-nosongbg-=1.000=0=0=0 // don't automatically add -songbackground-
;
#KEYSOUNDS:;
#ATTACKS:;

//---------------dance-single - ----------------
#NOTES:
     dance-single:
     :
     Beginner:
     2:
     0.132668,0.218661,0.050655,0.126638,0.000000,110.000000,104.000000,6.000000,15.000000,0.000000,0.000000,0.132668,0.218661,0.050655,0.126638,0.000000,110.000000,104.000000,6.000000,15.000000,0.000000,0.000000:
0000
0000
0000
0000
,
0000
0000
0000
0000
,
0000
0000
0000
0000
,
0000
0000
0000
0000
,
0000
0000
0000
0000
,
0001
0000
0000
0000
,
1000
0000
0000
0000
,
0001
0000
1000
0000
,
0001
0000
0000
0000
,
0010
0000
0000
0000
,
0100
0000
0000
0000
,
1000
0000
0000
0000
,
0001
0000
0000
0000
,
1000
0000
0000
0000
,
0001
0000
0000
0000
,
1001
0000
0000
0000
,
0000
0000
0000
0000
,
0001
0000
0001
0000
,
0010
0000
0010
0000
,
1000
0000
1000
0000
,
0100
0000
0100
0000
,
0002
0000
0003
0000
,
2000
0000
3000
0000
,
0001
0000
1000
0000
,
1001
0000
0000
0000
,
0010
0010
0010
0000
,
1000
1000
1000
0000
,
0100
0100
0100
0000
,
0001
0001
0001
0000
,
1000
0000
1000
0000
,
0001
0000
0001
0000
,
1000
0000
0001
0000
,
1001
0000
0000
0000
,
0010
0000
0000
0000
,
1000
0000
0000
0000
,
0001
0000
0000
0000
,
0010
0000
0000
0000
,
0100
0000
0000
0000
,
1000
0000
0000
0000
,
0001
0000
0000
0000
,
0100
0000
0000
0000
,
0010
0000
0010
0000
,
1000
0000
1000
0000
,
0100
0000
0100
0000
,
0001
0000
0001
0000
,
2000
0000
3000
0000
,
0002
0000
0003
0000
,
2000
0000
3000
0000
,
0002
0000
0003
0000
,
0010
0000
1000
0000
,
0010
0000
0000
0000
,
0001
0001
0001
0000
,
1000
1000
1000
0000
,
0010
0000
0001
0000
,
0010
0000
0000
0000
,
1000
1000
1000
0000
,
0001
0001
0001
0000
,
2000
0000
3000
0000
,
0200
0000
0300
0000
,
0002
0000
0003
0000
,
0020
0000
0030
0000
,
1000
0000
1000
0000
,
0001
0000
0001
0000
,
1001
0000
0000
0000
,
1001
0000
0000
0000
,
0010
0000
0010
0000
,
0001
0000
0001
0000
,
1000
0000
1000
0000
,
0100
0000
0100
0000
,
0002
0000
0003
0000
,
2000
0000
3000
0000
,
0002
0000
0003
0000
,
2002
0000
0000
0000
,
0000
0000
0000
0000
,
3003
0000
0000
0000
,
0000
0000
0000
0000
;

//---------------dance-single - ----------------
#NOTES:
     dance-single:
     :
     Easy:
     5:
     0.232772,0.312373,0.050655,0.135080,0.000000,193.000000,187.000000,6.000000,16.000000,0.000000,0.000000,0.232772,0.312373,0.050655,0.135080,0.000000,193.000000,187.000000,6.000000,16.000000,0.000000,0.000000:
0000
0000
0000
0000
,
0000
0000
0000
0000
,
0000
0000
0000
0000
,
0000
0000
0000
0000
,
0000
0000
0000
0000
,
0001
0010
0000
0010
,
0000
0010
0000
0010
,
0000
0010
0000
0010
,
1000
0010
0100
0000
,
1000
0100
0001
0010
,
0100
0010
0100
0000
,
0001
0100
1000
0010
,
0100
0010
0100
0000
,
1000
0001
0100
0000
,
0001
1000
0100
0000
,
0001
0000
1000
0000
,
2002
0000
0000
3003
,
0100
0100
1000
1000
,
0001
0001
1000
1000
,
0001
0000
0010
0000
,
0001
0000
1000
0000
,
0001
0100
0001
0100
,
0001
0001
0100
0000
,
1000
0100
1000
0100
,
1000
1000
0100
0000
,
0010
0010
1000
1000
,
0001
0001
0100
0100
,
0010
0000
0100
0000
,
0010
1000
0001
0000
,
0002
0000
0103
0000
,
2000
0000
3100
0000
,
0010
0001
1000
0000
,
1001
0000
0000
0000
,
0001
0010
0001
0000
,
1000
0010
1000
0000
,
0001
0100
0001
0000
,
0200
0000
0000
0300
,
1000
0010
1000
0000
,
0001
0010
0001
0000
,
1000
0100
1000
0000
,
0002
0000
0000
0003
,
0010
0010
1000
1000
,
0100
0100
0010
0010
,
0001
0100
0001
0000
,
1000
0100
1000
0000
,
0001
0000
0001
1001
,
1000
0000
1000
1001
,
0001
0100
1000
0000
,
2002
0000
0000
3003
,
0100
0100
0001
0000
,
0010
0010
1000
0000
,
0001
0001
1000
1000
,
0010
0100
0010
0000
,
0001
0100
0010
0000
,
1000
0100
0010
0000
,
0001
0010
1000
0010
,
0001
1000
0001
0000
,
1000
0100
2000
3000
,
0001
0100
0002
0003
,
1000
0010
2000
3000
,
0001
0010
0002
0003
,
0001
0000
0010
0000
,
1000
0000
0010
0000
,
0001
0000
1000
0000
,
1001
0000
0000
0000
,
0001
0100
1000
0100
,
1000
0100
0001
0000
,
1000
0010
0001
0010
,
0001
0010
1000
0000
,
0002
0000
0000
0003
,
2000
0000
0000
3000
,
0020
0000
0000
0030
,
0200
0000
0000
0000
,
0000
0000
0000
0000
,
0300
0000
0000
0000
,
0000
0000
0000
0000
;

//---------------dance-single - ----------------
#NOTES:
     dance-single:
     :
     Medium:
     7:
     0.332877,0.406085,0.143523,0.168850,0.000000,276.000000,259.000000,17.000000,20.000000,0.000000,0.000000,0.332877,0.406085,0.143523,0.168850,0.000000,276.000000,259.000000,17.000000,20.000000,0.000000,0.000000:
0000
0000
0000
0000
,
0000
0000
0000
0000
,
0000
0000
0000
0000
,
0000
0000
0000
0000
,
0000
0000
0000
0000
,
2000
0100
0000
3100
,
0002
0100
0000
0103
,
2000
0100
0000
3100
,
0001
0100
0010
1000
,
0001
0010
1000
0100
,
0010
0000
0100
0000
0010
0001
0100
0000
,
1000
0010
0001
0100
,
0010
0000
0100
0000
0010
1000
0100
0000
,
0001
1000
0010
0001
,
2000
0010
3001
0000
,
1000
0100
0010
0000
0001
0000
0100
0000
,
2002
0000
0000
3003
,
0010
1010
0001
0011
,
1000
1100
0001
0101
,
1000
0100
0001
0010
,
1000
0000
0100
0000
0001
0010
0100
0000
,
2000
0010
3200
0010
,
1300
0001
0100
0100
,
0001
1000
0100
0000
0010
0000
0001
0000
,
1000
0010
0100
0000
,
0001
0101
1000
1010
,
0001
0011
1000
1100
,
0010
1000
0001
0010
,
0110
1001
0110
0000
,
2000
0010
0001
3100
,
0002
0010
1000
0103
,
1000
0000
0001
0000
,
0010
0100
0110
0000
,
1000
0100
1000
0100
,
0001
0100
0001
0100
,
1000
0000
0100
0000
1000
0000
0100
0010
,
0000
0001
0000
1000
0000
0010
0000
0100
,
0000
0001
0100
0001
,
1000
0100
1000
0100
,
0001
0000
0010
0000
0001
0000
0010
0100
,
0000
1000
0000
0001
0000
1000
0000
0000
,
0010
0100
0001
0010
,
0100
1000
0001
0100
,
0020
1000
0100
1000
,
0230
0001
0010
0301
,
0001
0100
0010
0000
0100
0000
0000
0000
,
1000
0100
0010
0000
0100
0000
0000
0000
,
0010
0001
0100
1000
,
2002
0000
0000
3003
,
0010
0010
1000
0010
,
0100
0100
0001
0010
,
1000
0100
1000
0000
0001
0000
0001
0000
,
0010
0001
0010
0000
0100
0000
0100
0000
,
1000
0010
0100
0100
,
0001
0010
0100
0100
,
1000
1100
0001
0101
,
0010
1000
0001
0000
,
0002
0010
1000
0103
,
2000
0010
0001
3100
,
0002
0100
1000
0013
,
2000
0100
0001
3010
,
1000
0000
0001
0000
0100
0010
0100
0000
,
0001
0000
1000
0000
0100
0010
0100
0000
,
1000
0010
0001
0100
,
0010
0000
0100
0100
,
1000
0010
0001
0100
,
0010
0000
0100
0000
0010
1000
0100
0000
,
0001
0010
1000
0100
,
0010
0000
0100
0000
0010
0001
0100
0000
,
1000
0000
0001
0000
,
1000
0000
0100
0000
,
0001
0010
1000
0100
,
2002
0000
0000
0000
,
0000
0000
0000
0000
,
3003
0000
0000
0000
,
0000
0000
0000
0000
;

//---------------dance-single - ----------------
#NOTES:
     dance-single:
     :
     Hard:
     9:
     0.398005,0.437323,0.084425,0.236391,0.000000,330.000000,320.000000,10.000000,28.000000,0.000000,0.000000,0.398005,0.437323,0.084425,0.236391,0.000000,330.000000,320.000000,10.000000,28.000000,0.000000,0.000000:
0000
0000
0000
0000
,
0000
0000
0000
0000
,
0000
0000
0000
0000
,
0000
0000
0000
0000
,
0000
0000
0000
0000
0000
0000
0000
1000
,
0002
0100
0000
0103
,
2000
0100
0000
3100
,
0002
0100
0000
0103
,
1000
0100
0010
0001
,
1000
0000
0010
0000
0001
1000
0100
0000
,
0010
0001
0100
0000
0010
1000
0100
0000
,
0010
0000
0001
0000
0100
1000
0001
0000
,
0100
0010
1000
0000
1000
0001
0010
0000
,
0200
0001
0010
1300
,
0002
0010
1003
0000
,
0001
0100
0010
1000
0010
0100
0001
1000
,
0002
0000
0003
1001
,
0010
0000
0010
0000
1000
0100
0010
0100
,
1000
0000
1000
0000
0001
0100
0010
0100
,
0001
0100
1000
0010
,
0001
0010
0100
0000
1000
0010
0100
0000
,
0002
0010
0203
0010
,
0301
0000
1000
0000
0100
0010
0100
0000
,
1000
0001
0100
0000
0010
0000
1000
0000
,
0001
0010
0100
0010
0001
0010
0100
0000
,
1000
0100
0001
0000
0100
0000
0100
0000
,
0001
0100
1000
0000
0100
0000
0100
0000
,
0001
0010
0001
0000
1000
0010
1000
0000
,
0010
0101
0010
1100
,
0002
0010
1000
0103
,
2000
0010
0001
3100
,
0001
0000
1000
0000
,
0010
0010
0100
0100
,
0001
0020
0100
0000
0001
0000
0130
0000
,
1000
0020
0100
0000
1000
0000
0130
0000
,
0001
2000
0100
0000
0001
0000
3100
0010
,
0000
0011
0000
1100
0000
0001
0100
0010
,
0000
0200
0010
0000
0001
0000
0310
0000
,
1000
0002
0010
0000
1000
0000
0013
0000
,
0100
2000
0001
0000
0100
0000
3001
0100
,
0000
0110
0000
1001
0000
1000
0000
0100
,
0010
0000
0001
0000
1000
0100
0001
0000
,
0100
0000
1000
0000
0001
0010
1000
0000
,
0020
0001
0100
0001
,
1000
1000
0001
0031
,
1000
0100
0010
0100
1000
0000
0100
0000
,
0001
0100
0010
0100
0001
0000
0100
0000
,
0010
0000
1000
0000
0100
1000
0001
0000
,
2002
0000
0000
3003
,
0010
0000
0010
0000
0001
0100
0010
0000
,
0100
0000
0100
0000
1000
0100
0010
0000
,
0001
0010
0001
0000
1000
0010
1000
0000
,
0001
0100
1000
0010
,
0001
0000
0011
0000
0100
1000
0100
0000
,
1000
0000
1010
0000
0100
0001
0100
0000
,
0001
0100
1000
0000
1000
0100
0001
0000
,
1000
0001
0010
0100
0010
0000
0001
0000
,
2000
0010
0001
0100
,
3002
0010
0203
0010
,
0302
0010
1000
0100
,
2003
0010
3200
0010
,
1300
0000
0001
0000
0100
0010
0100
0000
,
0001
0000
1000
0000
0100
0010
0100
0000
,
1000
0001
0100
0010
1000
0000
0001
0000
,
0010
0000
0100
0100
,
0001
0000
0010
0000
1000
0001
0100
0000
,
0010
1000
0100
0000
0010
0001
0100
0000
,
0010
0000
1000
0000
0100
0001
1000
0000
,
0100
0010
0001
0000
0001
1000
0010
0000
,
0200
1000
0010
0301
,
2000
0010
3001
0000
,
1000
0100
0010
0001
0010
0100
1000
0000
,
0002
0000
0000
0000
,
0000
0000
0000
0000
,
0003
0000
0000
0000
,
0000
0000
0000
0000
;

//---------------dance-double - ----------------
#NOTES:
     dance-double:
     :
     Easy:
     6:
     0.242421,0.312373,0.059098,0.211063,0.000000,201.000000,194.000000,7.000000,25.000000,0.000000,0.000000,0.242421,0.312373,0.059098,0.211063,0.000000,201.000000,194.000000,7.000000,25.000000,0.000000,0.000000:
00000000
00000000
00000000
00000000
,
00000000
00000000
00000000
00000000
,
00000000
00000000
00000000
00000000
,
00000000
00000000
00000000
00000000
,
00000000
00000000
00000000
00000000
,
00010000
01000000
00000000
01000000
,
00000000
01000000
00000000
01000000
,
00000000
01000000
00000000
01000000
,
00010000
00100000
01000000
00000000
,
00001000
00001000
00010000
00010000
,
00001000
00000010
00000001
00000100
,
00001000
00001000
00010000
00010000
,
00001000
00010000
01000000
10000000
,
00010000
01000000
00010000
00000000
,
10000000
01000000
10000000
00000000
,
00010000
00010000
00001000
00010000
,
00022000
00000000
00000000
00033000
,
00000010
00000010
00000001
00000010
,
00000100
00000100
00001000
00000100
,
00010000
00010000
00001000
00010000
,
00100000
00100000
10000000
00100000
,
10000000
00010000
01000000
00000000
,
00010000
10000000
01000000
00000000
,
00010000
00000000
00001000
00000000
,
00000100
00000001
00000010
00000001
,
00001000
00001000
00000100
00001000
,
00000001
00000001
00000010
00000001
,
00000200
00000300
00002000
00003000
,
00010000
00001000
00011000
00000000
,
00100000
10000000
00010000
00000000
,
01000000
10000000
00010000
00000000
,
02000000
00000000
00000000
03000000
,
00100000
00000000
00000000
00000000
,
10000000
01000000
00010000
00000000
,
00001000
00010000
00001000
00010000
,
00001000
00000010
00000001
00000000
,
00001000
00000000
00000001
00000000
,
00000001
00000100
00001000
00000000
,
00010000
00001000
00010000
00001000
,
00010000
00100000
10000000
00000000
,
10010000
00000000
00000000
00000000
,
00200000
00000000
20300000
00000000
,
30020000
00000000
02030000
00000000
,
03002000
00000000
00023000
00000000
,
00030200
00000000
00002300
00000000
,
00003001
00000000
00000001
00001001
,
00001000
00000000
00001000
00001001
,
00000010
00000100
00000010
00000000
,
00000220
00000000
00000000
00000330
,
00000001
00000001
00000100
00000100
,
00001000
00001000
00010000
00010000
,
00100000
10000000
00100000
10000000
,
00010000
00100000
01000000
00000000
,
10000000
10000000
01000000
01000000
,
00010000
00010000
00001000
00001000
,
00000010
00000001
00000010
00000001
,
00001000
00000010
00000100
00000000
,
00000001
00001000
00000100
00000000
,
00001000
00000100
00010000
00000000
,
00000100
00010000
00001000
00000000
,
00010000
00001000
00100000
00000000
,
00020000
00030000
02000000
03000000
,
00200000
00300000
20000000
30000000
,
20020000
00000000
00000000
30030000
,
00000000
00000000
00000000
00000000
,
10000000
01000000
10000000
01000000
,
00010000
00001000
00010000
00001000
,
00000010
00000001
00000010
00000001
,
00000100
00000010
00000100
00000010
,
00002000
00000000
00000000
00003000
,
00000002
00000000
00000000
00000003
,
00000020
00000000
00000000
00000030
,
00000200
00000000
00000000
00000000
,
00000000
00000000
00000000
00000000
,
00000300
00000000
00000000
00000000
,
00000000
00000000
00000000
00000000
;

//---------------dance-double - ----------------
#NOTES:
     dance-double:
     :
     Medium:
     8:
     0.340113,0.406085,0.101310,0.295488,0.000000,282.000000,270.000000,12.000000,35.000000,0.000000,0.000000,0.340113,0.406085,0.101310,0.295488,0.000000,282.000000,270.000000,12.000000,35.000000,0.000000,0.000000:
00000000
00000000
00000000
00000000
,
00000000
00000000
00000000
00000000
,
00000000
00000000
00000000
00000000
,
00000000
00000000
00000000
00000000
,
00000000
00000000
00000000
00000000
,
00200000
00010000
00000000
00310000
,
00002000
00010000
00000000
00013000
,
00200000
00010000
00000000
00310000
,
10000000
01000000
00010000
00001000
,
00000010
00000001
00001000
00000010
,
00000100
00000000
00000010
00000000
00001000
00000001
00000100
00000000
,
00001000
00010000
00100000
10000000
,
00010000
00000000
00100000
00000000
00010000
10000000
01000000
00000000
,
10000000
00100000
01000000
00010000
,
00100000
00001000
00010000
00000100
,
00000010
00000000
00000001
00000000
00001000
00000010
00000100
00000000
,
00000220
00000000
00000000
00000330
,
00000001
00000000
00000001
00000000
00000100
00000010
00000100
00000000
,
00000010
00000000
00000010
00000000
00010000
00001000
00010000
00000000
,
00100000
00000000
00100000
00000000
10000000
00010000
10000000
00000000
,
01000000
00000000
01000000
00000000
00100000
00010000
00100000
00000000
,
00010000
01000000
10000000
00100000
,
00010000
00001000
00000100
00000001
,
00000010
00000001
00001000
00000000
00000100
00000000
00001000
00000000
,
00001002
00000103
00002001
00003100
,
00010000
00000000
00010000
00000000
00001000
00100000
00001000
00000000
,
00010000
00000000
00010000
00000000
00001000
01000000
00001000
00000000
,
00010000
00100000
10000000
01000000
,
01010000
11000000
01010000
11000000
,
00020000
00000000
00001000
01030000
,
00002000
00000000
00010000
00003100
,
00000001
00000100
00001000
00000100
,
00000010
00000000
00000100
00000100
,
00020000
00000100
00001000
00030100
,
00002000
01000000
00010000
01003000
,
00020000
00000000
00000010
00000000
00001000
00000000
00030010
00000100
,
00000000
00000001
00000000
00000010
00000000
00001000
00000000
00020000
,
00000000
00000100
00001000
00030100
,
00002000
00100000
00010000
00103000
,
00020000
00000000
00000010
00000000
00001000
00000000
00030010
00001000
,
00000000
00000001
00000000
00000010
00000000
00000100
00000000
00000000
,
00010000
00001000
00100000
00010000
,
01000000
00100000
10000000
01000000
,
00010000
00001000
00010000
00000000
00002000
00000000
00003000
00000000
,
00000100
00000010
00000100
00000000
00000020
00000000
00000030
00000000
,
00001000
00000001
00000010
00000110
,
00000001
00000100
00001000
00011000
,
00100000
00000000
10000000
00000000
00010000
10000000
01000000
00000000
,
01100000
00000000
01000000
01000000
,
00100000
00100000
00001000
00010000
,
00001000
00001000
00000010
00000001
,
00001000
00000010
00000100
00000000
00000001
00000000
00000001
00000000
,
00000010
00000001
00001000
00000000
00000100
00010000
00000100
00000000
,
00001000
00001000
00010000
01000000
,
00100000
00100000
10000000
00100000
,
01000000
00100000
01000000
00000000
00010000
00000000
00001000
00000000
,
00000010
00000001
00001001
00000000
,
00000002
00000010
00002003
00000010
,
00003200
00000010
00020300
00000010
,
00030200
00000010
00002300
00000010
,
00003002
00000010
00002003
00000010
,
00003001
00000100
00001000
00000000
00000100
00000000
00000100
00000000
,
00001000
00010000
00100000
00000000
01000000
00000000
01000000
00000000
,
00001000
00010000
00100000
10000000
,
00010000
10000000
01000000
00000000
,
20000000
00100000
30020000
00100000
,
02030000
00100000
03002000
00100000
,
02003000
00100000
03020000
00100000
,
20030000
00100000
30020000
00100000
,
10030000
00000000
01000000
00000000
,
00010000
00000000
00001000
00000000
,
00001000
00000010
00000001
00001000
,
00002002
00000000
00000000
00000000
,
00000000
00000000
00000000
00000000
,
00003003
00000000
00000000
00000000
,
00000000
00000000
00000000
00000000
;

//---------------dance-double - ----------------
#NOTES:
     dance-double:
     :
     Hard:
     10:
     0.393180,0.437323,0.101310,0.185736,0.033770,326.000000,314.000000,12.000000,22.000000,0.000000,0.000000,0.393180,0.437323,0.101310,0.185736,0.033770,326.000000,314.000000,12.000000,22.000000,0.000000,0.000000:
00000000
00000000
00000000
00000000
,
00000000
00000000
00000000
00000000
,
00000000
00000000
00000000
00000000
,
00000000
00000000
00000000
00000000
,
00000000
00000000
00000000
00000000
00000000
00000000
00000000
00010000
,
00000020
00001000
00000000
00001030
,
00020000
00001000
00000000
00031000
,
00000020
00001000
00000000
00001030
,
00000001
00000100
00001000
00010000
,
00100000
00000000
10000000
00000000
00010000
00100000
01000000
00000000
,
00010000
01000000
10000000
00000000
00010000
00100000
10000000
00000000
,
00010000
00000000
00001000
00000000
00000010
00000100
00001000
00000000
,
00000010
00010000
00000100
00000000
00001000
00000001
00000100
00000000
,
00000001
00000010
00001000
00010000
,
00100000
10000000
00010000
01000000
,
00100000
10000000
00010000
00100000
01000000
10000000
00010000
00000000
,
02200000
00000000
00000000
03300000
,
10000000
00000000
00000000
10000000
00000000
00000000
10000000
00000000
01000000
00000000
00010000
00000000
00001000
00000000
00000000
00000000
,
00100000
00000000
00000000
00100000
00000000
00000000
00100000
00000000
00001000
00000000
00010000
00000000
00000010
00000000
00000000
00000000
,
00000100
00000000
00000000
00000100
00000000
00000000
00000100
00000000
00000010
00000000
00001000
00000000
00000100
00000000
00000000
00000000
,
00000010
00000000
00000000
00000010
00000000
00000000
00000010
00000000
00000001
00000000
00000100
00000000
00001000
00000000
00000000
00000000
,
00021000
00030100
00012000
01003000
,
00021000
00000010
00100000
00030010
,
00100000
10000000
01000000
00010000
,
01000000
10000000
00010000
01000000
00001000
00010000
00000010
00000000
,
00001000
00000001
00000010
00000100
00001000
00000000
00000001
00000000
,
00000100
00000000
00000000
00000010
00000000
00000000
00000100
00000000
00000010
00000000
00001000
00000000
00010000
00000000
00000000
00000000
,
01000000
00001000
00100000
00010000
01000000
00000000
00100000
00000000
,
10000000
00000000
00000000
00010000
00000000
00000000
01000000
00000000
00010000
00000000
10000000
00000000
01000000
00000000
00000000
00000000
,
00020000
00001000
01000000
00031000
,
00002000
00010000
00000100
00013000
,
00000100
00000000
00000010
00000000
,
00000001
00000010
00000100
00001000
,
00000010
00000000
00000010
00000000
00000001
00000100
00001000
00000000
,
00010000
00000000
00010000
00000000
00001000
00010000
01000000
00000000
,
10000000
00000000
10000000
00000000
00010000
01000000
00100000
01000000
,
00000000
11000000
00000000
01010000
00000000
00100000
01000000
00100000
,
00000000
10000000
01000000
00000000
00010000
00001000
00010000
00000000
,
00000100
00000000
00000100
00000000
00000010
00000001
00001000
00000000
,
00000010
00000000
00000010
00000000
00000100
00000001
00001000
00000010
,
00000000
00011000
00000000
00001100
00000000
00000010
00000100
00000010
,
00000001
00000100
00001000
00010000
,
00000100
00000010
00001000
00010000
,
00100000
10000000
01000000
00000000
00100000
00010000
01000000
00000000
,
00100000
10000000
00010000
01000000
00000000
00100000
01000000
00000000
,
10000000
00000000
00000000
01000000
00000000
00000000
00010000
00000000
00100000
00000000
00000000
00000000
01100000
00000000
00000000
00000000
,
00010000
00000000
00000000
00001000
00000000
00000000
00000010
00000000
00000001
00000000
00000000
00000000
00001010
00000000
00000000
00000000
,
00000001
00000010
00000100
00000000
00001000
00000001
00000100
00000000
,
00000110
00000000
00000100
00000100
,
00000010
00000000
00000010
00000000
00010000
00001000
01000000
00000000
,
00010000
00000000
00010000
00000000
00100000
01000000
10000000
00000000
,
00020000
00100000
10000000
01000000
,
00032000
00000010
00000001
00003100
,
00000001
00000000
00000001
00000000
00001000
00000010
00000100
00000000
,
00000001
00000000
00000001
00000000
00000010
00001000
00010000
00000000
,
00100000
10000000
00010000
00100000
,
01000000
00010000
00001000
00010000
01000000
00000000
00000000
00000000
,
00020000
00000100
01000000
00000100
,
00032000
00100000
00000010
00100000
,
00023000
00000010
00100000
00000010
,
00032000
01000000
00000100
01000000
,
00013000
01000000
00010000
00000000
01000000
10000000
01000000
00000000
,
10000000
00100000
10000000
00000000
00100000
00010000
00100000
00000000
,
00010000
00001000
00000010
00000001
,
00001000
00000001
00000100
00000000
,
00002000
00000100
01000000
00000100
,
00023000
00100000
00000010
00100000
,
00032000
00000010
00100000
00000010
,
00023000
01000000
00000100
01000000
,
00031000
00000000
01000000
00000000
,
00010000
00000000
10000000
00000000
,
00100000
10000000
00010000
00100000
00001000
00010000
00000010
00000000
,
00000220
00000000
00000000
00000000
,
00000000
00000000
00000000
00000000
,
00000330
00000000
00000000
00000000
,
00000000
00000000
00000000
00000000
;

//---------------dance-single - ----------------
#NOTES:
     dance-single:
     :
     Challenge:
     14:
     0.739324,0.812171,0.540322,0.337701,0.417905,613.000000,549.000000,64.000000,40.000000,0.000000,0.000000,0.739324,0.812171,0.540322,0.337701,0.417905,613.000000,549.000000,64.000000,40.000000,0.000000,0.000000:
// measure 0
0000
0000
0000
0000
,  // measure 1
0000
0000
0000
0000
,  // measure 2
0000
0000
0000
0000
,  // measure 3
0000
0000
0000
0000
,  // measure 4
0000
0000
0000
0000
,  // measure 5
0010
1000
0001
1000
0100
0010
0001
0200
,  // measure 6
0000
0310
1000
0200
0000
1300
0001
0010
,  // measure 7
1000
0010
0100
1000
0001
0010
0001
0100
,  // measure 8
0010
0000
1000
0000
2100
0000
0000
0000
3001
0000
0100
0010
0100
0010
0100
0010
,  // measure 9
0100
0001
0010
1000
0010
0100
0001
0100
,  // measure 10
1000
0010
0100
1000
0100
0001
0010
0100
,  // measure 11
0001
0100
0010
0001
0100
1000
0100
0010
,  // measure 12
1000
0001
0100
0000
0101
1010
1100
0011
,  // measure 13
1000
0001
0010
0100
0001
0100
1000
0010
,  // measure 14
0100
1000
0100
0001
2001
0100
3100
0010
,  // measure 15
0110
0001
1000
0010
1000
0100
0010
0001
,  // measure 16
1000
0001
0000
1000
0001
0000
0100
0000
0001
1000
0000
0001
1000
0000
0100
0000
,  // measure 17
0010
0000
0001
0100
0000
0100
0020
0000
0000
0000
1030
0000
1010
0000
0001
0000
,  // measure 18
0100
0000
0010
1000
0000
1000
0002
0000
0000
0000
0013
0000
0011
0000
0100
0000
,  // measure 19
1000
0000
0001
0010
0000
0010
0200
0000
0000
0000
1300
0000
1100
0000
0001
0000
,  // measure 20
0100
0000
0010
1000
0000
1000
0002
0000
0000
0000
0013
0000
1001
0000
0100
0000
,  // measure 21
1000
0000
0010
0000
0100
0001
0100
0000
0010
0000
1000
0100
0000
0100
0010
0000
,  // measure 22
0001
0000
1000
0010
0000
0010
0200
0000
0000
0000
1300
0000
0110
0000
0001
0000
,  // measure 23
0010
0100
0000
0100
1000
0000
0001
0000
0000
0000
1100
0000
1000
0000
0010
0100
,  // measure 24
0010
0100
0000
0100
0001
0100
0000
0100
1000
0100
0000
0100
0010
0100
0010
0000
,  // measure 25
1000
0001
1000
0000
1100
0000
0012
0000
0000
0000
0103
0000
0010
0000
1000
0000
,  // measure 26
0100
0000
0010
0001
0000
0001
2000
0000
0000
0000
3010
0000
0100
0000
0001
0000
,  // measure 27
0010
1000
0010
1000
0010
0000
0001
0000
0100
1000
0100
0000
0001
0000
1000
0001
,  // measure 28
1000
0000
0100
0010
0000
0010
0002
0000
0000
0000
0103
0000
1020
0000
0000
0000
,  // measure 29
0031
0000
0010
1000
0000
1000
0200
0000
0000
0000
0010
0000
0310
0000
0001
1000
,  // measure 30
0001
0000
0100
0010
0000
0010
1000
0000
0102
0000
0100
0000
1003
0000
0001
0000
,  // measure 31
0020
0000
1000
0000
0000
0000
0001
0000
0000
0000
1030
0000
0010
0100
0010
0000
,  // measure 32
1000
0001
1000
0001
0100
0010
0100
0010
1000
0000
0000
1100
0000
0000
0101
0000
,  // measure 33
1001
0000
0010
0000
1000
0001
0000
1000
0001
0000
0100
0000
0010
0000
1000
0000
,  // measure 34
0000
0000
0100
0000
1000
0010
0000
1000
0010
0000
0100
0000
0001
0000
1000
0000
,  // measure 35
0000
0000
0001
0000
0010
0100
0000
0010
0100
0000
1000
0000
0001
0000
0011
0000
,  // measure 36
0000
1100
0000
0101
0000
1100
0110
0022
,  // measure 37
0030
0000
1000
0000
1003
0010
0000
0100
0001
0000
0010
0000
0100
0000
1000
0000
,  // measure 38
0000
0000
0010
0000
1000
0001
0000
1000
0100
0000
0010
0000
0001
0000
0100
0000
,  // measure 39
0000
0000
0010
0000
1000
0001
0000
0010
0100
0000
1000
0000
0010
0000
0110
0000
,  // measure 40
0000
0000
1010
0000
0000
0000
0101
0000
1000
0100
0010
0000
1001
0000
0100
0010
,  // measure 41
0100
0000
0002
0000
1003
0010
1000
0001
,  // measure 42
0010
1000
0010
0100
0010
0001
0100
0010
,  // measure 43
2000
0000
0000
0000
3002
0010
0000
0000
2003
0010
0000
0000
3200
0010
0000
0000
,  // measure 44
0301
0100
1000
0010
0100
0001
1000
0100
,  // measure 45
1000
0010
0000
1000
0001
0000
1010
0000
0102
0000
1000
0000
1003
0000
0000
0000
,  // measure 46
0100
0001
0000
0010
0100
0000
1100
0000
0011
0000
0001
0000
1000
0000
2200
0000
,  // measure 47
0300
0001
3001
0100
0010
0001
0010
1000
,  // measure 48
2002
0000
0003
0100
0000
0001
3001
0000
,  // measure 49
0011
0000
0100
0000
1000
0000
0010
0000
1000
0001
0010
0001
0100
0000
0010
0000
,  // measure 50
1000
0100
0010
0100
1000
0000
0002
0000
0000
0000
0013
0000
0100
0000
0010
0000
,  // measure 51
0110
0000
0001
0100
0001
0000
0010
0000
1000
0000
0010
0000
0100
0000
0010
0000
,  // measure 52
1000
0000
0110
0000
1001
0000
0010
1000
0100
0000
0010
0000
0001
0000
1000
0000
,  // measure 53
0101
0000
0010
0000
0001
1000
0010
0000
1000
0100
0010
0100
1000
0000
0001
0000
,  // measure 54
0100
0010
1000
0001
0010
0100
2000
0000
0000
0000
3010
0000
0100
0000
0001
0000
,  // measure 55
1010
0000
0100
0001
0100
0000
0010
0000
1000
0000
0001
0000
1000
0000
0100
0000
,  // measure 56
0001
0000
0110
0000
1001
0000
0010
0000
1000
0100
1000
0010
1000
0001
0000
0000
,  // measure 57
0010
0001
0100
1000
0100
0010
0001
0010
,  // measure 58
1000
0100
0001
0100
0010
1000
0010
0100
,  // measure 59
0001
0100
1000
0010
1000
0100
0001
0100
,  // measure 60
1000
0001
0100
0000
0101
1010
1100
0011
,  // measure 61
1000
0000
0100
0010
0000
0000
0010
0001
0000
0000
0001
1000
0000
0000
1000
0010
,  // measure 62
1000
0100
0010
0001
0100
0010
1000
0000
1002
0000
0010
0000
0013
0000
0100
0000
,  // measure 63
0110
0000
1000
0010
0000
0100
0001
0000
0020
0000
0100
0000
0130
0000
0000
0000
,  // measure 64
1000
0000
0010
0100
0000
0001
2000
0000
0000
0000
3100
0010
0002
0000
0000
0000
,  // measure 65
0203
0010
0310
1010
0000
1100
0000
0101
,  // measure 66
1000
0001
0010
1000
0010
0100
0010
0001
,  // measure 67
2000
0010
3010
1100
0000
0110
0000
0011
,  // measure 68
0000
1010
1000
0000
0011
1100
0101
2010
,  // measure 69
0001
0000
0100
0000
0001
0100
3100
0000
,  // measure 70
1000
0100
0010
0001
2001
0100
3100
0000
,  // measure 71
0110
0001
1000
0010
1000
0100
0010
0001
,  // measure 72
2200
0000
0000
0000
0000
0000
0000
0300
,  // measure 73
0000
0000
0000
0000
,  // measure 74
3000
0000
0000
0000
;
