#TITLE:sola;
#ARTIST:小野秀幸;
#ARTISTTRANSLIT:Hideyuki Ono;
#BANNER:sola.png;
#BACKGROUND:sola-bg.png;
#JACKET:sola-jacket.png;
#MUSIC:sola.ogg;
#SAMPLESTART:33.778;
#SAMPLELENGTH:20;
#DISPLAYBPM:135;
#BPMS:0=135.338,4=134.997;
#BGCHANGES:;

//---------------dance-single - ----------------
#NOTES:
     dance-single:
     :
     Beginner:
     2:
     :
0000
0000
0000
0000
,
0000
0000
0000
0000
,
0000
0000
0000
0000
,
1000
0000
1000
0000
,
0100
0000
0000
0000
,
0001
0000
0001
0000
,
0100
0000
0000
0000
,
1000
0000
1000
0000
,
0010
0000
0000
0000
,
0001
0000
1000
0000
,
0001
0000
0000
0000
,
1000
0000
1000
0000
,
1000
0000
1000
0000
,
0001
0000
0001
0000
,
0001
0000
0001
0000
,
1000
0000
1000
0000
,
1000
0000
1000
0000
,
0010
0000
0010
0000
,
0010
0000
0000
0000
,
0001
0000
0001
0000
,
1000
0000
1000
0000
,
0100
0000
0100
0000
,
1000
0000
0001
0000
,
1000
0000
1000
0000
,
0001
0000
0001
0000
,
0010
0000
0010
0000
,
0010
0000
0000
0000
,
0100
0000
0100
0000
,
0100
0000
0000
0000
,
0001
0000
1000
0000
,
0001
0000
0000
0000
,
0010
0000
0010
0000
,
0010
0000
0000
0000
,
1000
0000
0001
0000
,
1000
0000
0000
0000
,
0001
0000
0001
0000
,
0001
0001
0001
0000
,
0100
0000
0000
0000
,
1000
1000
1000
0000
,
1000
0000
1000
0000
,
0001
0000
0001
0000
,
0010
0000
0010
0000
,
0010
0010
0010
0000
,
0001
0000
0000
0000
,
1000
0000
0000
0000
,
0100
0000
0000
0000
,
0001
0000
1000
0000
,
0001
0000
0000
0000
,
0010
0000
0000
0000
,
1000
0000
0000
0000
,
0000
0000
1001
0000
,
0001
0000
0001
0000
,
1000
0000
1000
0000
,
0100
0000
0100
0000
,
1000
1000
1000
0000
,
0001
0000
0001
0000
,
0100
0000
0100
0000
,
0100
0000
0100
0000
,
0100
0100
0200
0000
,
0000
0300
0000
0000
1001
0000
0000
0000
,
0000
0000
0000
0000
;

//---------------dance-single - ----------------
#NOTES:
     dance-single:
     :
     Easy:
     5:
     :
0000
0000
0000
0000
,
0000
0000
0000
0000
,
0000
0000
0000
0000
,
0000
0010
1000
0001
,
0020
0000
0000
0000
,
0030
0100
1000
0001
,
0200
0000
0000
0000
,
0300
0010
1000
0001
,
0020
0000
0000
0000
,
0030
0100
1000
0001
,
0200
0000
0000
0000
,
0301
1000
1000
0001
,
0010
0000
0100
0000
,
1000
0001
0001
1000
,
0100
0000
0010
0000
,
0001
0010
0010
0001
,
1000
0000
0100
0000
,
2000
0000
3002
0000
,
0023
0000
0000
0030
,
1001
0000
0001
0100
,
0010
0000
1000
0100
,
0010
0000
0001
0100
,
0010
1000
0100
0010
,
0110
0000
0001
0010
,
0100
0000
1000
0010
,
0100
0000
0001
0010
,
0100
1000
1001
0000
,
1000
1000
0100
0001
,
0100
0100
1000
0001
,
0100
0100
1000
0100
,
0001
0001
1000
0001
,
0010
0010
0001
0100
,
0010
0010
1000
0100
,
1000
1000
0001
0001
,
0020
0000
0130
0000
,
1000
1000
0010
0010
,
0100
0100
0001
0001
,
1000
1000
0100
0100
,
0010
0010
0001
1000
,
0001
0001
0100
0100
,
0010
0010
1000
1000
,
0002
0000
2003
0000
,
3010
0010
0100
0100
,
0110
0000
0000
0000
,
1001
0000
0000
0000
,
1100
0000
0000
0000
,
0101
0000
1001
0000
,
0110
0000
0000
0000
,
1010
0000
0000
0000
,
0011
0000
0000
0000
,
0000
0000
1001
1000
,
0010
1000
0001
0001
,
0010
0001
0100
0100
,
0010
0100
0001
0010
,
0100
1000
0001
0001
,
1000
0100
0010
0010
,
0001
1000
0100
0100
,
0010
0001
1000
1000
,
0001
0100
0010
1000
,
0000
0010
0000
0000
1001
0000
0000
0000
,
0000
0000
0000
0000
;

//---------------dance-single - ----------------
#NOTES:
     dance-single:
     :
     Medium:
     9:
     :
0000
0000
0000
0000
,
0000
0000
0000
0000
,
0000
0000
0000
0000
,
0100
0000
0010
1000
0001
0000
0100
0000
,
0020
0200
0000
0300
,
0130
0000
0001
1000
0010
0000
0100
0000
,
0002
2000
0000
3000
,
1003
0000
0010
0100
0001
0000
1000
0000
,
0200
0002
0000
0003
,
0301
0000
0010
0100
1000
0000
0001
0000
,
2000
0020
0000
0030
,
3001
0000
0000
0000
0100
0000
0000
0100
0001
0000
0000
0000
1000
0000
0000
0000
,
0010
0100
1001
0100
,
0010
0000
0000
0000
1000
0000
0000
1000
0010
0000
0000
0000
0100
0000
0000
0000
,
0001
0011
0010
0100
,
1000
0000
0000
0000
0001
0000
0000
0001
1000
0000
0000
0000
0100
0000
0000
0000
,
0010
0000
0000
0010
0001
0000
0000
0000
1000
0000
0000
0000
0010
0000
0000
0000
,
2000
0100
3002
0103
,
0220
0000
0000
0330
,
1000
0000
0100
0000
0010
0001
0100
0000
,
0010
0000
1000
0000
0001
0100
0010
0000
,
1000
0000
0001
0000
0100
0010
1000
0000
,
0001
1001
0010
0110
,
1001
0000
0100
0000
0001
1000
0010
0000
,
0100
0000
0010
0000
1000
0001
0100
0000
,
0001
0000
0010
0000
0100
0010
0100
0000
,
0110
1001
0110
0000
,
0020
0100
1000
0100
,
1000
0001
0100
0001
,
0230
1000
0010
1000
,
0001
0010
0010
1000
,
0301
0000
1000
0000
0001
1000
0001
0000
,
2000
0100
0001
3010
,
1002
0103
2001
3100
,
0001
0010
0100
1000
,
0001
0000
0000
0001
1000
0000
0000
1000
0001
0000
0000
0001
1000
0000
0000
1000
,
0001
0100
0010
1000
,
0200
0000
0000
0000
1300
0000
0000
1000
0100
0000
0000
0100
1000
0000
0000
1000
,
0100
0010
0001
0000
,
0010
0000
0100
0000
0010
0000
0000
0000
0001
0000
0000
0001
0010
0000
0000
0010
,
0001
0000
0000
0001
0100
0000
0000
0100
0001
0000
0000
0001
1000
0000
0000
0000
,
0001
0000
0000
0001
0010
0000
0000
0010
0100
0000
0000
0100
1000
0000
0000
1000
,
0001
0000
1000
0000
0001
0010
0100
0000
,
0000
0000
1000
0000
0001
0000
0000
0000
1000
0000
0000
0001
0000
0000
1000
0000
,
0000
0000
0001
0000
0100
0000
0000
0000
0001
0000
0000
0100
0000
0000
0001
0000
,
0000
0000
1000
0000
0100
0000
0000
0000
1000
0000
0000
0100
0000
0000
1000
0000
,
0000
0000
0010
0000
0100
0000
0000
0000
0010
0000
0000
0100
0000
0000
0010
0000
,
0000
0000
1000
0000
1000
0000
0000
0000
0001
0000
0000
0001
0000
0000
0010
0000
,
0000
0000
0001
0000
0001
0000
0000
0000
1000
0000
0000
1000
0000
0000
0010
0000
,
0000
0000
0100
0000
0100
0000
0000
0000
0001
0000
0000
1000
0000
0001
0000
0000
,
0000
0000
0000
0000
0000
0000
0000
0000
1001
0000
0000
0001
1000
0000
0000
0000
,
0001
0000
1000
0000
0010
0000
0000
0000
0100
0000
0000
0001
0100
0000
0000
0000
,
0001
0000
0100
0000
0010
0000
0000
0000
1000
0000
0000
0100
1000
0000
0000
0000
,
0100
1000
0001
0000
0020
0000
0032
0000
,
2003
3200
0310
1001
,
0100
0000
0010
0000
1000
0000
0000
0000
0001
0000
0000
1000
0001
0000
0000
0000
,
1000
0001
0100
0000
0010
0000
1000
0001
,
0010
0000
0001
1000
0010
0000
0100
0000
,
0001
0000
0000
0000
1000
0000
0000
0001
1000
0000
0000
0000
0010
0000
0000
0000
,
0000
0000
0000
0100
0000
0000
0000
0000
0001
0000
1000
0000
0001
0000
0000
0000
0000
0000
0000
0000
0000
0000
0000
0000
,
0000
0000
0000
0000
;

//---------------dance-single - ----------------
#NOTES:
     dance-single:
     :
     Hard:
     12:
     :
0000
0000
0000
0000
,
0000
0000
0000
0000
,
0000
0000
0000
0000
,
0001
0000
1000
0000
0001
1000
0000
0000
0001
0000
0000
0001
0100
0000
0010
0000
,
1000
0000
0010
0000
1000
0010
0000
0000
0100
0000
0000
0100
0001
0000
0010
0000
,
0100
0000
1000
0000
0100
1000
0000
0000
0100
0000
0000
0100
0010
0000
0001
0000
,
0100
0000
0001
0000
0100
0001
0000
0000
0100
0000
0000
0100
0010
0000
1000
0000
,
0001
0000
0010
0000
0001
0010
0000
0000
0001
0000
0000
0001
0100
0000
0010
0000
,
1000
0000
0010
0000
1000
0010
0000
0000
1000
0000
0000
1000
0001
0000
0100
0000
,
0010
0000
0100
0000
0010
0100
0000
0000
0010
0000
0000
0010
1000
0000
0001
0000
,
1000
0000
0001
0000
1000
0001
0000
0000
1000
0000
0000
1000
0001
0000
1000
0000
,
0100
0000
0000
0100
1000
0000
0000
1000
0001
0000
0000
0001
0100
0000
0000
0100
,
0010
0000
0000
0010
1000
0000
0000
1000
0100
0000
0000
0100
0010
0000
0001
0010
,
0001
0000
0000
0001
0100
0000
0000
0100
0010
0000
0000
0010
0100
0000
0000
0100
,
0001
0000
0000
0001
1000
0000
0000
1000
0010
0000
0000
0010
1000
0000
0001
1000
,
0001
0000
0000
0001
0010
0000
0000
0010
0100
0000
0000
0100
1000
0000
0000
1000
,
0010
0000
0000
0010
0100
0000
0000
0100
0001
0000
0000
0001
1000
0000
0000
0000
,
1200
0310
0201
0310
,
2002
0000
0000
3003
,
0010
0000
1000
0000
0001
0000
0000
0000
1000
0010
0000
1000
0000
1000
0000
0010
,
0100
0000
0001
0000
1000
0000
0000
0000
0001
0010
0000
0001
0000
0001
0000
0100
,
0010
0000
1000
0000
0001
0000
0000
0000
0100
0010
0000
0100
0000
0100
0000
0001
,
1000
1010
0101
0011
,
1001
0000
1000
0000
0100
0000
0000
0000
0010
0001
0000
0010
0000
0010
0000
0001
,
0100
0000
0010
0000
1000
0000
0000
0000
0001
1000
0000
0001
0000
0001
0000
0010
,
0100
0000
1000
0000
0001
0000
0000
0000
0100
0010
0000
0100
0000
0100
0000
0000
,
0000
0001
0000
0000
0010
0001
0100
0000
0000
0010
0000
0000
,
0001
0100
0010
0100
0001
1000
0100
0010
,
0000
0001
0100
0010
1000
0100
0010
0001
,
0100
0001
1000
0010
1000
0100
0000
1000
,
0001
0000
0010
0001
0010
0000
0001
0000
0100
0000
0001
0000
0010
0001
0010
0000
,
0001
0000
0100
0000
0010
0000
1000
0000
0001
0000
0100
0010
0100
0000
0000
0000
,
0001
0000
1000
0000
0010
0000
0100
0000
0001
0000
0010
0001
0100
0000
0000
0000
,
0002
0000
1003
0020
0100
0000
1030
0000
,
0001
0000
0010
0000
0100
0000
1000
0000
0010
0000
0100
0001
0100
0000
0000
0000
,
0001
0000
0000
0001
0100
0000
0000
0100
0010
0000
0000
0010
1000
0000
0000
1000
,
0100
0000
0000
0100
1000
0000
0000
1000
0010
0000
0100
0010
0100
0000
0010
0000
,
0100
0000
0000
0100
0001
0000
0000
0001
1000
0000
0000
1000
0001
0000
0000
0001
,
0010
0000
0000
0010
0100
0000
0000
0100
0010
0000
0100
0010
0100
0000
0010
0000
,
0001
0000
1000
0000
1001
0000
0000
0001
1000
0000
0010
1000
0010
0000
0100
0000
,
0001
0000
0000
1000
0100
0000
0000
0100
0010
0000
0001
0010
0001
0000
1000
0000
,
0010
0000
0000
0010
0100
0000
0000
0100
0001
0000
0000
0001
1000
0000
0010
0000
,
0100
0000
0000
0100
0001
0000
0000
0001
0010
0000
0000
0000
1100
0000
0000
0000
,
0020
0000
0000
0000
0000
0000
0000
0000
0031
0100
0000
0010
0000
1000
0000
2002
,
0000
0000
0000
0000
3003
0000
0000
0000
1000
0100
0000
0010
0000
0001
0000
2002
,
0000
0000
0000
0000
3003
0000
0000
0000
0010
0100
0000
0001
0000
1000
0000
0002
,
0000
0023
0230
2300
,
3020
0000
0000
0000
0000
0000
0000
0000
0130
0001
0000
1000
0000
0100
0000
0220
,
0000
0000
0000
0000
0330
0000
0000
0000
0001
0100
0000
0010
0000
0100
0000
0220
,
0000
0000
0000
0000
0330
0000
0000
0000
1000
0100
0000
0010
0000
0022
0000
0000
,
0033
0000
0000
0000
0010
1000
0001
0100
,
0010
1000
0000
0001
0000
0001
0000
0010
0100
0000
1000
0000
0001
0000
0100
0000
,
0001
0010
0000
0001
0000
0001
0000
0100
0010
0000
1000
0000
0001
0000
1000
0000
,
0100
0010
0000
0100
0000
0100
0000
0010
0001
0000
0100
0000
1000
0000
0100
0000
,
0001
0010
1000
0010
0001
1000
0100
1000
,
0010
0100
0000
0001
0000
0010
0000
0001
0100
0000
0010
0000
1000
0000
0100
0000
,
0010
0001
0000
1000
0000
0010
0000
0100
0010
0000
1000
0000
0001
0100
0001
0000
,
1000
0000
0100
0000
0010
0000
0001
0000
1000
0010
1000
0000
0001
0000
0010
0000
,
0100
0000
0000
0010
0000
0000
0100
0000
1000
0000
0000
0001
1000
0000
0001
0000
,
0000
0000
0000
1001
0000
0000
0000
0000
0010
0000
0010
0000
0010
0000
0000
0000
0000
0000
0000
0000
0000
0000
0000
0000
,
0000
0000
0000
0000
;

//---------------dance-single - ----------------
#NOTES:
     dance-single:
     :
     Challenge:
     15:
     :
0000
0000
0000
0000
,
0000
0000
0000
0000
,
0000
0000
0000
0000
,
0010
0000
1000
0000
0001
0010
0001
0010
0002
0000
0000
0203
0000
0000
0320
0000
,
2030
0000
0000
3002
0000
0000
0103
0010
0200
0000
0000
0302
0000
0000
2003
0000
,
3200
0000
0000
1300
0010
1000
0010
1000
0020
0000
0000
0230
0000
0000
0302
0000
,
2003
0000
0000
3010
0100
0010
0100
0010
0200
0000
0000
0302
0000
0000
0023
0000
,
0230
0000
0000
0301
1000
0001
1000
0001
2000
0000
0000
3020
0000
0000
0230
0000
,
0302
0000
0000
0103
0001
0100
0001
0100
0002
0000
0000
2003
0000
0000
3020
0000
,
2030
0000
0000
3100
1000
0100
1000
0100
2000
0000
0000
3002
0000
0000
0023
0000
,
0230
0000
0000
0310
0001
0010
0001
0010
0002
0000
0000
2003
0000
0000
3020
0000
,
1030
0100
1000
0100
1000
0001
0000
0010
0000
0010
0000
0010
0000
0001
0100
0000
,
0010
1000
0010
0000
0100
0001
0100
0000
0001
0010
0001
0000
1000
0100
1000
0000
,
0001
0000
0000
0000
0010
0100
0000
1000
0000
1000
0000
1000
0000
0010
0100
0000
,
0001
0010
0001
0000
1000
0100
1000
0000
0010
1000
0010
0000
0100
0001
0100
0000
,
0020
0000
0000
0000
1030
0100
0000
1000
0000
0001
0000
0010
0000
0001
0100
0000
,
0001
1000
0001
0000
0010
0100
0010
0000
0100
0010
0100
0000
1000
0001
1000
0000
,
0200
0000
0000
0000
1300
0000
0001
0100
0002
0000
0000
0000
0013
0000
1000
0010
,
1000
0000
0001
0100
0002
0000
0000
0000
0103
0010
0100
0000
0001
1000
0001
1000
,
0002
0000
0000
0000
0000
0000
0000
0000
0013
0001
0000
0011
0000
0110
0000
2200
,
0000
0000
0000
0000
0300
0000
0000
0000
3100
1000
0000
1010
0000
1001
0000
0202
,
0000
0000
0000
0000
0003
0000
0000
0000
0310
0100
0000
0110
0000
1001
0000
0220
,
0000
0000
0300
0000
2030
0100
0000
0000
3002
0100
0000
0000
2003
0100
0000
0000
,
3002
0000
0010
0000
0010
0000
0000
0000
1003
0001
0000
0101
0000
0101
0000
0200
,
0010
0000
0010
0000
0010
0000
0000
0000
0301
1000
0000
1100
0000
1100
0000
0020
,
1000
0000
1000
0000
1000
0000
0000
0000
0130
0010
0000
0110
0000
1001
0000
0001
,
0100
0020
0000
0000
1030
0200
0000
0000
1300
0010
1000
0010
0100
0001
0100
0001
,
0020
0000
2030
0000
3002
0100
0000
0103
0010
0000
0000
1010
0000
1010
0000
0001
,
1000
0000
2100
0000
0000
3002
0000
0000
0023
0000
0032
0000
1003
0010
0100
0000
,
0002
0000
0000
2003
0000
0010
0000
0000
0100
0000
0000
0001
0000
3001
0000
1000
,
0010
0100
0010
0000
1000
0001
1000
0000
0100
0010
0100
0000
1000
0010
0100
0001
,
0010
0001
0000
0011
0000
0101
0000
1001
0000
0000
0010
1000
0100
1000
0001
0100
,
0020
0000
0000
2030
0000
0000
3002
0000
0023
0000
0000
0032
0000
0000
0203
0000
,
0320
0000
1030
0100
0000
0000
0120
0000
0001
0000
0000
1000
0000
0031
0100
0000
,
0002
1000
0000
0000
0013
0000
0100
0000
2000
0010
0000
3100
1000
0000
0001
0000
,
0010
0001
0010
0100
1000
0000
0010
0100
0001
2000
0000
0000
3100
0010
0100
1000
,
0001
0000
0100
0010
0100
0000
0001
0000
1000
0010
1000
0001
1000
0010
0100
0001
,
0010
0001
2000
0000
0000
0000
3100
1000
0001
0000
0010
0001
0100
0000
0010
1000
,
0001
0000
0100
0010
1000
0001
0100
0000
0001
0010
0000
0000
1000
0001
1000
0001
,
1000
0000
1010
0000
1100
0000
0001
0100
0000
0001
0200
0000
0320
0000
2030
0000
,
3002
0000
0013
0001
0100
0010
0000
0010
1000
0002
0200
0000
0003
0310
1000
0000
,
0100
1000
0100
0010
0002
0000
2003
0000
3010
1000
0001
0000
0110
0000
1001
0000
,
1000
0000
0000
0000
0100
0000
0000
0000
0020
0000
0000
0000
0002
0000
0000
0000
0000
0000
0030
0000
0000
0000
0000
0000
1003
0000
0000
0001
0000
0000
0010
0000
0000
0100
0000
0000
1000
0000
0000
0000
0000
0000
0001
0000
0000
0000
0000
0000
,
2020
0000
0000
0000
0030
0000
0000
0000
3001
0100
0000
0110
0000
1001
0000
0220
,
0000
0030
0001
0000
0001
0000
0000
0000
0310
1000
0000
1100
0000
1001
0000
0202
,
0000
0300
0010
0000
0010
0000
0000
0000
1003
0001
0000
0011
0000
0110
0000
2100
,
0000
0000
0001
0000
3002
0100
0000
0000
2003
0100
0000
0000
3002
0100
0000
0000
,
0023
0000
1000
0000
1000
0000
0000
0000
0031
0100
0000
0101
0000
1010
0000
0202
,
0000
0300
1000
0000
1000
0000
0000
0000
0103
0010
0000
1010
0000
1001
0000
0022
,
0000
0003
1000
0000
1000
0000
0000
0000
0130
0010
0000
0011
0000
1100
0000
0000
,
0000
0000
0000
0000
0001
0010
0100
1000
0002
0000
0100
0000
0100
0000
0000
0000
,
1003
0001
0000
1001
0000
1001
0000
0010
0200
0000
0001
0000
0001
0000
0000
0000
,
0310
1000
0000
1010
0000
1010
0000
0100
2000
0000
0001
0000
0001
0000
0000
0000
,
3010
0100
0000
0101
0000
0101
0000
0002
0100
0000
1000
0000
2003
0100
0000
0000
,
3002
0100
0000
0000
2003
0100
0000
0000
3020
0000
0100
0000
0130
0001
1000
0000
,
0001
0100
0000
0101
0000
1010
0000
2000
0001
0000
3001
0000
0100
0010
1000
0000
,
0100
0010
0000
1001
0000
0011
0000
1000
0100
0000
1000
0000
0010
0100
0001
0000
,
0010
0100
1000
0000
0001
0100
0010
1000
0100
0000
1000
0010
0100
0010
1000
0001
,
0200
0000
0000
0320
0000
0000
2030
0000
3001
0100
0010
1000
0001
0010
0100
1000
,
0001
0000
0000
0012
0000
0000
0000
0000
1003
0000
0001
0000
1001
0000
0000
0000
0000
0000
0000
0000
0000
0000
0000
0000
;

//---------------dance-double - ----------------
#NOTES:
     dance-double:
     :
     Easy:
     5:
     :
00000000
00000000
00000000
00000000
,
00000000
00000000
00000000
00000000
,
00000000
00000000
00000000
00000000
,
00000000
00001000
00010000
01000000
,
00200000
00000000
00000000
00300000
,
00000000
00010000
00001000
00000010
,
00000200
00000000
00000000
00000300
,
00000000
00001000
00010000
01000000
,
00200000
00000000
00000000
00300000
,
00000000
00010000
00001000
00000010
,
00000200
00000000
00000000
00000300
,
00001000
00000001
00000001
00000100
,
00000001
00001000
00000100
00000000
,
00001000
00010000
00010000
00001000
,
00010000
00100000
01000000
00000000
,
00010000
10000000
10000000
00010000
,
10000000
01000000
00100000
00000000
,
00020000
00000000
00032000
00000000
,
00003020
00000000
00000000
00000030
,
00001001
00000100
00000010
00000100
,
00002000
00003000
00010000
01000000
,
00020000
00030000
00001000
00000100
,
00000001
00000100
00001000
00010000
,
00011000
00001000
00010000
01000000
,
20000000
30000000
01000000
00010000
,
02000000
03000000
10000000
01000000
,
00100000
00010000
10010000
00000000
,
00100000
00001000
00010000
00010000
,
00000100
00001000
00000010
00000010
,
00000200
00000010
00000320
00000100
,
00000130
00000001
00001000
00000010
,
00000100
00000010
00001000
00001000
,
00000100
00010000
00001000
00001000
,
02000000
00000000
03200000
00000000
,
10300000
00010000
10010000
00000000
,
10000000
01000000
10000000
01000000
,
00100000
00010000
00100000
00010000
,
00002000
00000000
00013000
00001000
,
00010000
00000100
00010000
00000100
,
00001000
00000010
00000100
00000010
,
00001000
00000001
00000100
00000001
,
00002000
00000001
00003002
00001000
,
00001003
00000001
00000100
00001000
,
00011000
00000000
00100000
00000000
,
10010000
00000000
01000000
00000000
,
10010000
00000000
00100000
00000000
,
01000000
00010000
00001000
00000100
,
00000010
00000000
00000100
00000000
,
00001001
00000000
00000100
00000000
,
00000110
00000000
00001000
00000000
,
00000000
00000000
00011000
00001000
,
00010000
01000000
10000000
01000000
,
00010000
00001000
00000100
00000001
,
00000100
00000010
00001000
00000100
,
00000010
00000001
00000100
00000100
,
00001000
00010000
00100000
00100000
,
00010000
00001000
00000010
00000010
,
00001000
00010000
00001000
01000000
,
00001000
00200000
00000000
00000000
,
00300000
01000000
00000000
00000000
10010000
00000000
00000000
00000000
,
00000000
00000000
00000000
00000000
;

//---------------dance-double - ----------------
#NOTES:
     dance-double:
     :
     Medium:
     9:
     :
00000000
00000000
00000000
00000000
,
00000000
00000000
00000000
00000000
,
00000000
00000000
00000000
00000000
,
00000000
00000000
00010000
10000000
01000000
00000000
00010000
00000000
,
00002000
00000020
00000000
00000000
,
00003030
00000000
00010000
00001000
00000100
00000000
00001000
00000000
,
00020000
02000000
00000000
00000000
,
03030000
00000000
00010000
00001000
00000100
00000000
00001000
00000000
,
00020000
00200000
00000000
00000000
,
00330000
00000000
00001000
00000100
00000010
00000000
00000100
00000000
,
00002000
00020000
00000000
00030000
,
00013000
00000000
00000000
00000000
00001000
00000000
00000000
00010000
00000100
00000000
00000000
00000000
00000010
00000000
00000000
00000000
,
00000001
00000000
00000000
00000001
00000100
00000000
00000000
00000000
00001000
00000000
00000000
00000000
00010000
00000000
00000000
00000000
,
00000010
00000000
00000000
00000000
00000100
00000000
00000000
00001000
00010000
00000000
00000000
00000000
00100000
00000000
00000000
00000000
,
10000000
00000000
00110000
00000000
10000000
00000000
01000000
00010000
,
00001000
00000000
00000000
00000000
00000100
00000000
00000000
00000010
00000100
00000000
00000000
00000000
00000001
00000000
00000000
00000000
,
00000100
00000000
00000000
00001000
00010000
00000000
00000000
00000000
01000000
00000000
00000000
00000000
00100000
00000000
00000000
00000000
,
20000000
01000000
30020000
01000000
,
00032000
00000010
00003001
00001001
,
00000020
00000000
00000130
00000000
00000001
00000100
00001000
00000000
,
00000200
00000000
00001300
00000000
00010000
00001000
00100000
00000000
,
20000000
00000000
30100000
00000000
00010000
10000000
01000000
00000000
,
10000000
01100000
00010000
00001000
,
00021000
00000000
01030000
00000000
00010000
00001000
00010000
00000000
,
00000020
00000000
00000130
00000000
00000001
00000100
00001000
00000000
,
00020000
00000000
00031000
00000000
00100000
00010000
01000000
00000000
,
01001000
10010000
11000000
00000000
,
00020000
01000000
10000000
00100000
,
00001000
00100000
10000000
00100000
,
00032000
00000100
00000001
00000010
,
00010000
00000010
00000001
00003010
,
00000100
00000000
00001000
00000000
00010000
00001000
00010000
00000000
,
00001000
00010000
00100000
10000000
,
00020000
10030000
10200000
01300000
,
00100000
00010000
00001000
00000100
,
00000010
00000000
00000100
00000000
00000010
00000000
00000000
00000000
00001000
00000000
00000000
00001000
00000001
00000000
00000000
00000001
,
00000100
00001000
00010000
01000000
,
00200000
00000000
00000000
00000000
01300000
00000000
00000000
01000000
10000000
00000000
00000000
10000000
01000000
00000000
00000000
00000000
,
00100000
00001000
00010000
00000100
,
00001000
00000000
00000100
00000000
00000010
00000000
00000000
00000000
00000001
00000000
00000000
00000001
00000100
00000000
00000000
00000100
,
00000010
00000100
00001000
00010000
,
00001000
00000000
00010000
00000000
00001000
00000000
00000000
00000000
00010000
00000000
00000000
00000000
00100000
00000000
00000000
00100000
,
01000000
00010000
10010000
01000000
,
00200000
00000000
00000000
00000000
00000000
00000000
00000000
00000000
10300000
00000000
00000000
01000000
00000000
10000000
00000000
00200000
,
00000000
00000000
00000000
00000000
00300000
00000000
00000000
00000000
01000000
00000000
00000000
00010000
00000000
00100000
00000000
00020000
,
00000000
00000000
00000000
00000000
00030000
00000000
00000000
00000000
10000000
00000000
00000000
01000000
00000000
00100000
00000000
02000000
,
00000000
03010000
00001000
00000100
,
00000020
00000000
00000000
00000000
00000000
00000000
00000000
00000000
00001030
00000000
00000000
00000001
00000000
00000100
00000000
00000002
,
00000000
00000000
00000000
00000000
00000003
00000000
00000000
00000000
00000100
00000000
00000000
00000010
00000000
00001000
00000000
00000020
,
00000000
00000000
00000000
00000000
00000030
00000000
00000000
00000000
00000100
00000000
00000000
00001000
00000000
00010000
00000000
00000000
,
00000000
00000000
00000000
00000000
00000000
00000000
00000000
00000000
00011000
00000000
00000000
00100000
00010000
00000000
00000000
00000000
,
00001000
00000000
00010000
00000000
01000000
00000000
00000000
00000000
01100000
00000000
00000000
10000000
01000000
00000000
00000000
00000000
,
00100000
00000000
00010000
00000000
01000000
00000000
00000000
00000000
01010000
00000000
00000000
00001000
00010000
00000000
00000000
00000000
,
00100000
00010000
00001000
00000000
00020000
00000000
00032000
00000000
,
00003200
00000000
00000000
00000000
00000302
00000000
00000000
00000000
00001003
00000000
00000000
00000010
00001000
00000000
00000000
00000000
,
00010000
00000000
00001000
00000000
00000100
00000000
00000000
00000000
00000110
00000000
00000000
00000001
00000100
00000000
00000000
00000000
,
00000010
00001000
00000100
00000000
00001100
00000000
00001000
00000100
,
00010000
00000000
00001000
00100000
00010000
00000000
10000000
00010000
,
00100000
10010000
00000000
00000000
,
00000000
00000000
00000000
00011000
00000000
00000000
00000000
00000000
00010000
00000000
00001000
00000000
00010000
00000000
00000000
00000000
00000000
00000000
00000000
00000000
00000000
00000000
00000000
00000000
,
00000000
00000000
00000000
00000000
;

//---------------dance-double - ----------------
#NOTES:
     dance-double:
     :
     Hard:
     12:
     :
00000000
00000000
00000000
00000000
,
00000000
00000000
00000000
00000000
,
00000000
00000000
00000000
00000000
,
00000000
00000000
00000000
00000000
00001000
00100000
00001000
00000000
00010000
00000000
00000000
01000000
00000000
00000000
00100000
00000000
,
00010000
00000000
00000000
10000000
00010000
01000000
00010000
00000000
00100000
00000000
00000000
01000000
00000000
00000000
10000000
00000000
,
01000000
00000000
00000000
00100000
00010000
10000000
00010000
00000000
01000000
00000000
00000000
00100000
00000000
00000000
00010000
00000000
,
00001000
00000000
00000000
00010000
00000100
00001000
00000100
00000000
00000010
00000000
00000000
00000100
00000000
00000000
00001000
00000000
,
00000001
00000000
00000000
00000100
00000010
00001000
00000010
00000000
00000100
00000000
00000000
00000001
00000000
00000000
00000010
00000000
,
00000100
00000000
00000000
00001000
00000001
00000100
00000001
00000000
00000100
00000000
00000000
00001000
00000000
00000000
00010000
00000000
,
00000010
00000000
00000000
00000100
00000010
00001000
00000010
00000000
00000100
00000000
00000000
00001000
00000000
00000000
00010000
00000000
,
00001000
00000000
00000000
00100000
00001000
00010000
00001000
00000000
00010000
00000000
00000000
01000000
00000000
00000000
00100000
00000000
,
00010000
00000000
00000000
00000000
10010000
00000000
00000000
10000000
00010000
00000000
01000000
00000000
00010000
00000000
10000000
00000000
,
00100000
00000000
00000000
00100000
00010000
00000000
00000000
00010000
00001000
00000000
00000000
00001000
00000100
00000000
00000001
00000100
,
00000001
00000000
00000000
00000000
00001001
00000000
00000000
00000001
00001000
00000000
00000010
00000000
00000100
00000000
00000001
00000000
,
00000010
00000000
00000000
00000010
00001000
00000000
00000000
00001000
00010000
00000000
00000000
00010000
01000000
00000000
00100000
01000000
,
00100000
00000000
00000000
00000000
01100000
00000000
00000000
00010000
10000000
00000000
01000000
00000000
00100000
00000000
00010000
00000000
,
01000000
00000000
00000000
00100000
10000000
00000000
00000000
10000000
01000000
00000000
00000000
01000000
00010000
00000000
00000000
00000000
,
00012000
00003100
00021000
01030000
,
00022000
00000000
00000000
00033000
,
00001000
00000000
00000010
00000000
00001000
00000000
00000000
00000000
00000001
00000010
00000000
00000001
00000000
00000100
00000000
00001000
,
00010000
00000000
00001000
00000000
00010000
00000000
00000000
00000000
00001000
01000000
00000000
00100000
00000000
10000000
00000000
01000000
,
10000000
00000000
00010000
00000000
10000000
00000000
00000000
00000000
00010000
00100000
00000000
01000000
00000000
10000000
00000000
00010000
,
00100000
00011000
00001010
00001001
,
00000010
00000000
00000001
00000000
00000100
00000000
00000000
00000000
00000010
00000100
00000000
00001000
00000000
00010000
00000000
01000000
,
10000000
00000000
01000000
00000000
00100000
00000000
00000000
00000000
01000000
00100000
00000000
00001000
00000000
00010000
00000000
00000100
,
00001000
00000000
00000001
00000000
00000100
00000000
00000000
00000000
00000010
00000100
00000000
00000010
00000000
00000100
00000000
00000000
,
00000000
00000101
00000000
00000000
00001000
00010000
01000000
00000000
00000000
00000000
00000000
00000000
,
10000000
00000000
01000000
00000000
10000000
01000000
00000000
00000000
00100000
00000000
00000000
00010000
10000000
00000000
00010000
00000000
,
00100000
00000000
01000000
00000000
00100000
01000000
00000000
00000000
00010000
00000000
00000000
00001000
00010000
00000000
00001000
00000000
,
00010000
00000000
00000100
00000000
00001000
00000100
00000000
00000000
00000010
00000000
00000000
00000001
00000100
00000000
00000010
00000000
,
00000100
00000000
00000010
00001000
00000010
00000000
00001000
00000100
00001000
00000000
00000100
00010000
00000100
00000000
00010000
00000000
,
00001000
00000000
00010000
00000000
00001000
00010000
00000000
00000000
01000000
00000000
00000000
00100000
00010000
00000000
01000000
00000000
,
00010000
00000000
10000000
00000000
00010000
10000000
00000000
00000000
01000000
00000000
00000000
00010000
00001000
00000000
00010000
00000000
,
00001000
00000000
00100000
00000000
00001000
00100000
00001000
00000000
00010000
00000000
00001000
00100000
00001000
00000000
00010000
00000000
,
00001000
00000000
00000100
00000000
00000001
00000000
00000100
00000000
00000010
00000000
00001000
00000001
00001000
00000000
00000000
00000000
,
00000001
00000010
00001000
00010000
00001000
00000100
00000001
00000010
,
00000100
00010000
00001000
00000100
00000010
00010000
00000100
00001000
,
00020000
00000000
10030000
00100000
00010000
10000000
01000000
00010000
,
00100000
00000000
10000000
00000000
00010000
00000000
01000000
00000000
00010000
00000000
00000000
00000000
00001000
00000000
00010000
00000100
,
00001000
00000100
00000110
00000000
00000001
00000100
00001000
00000100
,
00000010
00000000
00001000
00000100
00010000
00000000
01000000
00000000
10000000
00000000
00200000
00000000
00000000
00000000
01300000
00000000
,
00010000
00000000
00010000
00100000
01000000
00000000
10000000
00000000
01000000
00000000
00010000
00000000
00001000
00000000
00000020
00000000
,
00000100
00000002
00000000
00000033
,
00000002
00000000
00000100
00000000
00000100
00000000
00000000
00000000
00001003
00000100
00000000
00000010
00000000
00000001
00000000
00002000
,
00000000
00000000
00000100
00000000
00003100
00000000
00000000
00000000
00010000
00001000
00000000
00010000
00000000
01000000
00000000
20000000
,
00000000
00000000
01000000
00000000
31000000
00000000
00000000
00000000
00100000
01000000
00000000
00010000
00000000
10000000
00000000
00200000
,
00000000
00320000
00032000
00003200
,
00000320
00000000
00000100
00000000
00000100
00000000
00000000
00000000
00001030
00000001
00000000
00000010
00000000
00000100
00000000
00002000
,
00000000
00000000
00000001
00000000
00003001
00000000
00000000
00000000
00000100
00001000
00000000
00010000
00000000
00100000
00000000
02000000
,
00000000
00000000
00100000
00000000
03100000
00000000
00000000
00000000
10000000
01000000
00000000
00010000
00000000
00002000
00000000
00000000
,
00000000
00000000
00003000
00000000
00000010
00000001
00001000
00000001
,
00000100
00000010
00000000
00001000
00000000
00010000
00000000
00100000
01000000
00000000
10000000
00000000
00010000
00000000
10000000
00000000
,
01000000
00100000
00000000
00010000
00000000
00001000
00000000
00000010
00000100
00000000
00000001
00000000
00001000
00000000
00000100
00000000
,
00010000
00001000
00000000
00000010
00000000
00000001
00000000
00000100
00000010
00000000
00001000
00000000
00000100
00000000
00010000
00000000
,
00001000
00100000
00010000
01000000
00100000
10000000
00100000
01000000
,
00010000
10000000
00000000
01000000
00000000
00010000
00000000
00001000
00010000
00000000
00000100
00000000
00000010
00000000
00000100
00000000
,
00001000
00000001
00000000
00000100
00000000
00001000
00000000
00010000
01000000
00000000
10000000
00000000
00010000
01000000
00010000
00000000
,
00100000
00001000
00100000
00000000
00000100
00010000
00000100
00000000
00001000
00000010
00001000
00000000
00000001
00000100
00000001
00000000
,
00000100
00000000
00000000
00001000
00000000
00000000
00010000
00000000
00000000
00000000
00000000
00000000
00000000
00000000
00000000
00000000
,
00000000
00000000
00000000
00011000
00000000
00000000
00000000
00000000
00010000
00000000
00100000
00000000
10000000
00000000
00000000
00000000
00000000
00000000
00000000
00000000
00000000
00000000
00000000
00000000
,
00000000
00000000
00000000
00000000
;
