#TITLE:ska a go go;
#SUBTITLE:(SKACORE MIX);
#ARTIST:KEN MATSUMOTO;
#BANNER:ska a go go (SKACORE MIX)-bn.png;
#BACKGROUND:ska a go go (SKACORE MIX)-bg.png;
#JACKET:ska a go go (SKACORE MIX)-jacket.png;
#MUSIC:ska a go go (SKACORE MIX).ogg;
#OFFSET:-0.05;
#SAMPLESTART:28.285;
#SAMPLELENGTH:20;
#DISPLAYBPM:170;
#BPMS:0=170;
#BGCHANGES:;

//---------------dance-single - ----------------
#NOTES:
     dance-single:
     :
     Beginner:
     3:
     :
0000
0000
0000
0000
,
0000
0000
0000
0000
,
0000
0000
0000
0000
,
0000
0000
0000
0000
,
0000
0000
0000
0000
,
0000
0000
0000
0000
,
0001
0000
1000
0000
,
0010
0000
0100
0000
,
0001
0000
0010
0000
,
0100
0000
1000
0000
,
2002
0000
0000
0000
,
0000
0000
3003
0000
,
0010
0000
0100
0000
,
0220
0000
0330
0000
,
0002
0000
0003
0000
,
1000
0000
0001
0000
,
0100
0000
0010
0000
,
0100
0000
0000
0000
,
0001
0000
1000
0000
,
0001
0000
0000
0000
,
0010
0000
0001
0000
,
0000
0000
1001
0000
,
0100
0000
0010
0000
,
1000
1000
1000
0000
,
0001
0000
0100
0000
,
0000
0000
0110
0000
,
0010
0000
1000
0000
,
0001
0001
0001
0000
,
0100
0100
0200
0000
,
0300
0000
0000
0000
,
0010
0010
0020
0000
,
0030
0000
0000
0000
,
1000
1000
2000
0000
,
3000
0000
0000
0000
,
0001
0001
0002
0000
,
0003
0000
0000
0000
,
2000
0000
3000
0000
,
0020
0000
0030
0000
,
0200
0000
0300
0000
,
0002
0000
0003
0000
,
0020
0000
0030
0000
,
0200
0000
0300
0000
,
2000
0000
3000
0000
,
0010
0010
0010
0000
,
1000
1000
1000
1000
,
0000
0000
1001
0000
,
0010
0010
0010
0010
,
0000
0000
0110
0000
,
0001
0001
0001
0001
,
0000
0000
1001
0000
,
0100
0100
0100
0100
,
0000
0000
0110
0000
,
0001
0000
0001
0000
,
1000
0000
1000
0000
,
0010
0000
0010
0000
,
0100
0100
0000
0000
;

//---------------dance-single - ----------------
#NOTES:
     dance-single:
     :
     Easy:
     7:
     :
0000
0000
0000
0000
,
0000
0000
0000
0000
,
0000
0000
0000
0000
,
0000
0000
0000
0000
,
0000
0000
0000
0000
,
0000
0000
0001
0001
,
0001
1000
0010
0100
,
0010
1000
0100
0010
,
0001
0100
0001
1000
,
0010
0100
0001
0110
,
1001
0010
1000
0100
,
1000
0001
0010
0100
,
1000
0010
1000
0001
,
0010
0100
1000
0010
,
0202
0000
0000
0300
,
1000
0100
1000
0103
,
0001
0000
0000
1000
0000
0000
0001
0000
,
0000
0000
0000
0100
0010
0000
0000
0000
,
1000
0000
0000
0001
0000
0000
1000
0000
,
0000
0202
0000
0300
,
0013
0001
0010
0100
,
1000
1000
2200
3300
,
0001
0100
0010
0100
,
0001
0010
0001
1000
,
0100
0010
0100
1000
,
0001
0001
0022
0033
,
0100
0010
1000
0001
,
1000
0100
0010
0001
,
0100
0100
0200
0300
,
0001
0000
0000
1000
0000
0000
0001
0000
,
1000
1000
2000
3000
,
0010
0100
0010
1000
,
0001
0001
0002
0003
,
0100
0000
0000
0010
0000
0000
0100
0000
,
0010
0010
0020
0030
,
1000
0001
0100
0100
,
0110
1000
0001
1000
,
0010
0100
0010
1000
,
0110
0010
0100
1000
,
0001
0010
0001
0101
,
1010
0001
1000
0100
,
1000
0010
0100
0001
,
0011
1000
0100
0001
,
0010
0100
1001
0110
,
2000
0001
0100
3001
,
0010
0001
0101
1100
,
0002
0010
1000
0103
,
0010
0100
1100
0011
,
0200
1000
0001
1300
,
0100
0010
1010
0101
,
0020
0001
0100
1030
,
0010
0100
0110
1001
,
1100
0100
0101
0010
,
1100
0110
0011
0100
,
0011
1100
0101
1010
,
0110
1001
0000
0000
;

//---------------dance-single - ----------------
#NOTES:
     dance-single:
     :
     Medium:
     10:
     :
0000
0000
0000
0000
,
0000
0000
0000
0000
,
0000
0000
0000
0000
,
0000
0000
0000
0000
,
0100
0100
0100
0100
,
0100
0000
0100
0000
0001
1000
0001
1000
,
0001
0000
0010
0000
0100
1000
0010
1000
,
0100
0000
0010
0000
0001
0100
0010
1000
,
0100
0000
1000
0000
0010
0100
0010
1000
,
0001
0000
0010
0000
0001
0100
1000
0000
,
1000
0100
0010
0000
0001
0100
0010
0000
,
1000
0001
1000
0000
0100
0010
0001
0000
,
0010
0001
0010
0000
0100
1000
0100
0000
,
1000
0010
0100
0010
1000
0001
0100
0000
,
2010
0000
0001
0000
3010
0100
1000
0000
,
0002
0023
0230
2300
,
3001
0001
0000
1000
1000
0000
0001
0001
,
0000
0000
0000
0000
0000
0000
0100
0010
0100
0000
0000
0000
0000
0000
0000
0000
,
1000
1000
0000
0001
0001
0000
1000
1000
,
0000
0202
0000
0300
,
2003
3020
0230
0302
,
0003
1001
0000
0001
0200
0000
0300
0000
,
0020
2030
3002
0203
,
0301
0010
0001
0010
0001
0010
0001
0000
,
2000
3002
0023
0230
,
0300
0110
0000
0001
2000
0000
3000
0000
,
0000
0010
1000
0000
0100
0010
0001
0000
,
1000
0001
1000
0001
1000
0001
1000
0001
,
1000
0000
1100
0000
0011
0000
0000
1000
,
0002
0000
0013
0002
0000
0013
0001
0100
,
0010
0000
1010
0000
0101
0000
0000
0100
,
0010
0000
1000
0002
0000
0000
0003
0000
,
0010
0000
0011
0000
1100
0000
0000
0001
,
2000
0000
3001
2000
0000
3010
1000
0100
,
1000
0000
1001
0000
0110
0000
0000
0100
,
0001
0010
0002
0000
2003
0000
3100
0000
,
2100
3002
0203
0320
,
1030
0100
0010
0001
0010
0100
1000
0000
,
0201
0320
2030
3002
,
0013
0001
0010
0100
1000
0010
1000
0000
,
2010
0000
3200
0000
0320
0000
0031
0200
,
0000
0310
2000
0000
3001
0100
0001
0100
,
0020
1000
0000
0000
1030
0100
0010
0001
,
0200
0000
0320
0000
1030
0100
0010
0001
,
0010
0011
0110
1100
,
1000
0010
1000
0001
0010
0100
1000
0000
,
1010
1001
0101
0011
,
1000
0001
0010
1000
0010
0001
0100
0000
,
0110
1001
1010
1100
,
0010
1000
0010
0001
0100
0010
1000
0000
,
0101
1100
1010
0011
,
0010
0001
0010
0001
1000
0100
1000
0100
,
0010
0000
0001
0100
1000
0000
0001
0100
,
1000
0000
1010
0000
0001
0100
0010
1000
,
0200
0000
2300
0000
3010
0100
0001
1000
,
0100
0110
0000
0000
;

//---------------dance-single - ----------------
#NOTES:
     dance-single:
     :
     Hard:
     13:
     :
0000
0000
0000
0000
,
0000
0000
0000
0000
,
0000
0000
0000
0000
,
0000
0000
0000
0000
,
0000
2020
0000
0000
0000
0000
0000
0000
0000
0000
0000
0000
,
0000
0000
0000
0000
0030
0000
0000
0000
3001
1000
0001
1000
0001
1000
0001
1000
,
0001
0010
1000
0010
0100
0010
1000
0010
,
0001
0010
0100
0010
1000
0010
0001
0100
,
0010
0001
0010
1000
0010
0001
0010
0100
,
1000
0100
0001
0100
0010
1000
1100
0000
,
0011
0100
0001
0010
1000
0010
0100
0001
,
0100
0010
0100
1000
0010
0001
0010
0100
,
0010
0001
0010
1000
0100
0001
0100
0010
,
0100
1000
0100
0001
0100
0010
0001
1000
,
0010
2000
0000
0000
3100
0000
0001
0000
0100
0000
0010
0000
0100
0000
1000
0000
,
0001
0100
0000
0000
0100
0010
0000
0000
0010
1000
0000
0000
1000
0001
0000
0000
,
1000
0100
1000
0000
0000
0000
0001
0100
0001
0000
0000
0000
1001
0000
1001
0000
,
0000
0000
0000
0000
0000
0000
1000
0001
1000
0000
0000
0000
0000
0000
0000
0000
,
0001
0010
0001
0000
0000
0000
1000
0010
1000
0000
0000
0000
0110
0000
0110
0000
,
0000
0100
0202
0000
0000
0000
0300
0000
,
1003
0100
0001
0000
0011
0000
1100
0000
,
0010
1000
0100
0001
0200
1000
1300
0001
,
0100
0001
0010
0000
1100
0000
0101
0000
,
1000
0010
0001
0010
1000
0100
0001
0000
,
0010
0001
1000
0000
1010
0000
0101
0000
,
1000
0001
0010
1000
0020
0001
0031
0100
,
0010
1000
0100
0000
0110
0000
1000
0001
,
0100
1000
0100
0010
0100
0001
0100
0010
,
1000
0000
1001
0000
2020
0000
0030
0001
,
3001
0100
0010
2000
0000
3001
0100
1000
,
0010
0000
0110
0000
0202
0000
0300
1000
,
1003
0000
0001
0000
0010
0000
0100
0000
0000
0000
1000
0010
1000
0000
0001
0000
,
0100
0000
1010
0000
0022
0000
0003
0100
,
0130
0010
0001
2000
0000
3001
1000
0010
,
0100
0000
0110
0000
1001
0001
0100
0000
,
0010
1000
0100
0010
0002
0000
1003
0000
,
1100
0100
1000
0100
1000
0100
1000
0100
,
0001
0100
0001
0100
0001
0100
0001
0100
,
1000
0010
1000
0010
1000
0010
1000
0010
,
0001
0010
0001
0010
0001
0010
0001
0010
,
1000
0010
0001
0010
0100
0001
0100
1000
,
0001
1000
0100
0010
0001
0010
1000
0100
,
0010
1000
0001
0100
0001
0010
1000
0100
,
0101
0000
0000
0000
1010
0000
0000
0000
1000
0001
1000
0001
1000
0000
0100
0000
,
1000
0010
0100
0010
0001
0010
1000
0100
,
0010
1000
0010
0100
0010
1000
0010
0001
,
0100
1000
0100
0001
0100
0010
0100
1000
,
0100
0001
0100
0001
0100
0000
0010
0000
1000
0000
0001
0000
0010
0100
0010
0100
,
0010
0001
0010
1000
0010
0100
0010
1000
,
0010
0001
0100
0010
0001
0010
1000
0001
,
0010
1000
0010
0001
0100
0010
1000
0100
,
1000
0001
1000
0001
1000
0000
0000
0000
0011
0000
0000
0000
0100
0010
0100
0010
,
0100
0001
0010
1000
0010
0100
0010
0001
,
0100
0010
0001
0010
1000
0100
0001
0100
,
0010
1000
0010
0001
0010
1000
0010
0001
,
1000
0100
1000
0000
1010
0000
0000
0000
0000
0000
0000
0000
0000
0000
0000
0000
;

//---------------dance-single - ----------------
#NOTES:
     dance-single:
     :
     Challenge:
     16:
     :
0000
0000
0000
0000
,
0000
0000
0000
0000
,
1000
0000
0100
0000
1000
0100
1000
0000
0100
1000
0100
0000
1000
0001
0000
1000
,
0000
0100
1000
0100
1000
0100
0000
1000
0100
1000
0100
1000
0001
0000
0010
0000
,
2200
0000
0000
0000
,
0000
0000
0000
0000
0300
0000
0000
0000
3001
1000
0001
1000
0001
1000
0001
1000
,
0001
0000
0010
0100
0010
0000
0001
1000
0001
0000
0100
0010
0100
0000
0010
1000
,
0010
0000
1000
0100
1000
0000
0010
0001
0100
0000
0010
0100
0001
0000
1000
0100
,
1000
0000
0001
0010
0001
0000
1000
0100
1000
0000
0010
0100
0001
0000
1000
0001
,
0010
0000
0100
1000
0100
0000
0010
0001
0010
0000
0001
0100
1000
0000
0000
0000
,
0011
0000
0100
0000
0010
1000
0010
0000
1000
0100
1000
0000
0010
0001
0100
0000
,
0001
0010
0100
0000
1000
0001
0010
0000
0100
0010
0001
0000
0100
0001
1000
0000
,
0010
0100
0010
0000
1000
0001
1000
0000
0100
0010
0100
0000
1000
0001
0100
0000
,
0001
0010
0100
0000
1000
0100
0010
0000
0001
0100
0010
1000
0001
0100
0010
1000
,
0100
2000
0001
0000
0010
0000
0001
0000
0010
0000
0001
0000
0010
0000
3001
0000
,
1000
0100
1000
0100
0010
0100
0010
0100
0010
0001
0010
0001
1000
0001
1000
0001
,
1000
0100
0001
0000
0000
0000
1000
0100
0001
0000
0000
0000
1000
0100
0001
0000
,
0000
0000
0000
0000
0000
0000
0100
0010
0100
0000
0000
0000
0000
0000
0000
0000
,
0001
0100
1000
0000
0000
0000
0001
0100
1000
0000
0000
0000
0001
0100
1000
0000
,
0000
0100
0202
0000
0300
1000
1000
0000
,
1003
0100
0010
0001
0000
0100
0010
0000
,
1010
0001
0010
0100
1000
0010
1000
0001
,
0100
0010
1000
0000
0110
0001
1000
0001
,
0100
0000
0100
0000
0101
1000
0001
0000
,
0010
1000
0100
0010
0001
0100
1000
0000
,
0010
0100
1001
0010
2000
0001
3001
0100
,
0010
1000
0010
0001
0010
1000
0100
0010
,
0001
0100
1010
0001
1000
0100
1000
0010
,
0100
0000
0101
0000
1100
0000
0001
1000
,
0100
0000
0010
0000
0001
0000
0100
0000
0010
0000
1000
0000
0001
0100
0001
0100
,
0001
0010
0011
0000
1010
0000
0001
1000
,
0100
0000
0010
0000
0001
0000
0100
0000
0010
0000
1000
0001
1000
0000
0100
0000
,
0010
0000
0011
0000
1100
0000
0001
1000
,
0100
0010
0100
1000
0000
0001
0010
1000
,
0100
0000
0010
0001
1000
0010
0100
0000
,
0001
0100
1000
0100
0010
0100
1000
0100
,
0001
0010
0001
0010
0001
0010
0001
0011
,
1000
0100
1000
0100
1000
0100
1000
1100
,
0010
1000
0010
1000
0010
1000
0010
1010
,
0100
0001
0100
0001
0100
0001
0100
0101
,
1000
0001
1000
0001
1000
0001
1000
1001
,
0100
0010
0100
0010
0100
0010
0100
0110
,
1000
0010
0001
0100
1000
0010
0001
0110
,
1000
0000
0100
0000
0010
0000
0001
0000
0100
0010
0100
0010
1000
0000
1001
0000
,
0001
0100
0001
0000
0010
0100
1000
0000
0010
0100
0001
0000
0010
0100
1000
0000
,
0000
0100
0000
0010
0001
1000
0010
0100
0000
0010
1000
0000
0001
0000
0100
0000
,
0010
1000
0100
0000
0010
0001
1000
0000
0001
0100
0010
0000
1000
0100
0010
0000
,
0001
0100
0010
1000
0001
1000
0100
0000
0010
0000
0010
0000
0010
0001
1000
0100
,
1000
0001
0010
0000
0001
0100
0010
0000
1000
0100
1000
0000
0010
0001
0100
0000
,
0000
0001
0000
0010
0001
0100
0010
1000
0000
0100
1000
0000
0001
0000
0100
0000
,
0010
1000
0010
0100
0010
1000
0010
0100
0010
1000
0010
0100
0010
1000
0010
0100
,
0001
0010
0100
0010
0001
0010
0100
0000
1000
0001
1000
0001
1000
0001
1000
0001
,
1000
0100
0010
0001
1000
0100
0010
0001
1000
0100
0010
0001
1000
0100
0010
0001
,
1000
0100
0010
0001
1000
0100
0010
0001
1000
0100
0010
0001
1000
0100
0010
0001
,
1000
0100
0010
0001
1000
0100
0010
0001
1000
0100
0010
0001
1000
0100
0010
0001
,
1000
0001
1000
0001
1000
0000
0000
0000
0000
0000
0000
0000
0000
0000
0000
0000
;
