#TITLE:ska a go go (CLUB ANOTHER VER.);
#ARTIST:THE BALD HEADS;
#BANNER:ska a go go (CLUB ANOTHER VER.)-bn.png;
#BACKGROUND:ska a go go (CLUB ANOTHER VER.)-bg.png;
#JACKET:ska a go go (CLUB ANOTHER VER.)-jacket.png;
#MUSIC:ska a go go (CLUB ANOTHER VER.).ogg;
#SAMPLESTART:42.608;
#SAMPLELENGTH:20;
#DISPLAYBPM:144:165;
#BPMS:0=160,100=144,112=160,146=165,148=160,164=161,168=160;
#BGCHANGES:;

//---------------dance-single - ----------------
#NOTES:
     dance-single:
     :
     Beginner:
     4:
     :
0000
0000
0000
0000
,
0000
0000
0000
0000
,
0000
0000
0000
0000
,
0000
0000
0000
0000
,
0000
0000
0000
0000
,
0001
0001
0001
0001
,
0001
0000
1000
0000
,
0010
0010
0010
0010
,
0010
0000
0100
0000
,
0000
0000
0000
0000
,
0000
0000
1001
1001
,
0000
0000
0000
0000
,
0010
0000
0100
0000
,
0001
0001
0001
0001
,
0000
0100
0100
0000
,
0010
0010
0010
0010
,
0000
1000
1000
0000
,
0100
0100
0100
0100
,
0000
0010
0010
0000
,
0001
0001
0001
0001
,
0000
1000
1000
0000
,
0000
0010
0000
0010
,
0000
0010
0000
0010
,
0000
1000
0000
0001
,
0000
0000
1001
1001
,
0000
0100
0000
0100
,
0000
0010
0000
0010
,
0000
0100
0000
0000
,
0001
0000
1000
0000
,
0010
0010
0010
0000
,
1000
1000
1000
0000
,
0001
0001
0001
0000
,
0100
0100
0100
0000
,
0010
0010
0010
0010
,
0000
0100
0100
0000
,
1001
0000
1001
0000
,
0100
0100
0100
0000
,
0000
1000
0000
0001
,
0000
1000
0000
0001
,
0000
0100
0000
0010
,
0010
0000
1001
0000
,
0000
0001
0000
0010
,
0000
0001
0000
1000
,
0000
0010
0000
0100
,
0100
0000
1001
0000
,
0001
0001
0001
0000
,
1000
1000
1000
0000
,
0100
0100
0100
0100
,
0100
0000
0110
0000
,
0100
0100
0100
0000
,
0010
0010
0010
0000
,
0001
0001
0001
0000
,
1000
1000
0000
0000
,
0010
0010
0010
0010
,
0010
0010
0010
0010
;

//---------------dance-single - ----------------
#NOTES:
     dance-single:
     :
     Easy:
     9:
     :
0000
0000
0000
0000
,
0000
0000
0000
0000
,
0000
0000
0000
0000
,
0000
0000
0000
0000
,
0000
0000
0000
0000
,
1000
1000
1000
1000
,
0001
0001
0001
0001
,
1000
1000
1000
1000
,
0001
0001
0001
0001
,
0000
0001
0000
0001
0000
0001
0000
0001
,
0000
1000
0000
1000
0001
0000
1001
0000
,
0000
0001
0000
0001
0000
0001
0000
0001
,
1000
0000
1000
0000
1000
0000
0001
0000
0001
0000
0001
0000
,
0000
1000
0000
1000
0000
1000
0000
1000
,
0000
0000
0000
0000
,
0000
0001
0000
0001
0000
0001
0000
0001
,
0000
0000
0000
0000
,
0000
1000
0000
1000
0000
1000
0000
1000
,
0000
0000
0000
0000
,
0000
0001
0000
0001
0000
0001
0000
0001
,
0000
0000
0000
0000
,
0000
1000
0000
1000
0000
1000
0000
1000
,
0000
1000
0000
1000
0000
1000
0000
1000
,
0000
1000
0000
1000
0000
1000
0000
1000
,
0000
1000
0000
1000
0001
0000
1001
0000
,
0100
0000
0010
0000
,
0001
0000
1000
0000
,
0100
0000
0010
0000
,
1000
0000
1000
0000
1000
0000
0001
0000
0001
0000
0001
0000
,
0100
0010
1000
0000
,
0100
0010
0001
0000
,
0100
0010
1000
0000
,
0100
0010
0001
0000
,
1000
0010
0100
0000
,
0001
0010
0100
0000
,
1001
0000
0110
0000
,
1001
0110
1001
0110
,
1000
0001
0010
0100
,
1000
0001
0010
0100
,
1000
0001
0010
0100
,
1000
1000
0000
0000
0001
0001
0000
0000
,
0100
0010
1000
0001
,
0100
0010
1000
0001
,
0100
0010
1000
0001
,
0100
0100
0000
0000
0010
0010
0000
0000
,
1000
0001
1000
0001
1000
0001
0001
0001
,
1000
0001
1000
0001
1000
0001
0001
0001
,
1000
0001
1000
0001
1000
0001
0001
0001
,
1000
0000
0000
0000
,
0001
1000
0010
0100
0001
1000
1000
1000
,
0001
1000
0010
0100
0001
1000
1000
1000
,
0001
1000
0010
0100
0001
1000
1000
1000
,
0001
1000
0010
0100
0000
0000
0000
0000
,
0001
0010
0100
1000
0001
0100
0100
0100
,
0010
1000
0100
0010
0001
0100
0100
0100
;

//---------------dance-single - ----------------
#NOTES:
     dance-single:
     :
     Medium:
     13:
     :
0000
0000
0000
0000
,
0000
0000
0000
0000
,
0000
0000
0000
0000
,
0000
0000
0000
0000
,
0000
0000
0000
0000
,
0000
1000
0000
1000
0000
1000
0000
1000
,
0100
0001
0000
0001
0000
0001
0000
0001
,
0010
1000
0000
1000
0000
1000
0000
1000
,
0100
0001
0000
0001
0000
0001
0000
0001
,
0000
1000
0000
1000
0000
1000
0000
1000
,
0010
0100
0000
0100
0001
0000
1010
0000
,
0000
0001
0000
0100
0000
0010
0000
1000
,
0001
0000
0010
0000
0100
0000
1000
0000
0010
0000
0100
0000
,
0000
1000
0000
1000
0000
1000
0000
1000
,
0000
0000
0000
0000
0001
0010
0001
0000
,
0000
0001
0000
0001
0000
0001
0000
0001
,
0000
0000
0000
0000
1000
0010
1000
0000
,
0000
1000
0000
1000
0000
1000
0000
1000
,
0000
0000
0000
0000
0100
1000
1010
0000
,
0000
0001
0000
0001
0000
0001
0000
0001
,
0000
0000
0000
0000
0100
0001
0011
0000
,
0001
1000
0001
0010
0001
0100
0001
1000
,
0001
0010
0001
0100
0001
1000
0001
0010
,
0001
0100
0001
1000
0001
0010
0001
0100
,
0001
1000
0001
0010
0100
0000
1001
0000
,
0100
0100
0100
0000
0010
0010
0010
0000
,
0001
0001
0001
0000
1000
1000
1000
0000
,
0100
0100
0100
0000
0010
0010
0010
0000
,
0001
0000
0010
0000
0100
0000
1000
0000
0010
0000
0100
0000
,
0000
0000
0000
0000
0000
0100
0010
1000
,
0000
0000
0000
0000
0000
0100
0010
0001
,
0000
0000
0000
0000
0000
0100
0010
1000
,
0000
0000
0000
0000
0000
0100
0010
0001
,
0000
0000
0000
0000
0000
1000
0010
0100
,
0000
0000
0000
0000
0000
0001
0010
0100
,
1001
0000
0110
0000
,
1100
0011
0101
1010
,
0100
0001
1000
0010
0100
0001
1000
0010
,
0100
0001
1000
0010
0100
0001
1000
0010
,
0100
0001
1000
0010
0100
0001
1000
0010
,
0100
0100
0000
0000
0001
0001
0000
0000
,
1000
0100
0010
0001
1000
0100
0010
0001
,
1000
0100
0010
0001
1000
0100
0010
0001
,
1000
0100
0010
0001
1000
0100
0010
0001
,
1000
1000
0000
0000
0100
0100
0000
0000
,
0001
0010
0001
0010
0001
0010
0001
0010
0001
0010
0001
0010
0001
0010
0001
0010
,
0001
0010
0001
0010
0001
0010
0001
0010
0001
0010
0001
0010
0001
0010
0001
0010
,
0001
0010
0001
0010
0001
0010
0001
0010
0001
0010
0001
0010
0001
0010
0001
0010
,
0001
0000
0000
0000
,
1000
0100
1000
0100
1000
0100
1000
0100
1000
0100
1000
0100
1000
0100
1000
0100
,
1000
0100
1000
0100
1000
0100
1000
0100
1000
0100
1000
0100
1000
0100
1000
0100
,
1000
0100
1000
0100
1000
0100
1000
0100
1000
0100
1000
0100
1000
0100
1000
0100
,
1000
0100
1000
0100
0000
0000
0000
0000
0000
0000
0000
0000
0000
0000
0000
0000
,
0010
0100
0010
0100
0010
0100
0010
0100
0010
0100
0010
0100
0010
0100
0010
0100
,
0010
0100
0010
0100
0010
0100
0010
0100
0010
0100
0010
0100
0010
0100
0010
0100
;

//---------------dance-single - ----------------
#NOTES:
     dance-single:
     :
     Hard:
     13:
     :
0000
0000
0000
0000
,
0000
0000
0000
0000
,
0000
0000
0000
0000
,
0000
0000
0000
0000
,
0000
0000
0000
0000
,
0100
1000
0100
1000
0100
1000
0100
1000
,
0100
0001
1000
0001
1000
0001
1000
0001
,
1000
0010
0100
0010
0100
0010
0100
0010
,
0100
1000
0001
1000
0001
1000
0001
0000
,
0000
1000
0000
1000
0000
1000
0000
1000
,
0100
0010
0001
1000
0100
0010
1001
0000
,
0010
0001
1000
0100
0010
0001
0100
1000
,
0011
0000
1001
0000
0101
0000
1010
0000
1001
0000
1100
0000
,
0000
1000
0000
0100
0000
0010
0000
0001
,
1000
0010
1000
0100
0001
0100
0001
0000
,
0000
0010
0000
0001
0000
0100
0000
1000
,
0100
0010
0100
0001
1000
0100
1000
0000
,
0000
1000
0000
0100
0000
0010
0000
0001
,
1000
0010
1000
0100
0001
0100
1100
0000
,
0000
0001
0000
0010
0000
0100
0000
1000
,
0001
0010
0001
0100
1000
0100
0101
0000
,
1000
0010
0001
0010
1000
0010
0001
0010
,
1000
0010
0001
0010
1000
0010
0001
0010
,
1000
0100
0001
0100
1000
0010
0001
0010
,
1000
0100
0001
0100
1010
0000
0101
0000
,
0010
1000
0010
1000
0100
0001
0100
0001
,
1000
0010
1000
0010
0001
0100
0001
0100
,
0010
1000
0010
1000
0100
0001
0100
0001
,
0011
0000
1001
0000
0101
0000
1010
0000
1001
0000
1100
0000
,
0001
0000
0010
0000
0100
1000
0010
0100
,
0001
0000
0010
0000
0100
1000
0010
0100
,
0001
0000
1000
0000
0100
0010
0001
0100
,
0001
0000
1000
0000
0100
0010
0001
0100
,
1000
0000
0100
0000
0001
0010
0100
1000
,
0001
0000
0100
0000
0010
1000
0100
0001
,
0100
1000
0000
1000
0001
0010
0000
0010
,
0100
1000
0001
0100
0010
1000
0001
0010
,
0100
1000
0010
0100
0001
1000
0100
0010
,
0001
1000
0010
0100
0001
0010
0100
1000
,
0010
0100
0001
1000
0100
0010
0001
0100
,
0010
0010
1000
0100
0001
0001
0000
0000
,
1000
0010
0100
1000
0100
0001
0010
0100
,
1000
0010
0100
0001
0010
0100
1000
0010
,
0100
0001
0010
1000
0010
0001
0100
0010
,
1000
1000
0001
0010
0100
0100
0000
0000
,
1000
0001
1000
0010
0100
0001
0001
0001
,
1000
0100
0010
0001
0100
0010
0010
0010
,
1000
0010
0001
0010
1000
0100
0100
0100
,
0001
0000
0000
0000
,
1000
0001
1000
0001
1000
0001
1000
0001
1000
0001
1000
0001
1000
0001
1000
0001
,
1000
0001
1000
0001
1000
0001
1000
0001
1000
0001
1000
0001
1000
0001
1000
0001
,
1000
0001
1000
0001
1000
0001
1000
0001
1000
0001
1000
0001
1000
0001
1000
0001
,
1000
0001
1000
0001
1000
0001
1000
0001
0000
0000
0000
0000
0000
0000
0000
0000
,
0010
0100
0010
0100
0010
0100
0010
0100
0010
0100
0010
0100
0010
0100
0010
0100
,
0010
0100
0010
0100
0010
0100
0010
0100
0010
0100
0010
0100
0010
0100
0010
0100
;

//---------------dance-single - ----------------
#NOTES:
     dance-single:
     :
     Challenge:
     15:
     :
0000
0000
0000
0000
,
0000
0000
0000
0000
,
0000
0000
0000
0000
,
0000
0000
0000
0000
,
0000
0000
0000
0000
,
0001
0000
0010
0100
0010
0000
0001
1000
0001
0000
0100
0010
0200
0000
0000
0000
,
0310
1000
0000
1000
0100
0000
0010
0000
0011
0000
1001
0000
1100
0000
0000
0000
,
0010
0000
1000
0001
1000
0000
0100
0010
0100
0000
0010
0001
0020
0000
0000
0000
,
0130
1000
0000
1000
0001
0000
0100
0000
0101
0000
0110
0000
1010
0000
0000
0000
,
0001
0000
0100
0010
0100
0000
0010
0100
0010
0000
0100
0010
0100
0000
0010
0100
,
0010
0000
0100
0001
1000
0000
0001
0000
1100
0000
0000
0000
1100
0000
0000
0000
,
0010
0000
1000
0001
1000
0000
0001
1000
0001
0000
1000
0001
1000
0000
0001
0000
,
1001
0000
0011
0000
0101
0000
1100
0000
1010
0000
0110
0000
,
0201
0301
0012
0013
0120
0130
2100
0000
,
3010
1000
0000
1000
0100
0010
0000
0001
0000
1000
0001
0000
0100
0000
0000
0000
,
1002
1003
2100
3100
0210
0310
0021
0000
,
0031
0100
0000
0100
0010
1000
0000
0100
0000
1000
0001
0000
0100
0000
0010
0000
,
1020
0130
0201
0301
1002
1003
2100
0000
,
3010
1000
0000
1000
0001
0010
0000
0001
0000
0100
0010
0000
1000
0000
0000
0000
,
2100
3010
0120
0130
0201
0301
1002
0000
,
1003
0000
0000
0010
0000
0000
0000
0000
0000
0010
0000
0000
1000
0000
0000
0100
0000
0000
0000
0000
0000
1000
0000
0000
0000
0000
0000
0001
0000
0000
0100
0000
0000
0000
0000
0000
0010
0000
0000
0000
1000
0000
0000
0000
0001
0000
0000
0000
,
1000
0000
0010
0000
0100
0001
0100
0001
0100
0000
0010
0000
1000
0000
0100
0000
,
0001
0000
0100
0000
0010
0001
0010
0001
0010
0000
0100
0000
0001
0000
0100
0000
,
0010
0000
0100
0000
1000
0010
1000
0010
1000
0000
0001
0000
0100
0000
0010
0000
,
1000
0000
0100
0010
0000
0010
0001
0000
0101
0000
0000
0000
0101
0000
0000
0000
,
1000
0100
0010
0001
1000
0001
0100
0010
1000
0100
0010
0001
,
0100
0001
0010
0001
1000
0001
0100
0010
1000
0001
1000
0100
,
0010
0001
0100
0010
1000
0100
0010
0001
1000
0100
0000
0000
,
1001
0000
0011
0000
1010
0000
1100
0000
0101
0000
0110
0000
,
0010
0100
1000
1000
0001
0100
0001
0010
,
0001
0100
0010
1000
0001
0010
1000
0100
,
0100
0010
0001
0001
0010
1000
1000
0100
,
1000
0010
0001
0100
0100
0010
1000
0001
,
0010
0100
0100
0001
0010
0001
1000
1000
,
0001
1000
0100
0100
0001
0010
0010
1000
,
2001
0001
3001
0000
0210
0010
0310
0000
,
1010
1000
0101
0001
1100
0010
0011
0100
,
0010
1000
0010
0000
1000
0100
1000
0000
0001
0100
0001
0000
0010
0100
0010
0000
,
0001
1000
0001
0000
1000
0100
1000
0000
0010
0100
0010
0000
1000
0001
1000
0000
,
0100
0010
0100
0000
1000
0010
1000
0000
0001
1000
0001
0000
0010
0001
0010
0000
,
0011
0011
1000
0001
1100
1100
0010
0000
,
1000
0100
1000
0000
0010
1000
0010
0000
1000
0001
1000
0000
0001
0010
0001
0000
,
0100
0001
0100
0000
0001
1000
0001
0000
1000
0100
1000
0000
0010
1000
0010
0000
,
0100
0001
0100
0000
0010
1000
0010
0000
0100
0010
0100
0000
0010
1000
0010
0000
,
1010
1010
0001
1000
0101
0101
0010
0000
,
1000
0100
0010
0001
1000
0100
0010
0001
1000
0100
0010
0001
1000
0100
0010
0001
,
1000
0100
0010
0001
1000
0100
0010
0001
1000
0100
0010
0001
1000
0100
0010
0001
,
1000
0100
0010
0001
1000
0100
0010
0001
1000
0100
0010
0001
1000
0100
0010
0001
,
1000
0000
0000
0000
0000
0000
0000
0000
0010
0100
0010
0100
0010
0100
0010
0100
,
0001
0010
0100
1000
0001
0010
0100
1000
0001
0010
0100
1000
0001
0010
0100
1000
,
0001
0010
0100
1000
0001
0010
0100
1000
0001
0010
0100
1000
0001
0010
0100
1000
,
0001
0010
0100
1000
0001
0010
0100
1000
0001
0010
0100
1000
0001
0010
0100
1000
,
0001
0010
0100
1000
0001
0010
0100
1000
0010
0000
0010
0000
0010
0000
0010
0000
,
1000
0100
0010
0001
0010
0100
1000
0100
0010
0001
0010
0100
1000
0100
0010
0001
,
0010
0100
1000
0100
0010
0001
0010
0100
1000
0100
0010
0001
0010
0100
1000
0000
;

//---------------dance-double - ----------------
#NOTES:
     dance-double:
     :
     Easy:
     9:
     :
00000000
00000000
00000000
00000000
,
00000000
00000000
00000000
00000000
,
00000000
00000000
00000000
00000000
,
00000000
00000000
00000000
00000000
,
00000000
00000000
00000000
00000000
,
00000000
00000000
00000000
00000000
,
10000000
10000000
10000000
10000000
,
00010000
00010000
00010000
00010000
,
00001000
00001000
00001000
00001000
,
00000001
00000001
00000001
00000001
,
00000000
00000001
00000000
00000001
00000000
00000001
00000000
00000001
,
00000000
00000100
00000000
00000100
00001000
00000000
00011000
00000000
,
00000000
00010000
00000000
00010000
00000000
00010000
00000000
00010000
,
10000000
00000000
10000000
00000000
10000000
00000000
00010000
00000000
00010000
00000000
00010000
00000000
,
00000000
10000000
00000000
10000000
00000000
00010000
00000000
00010000
,
00000000
00000000
00000000
00000000
,
00000000
00001000
00000000
00001000
00000000
00000001
00000000
00000001
,
00000000
00000000
00000000
00000000
,
00000000
00000010
00000000
00000010
00000000
00000100
00000000
00000100
,
00000000
00000000
00000000
00000000
,
00000000
00100000
00000000
00100000
00000000
01000000
00000000
01000000
,
00000000
00000000
00000000
00000000
,
00000000
10000000
00000000
01000000
00000000
00100000
00000000
00010000
,
00000000
01000000
00000000
00001000
00000000
00010000
00000000
00000010
,
00000000
00001000
00000000
00000001
00000000
00000100
00000000
00000010
,
00000000
00001000
00000000
00000100
00010000
00000000
00011000
00000000
,
01000000
00000000
00100000
00000000
,
10000000
00000000
01000000
00000000
,
00010000
00000000
00001000
00000000
,
00010000
00000000
00010000
00000000
00010000
00000000
00001000
00000000
00001000
00000000
00001000
00000000
,
00100000
00001000
00010000
00000000
,
00000010
00010000
00001000
00000000
,
00100000
00001000
00010000
00000000
,
00000010
00010000
00001000
00000000
,
10000000
00001000
00010000
00000000
,
00000001
00010000
00001000
00000000
,
00011000
00000000
01100000
00000000
,
10010000
01100000
00011000
00000110
,
00000001
00000100
00000010
00001000
,
00000100
00010000
00001000
00100000
,
00000010
00000100
00000001
00001000
,
00000001
00000001
00000000
00000000
00001000
00001000
00000000
00000000
,
00000010
00010000
00001000
10000000
,
00100000
01000000
00001000
00010000
,
00000100
00000010
00001000
00010000
,
01000000
01000000
00000000
00000000
00100000
00100000
00000000
00000000
,
10000000
00100000
01000000
00010000
00100000
00001000
00001000
00001000
,
00010000
00000100
00000010
00000001
00000100
00000010
00000010
00000010
,
00001000
00000100
00010000
00001000
01000000
00100000
00100000
00100000
,
10000000
00000000
00000000
00000000
,
10000000
01000000
00100000
00010000
01000000
00001000
00001000
00001000
,
00010000
00000100
00000010
00000001
00000100
00000010
00000010
00000010
,
00001000
00000100
00010000
00001000
00100000
01000000
01000000
01000000
,
10000000
00100000
01000000
00010000
00000000
00000000
00000000
00000000
,
10000000
00100000
01000000
00010000
00100000
00001000
00001000
00001000
,
00010000
00000100
00001000
00000010
00000100
00000001
00000001
00000001
;

//---------------dance-double - ----------------
#NOTES:
     dance-double:
     :
     Medium:
     13:
     :
00000000
00000000
00000000
00000000
,
00000000
00000000
00000000
00000000
,
00000000
00000000
00000000
00000000
,
00000000
00000000
00000000
00000000
,
00000000
00000000
00000000
00000000
,
00000000
00000000
00000000
00000000
,
00000000
10000000
00000000
10000000
00000000
10000000
00000000
10000000
,
01000000
00010000
00000000
00010000
00000000
00010000
00000000
00010000
,
00001000
00000100
00000000
00000100
00000000
00000100
00000000
00000100
,
00000001
00000010
00000000
00000010
00000000
00000010
00000000
00000010
,
00000000
00000100
00000000
00000100
00000000
00000100
00000000
00000100
,
00001000
00000010
00000000
00000010
00010000
00000000
00011000
00000000
,
00000000
00001000
00000000
01000000
00000000
00100000
00000000
10000000
,
01000000
00000000
00100000
00000000
00010000
00000000
01000000
00000000
00001000
00000000
00010000
00000000
,
00000000
00001000
00000000
00001000
00000000
00000010
00000000
00000001
,
00000000
00000000
00000000
00000000
00001000
00000100
00010000
00000000
,
00000000
00010000
00000000
00010000
00000000
00100000
00000000
10000000
,
00000000
00000000
00000000
00000000
00010000
01000000
00001000
00000000
,
00000000
00001000
00000000
00001000
00000000
00000010
00000000
00000001
,
00000000
00000000
00000000
00000000
00001000
00000100
00001100
00000000
,
00000000
00010000
00000000
00010000
00000000
00100000
00000000
10000000
,
00000000
00000000
00000000
00000000
00010000
01000000
01010000
00000000
,
00100000
10000000
01000000
00100000
00010000
01000000
00001000
00010000
,
00000100
00000010
00000001
00000100
00000010
00001000
00000100
00010000
,
00001000
01000000
00010000
00100000
01000000
10000000
00100000
01000000
,
00001000
00010000
00000100
00000010
00000001
00000000
00001100
00000000
,
00010000
00010000
00010000
00000000
00001000
00001000
00001000
00000000
,
01000000
01000000
01000000
00000000
00100000
00100000
00100000
00000000
,
10000000
10000000
10000000
00000000
01000000
01000000
01000000
00000000
,
00100000
00000000
00010000
00000000
01000000
00000000
00001000
00000000
00010000
00000000
00000100
00000000
,
00000000
00000000
00000000
00000000
00000000
00000010
00000100
00000001
,
00000000
00000000
00000000
00000000
00000000
00001000
00000100
00010000
,
00000000
00000000
00000000
00000000
00000000
00001000
01000000
00100000
,
00000000
00000000
00000000
00000000
00000000
10000000
01000000
00100000
,
00000000
00000000
00000000
00000000
00000000
00010000
01000000
00001000
,
00000000
00000000
00000000
00000000
00000000
00010000
00000100
00000010
,
00001001
00000000
00011000
00000000
,
10010000
00101000
00010100
00001001
,
00000100
00010000
00000010
00001000
00000100
00010000
00000010
00001000
,
00000100
00010000
00000010
00001000
00000100
00010000
00000010
00001000
,
00000100
00010000
00000010
00001000
00000100
00010000
00000010
00001000
,
00000100
00000100
00000000
00000000
00010000
00010000
00000000
00000000
,
00001000
01000000
00010000
00100000
00001000
01000000
00010000
00100000
,
00001000
01000000
00010000
00100000
00001000
01000000
00010000
00100000
,
00001000
01000000
00010000
00100000
00001000
01000000
00010000
00100000
,
01000000
01000000
00000000
00000000
10000000
10000000
00000000
00000000
,
10000000
00100000
10000000
00100000
10000000
00100000
10000000
00100000
10000000
00100000
10000000
00100000
10000000
00100000
10000000
00100000
,
10000000
00100000
10000000
00100000
10000000
00100000
10000000
00100000
10000000
00100000
10000000
00100000
10000000
00100000
10000000
00100000
,
10000000
00100000
10000000
00100000
10000000
00100000
10000000
00100000
10000000
00100000
10000000
00100000
10000000
00100000
10000000
00100000
,
10000000
00000000
00000000
00000000
,
00000001
00000100
00000001
00000100
00000001
00000100
00000001
00000100
00000001
00000100
00000001
00000100
00000001
00000100
00000001
00000100
,
00000001
00000100
00000001
00000100
00000001
00000100
00000001
00000100
00000001
00000100
00000001
00000100
00000001
00000100
00000001
00000100
,
00000001
00000100
00000001
00000100
00000001
00000100
00000001
00000100
00000001
00000100
00000001
00000100
00000001
00000100
00000001
00000100
,
00000001
00000100
00000001
00000100
00000001
00000100
00000001
00000100
00000000
00000000
00000000
00000000
00000000
00000000
00000000
00000000
,
00010000
00001000
00010000
00001000
00010000
00001000
00010000
00001000
00010000
00001000
00010000
00001000
00010000
00001000
00010000
00001000
,
00010000
00001000
00010000
00001000
00010000
00001000
00010000
00001000
00010000
00001000
00010000
00001000
00010000
00001000
00010000
00001000
;

//---------------dance-double - ----------------
#NOTES:
     dance-double:
     :
     Hard:
     13:
     :
00000000
00000000
00000000
00000000
,
00000000
00000000
00000000
00000000
,
00000000
00000000
00000000
00000000
,
00000000
00000000
00000000
00000000
,
00000000
00000000
00000000
00000000
,
00000002
00002003
00003020
00000230
,
00000310
00000000
00000000
00001000
00000000
00000000
00010000
00000000
01000000
00000000
01000000
00000000
01000000
00000000
00000000
00000000
,
00200000
20300000
30020000
02030000
,
03100000
00000000
00000000
10000000
00000000
00000000
00010000
00000000
00000100
00000000
00000100
00000000
00000100
00000000
00000000
00000000
,
00000001
00000010
00000100
00000010
00000001
00000100
00000010
00000100
,
00000001
00000010
00000100
00000010
00001001
00000000
00001001
00000000
,
00001000
01000000
00010000
01000000
00001000
00100000
00010000
00100000
,
10010000
00000000
10010000
00000000
10010000
00000000
10010000
00000000
10010000
00000000
10010000
00000000
,
02000000
03002000
00003020
00000032
,
00000103
00000010
00000000
00000010
00001000
00000010
00000000
00000010
00000000
00000010
00000200
00000000
00000000
00000000
00000000
00000000
,
00020300
20030000
32000000
03200000
,
00301000
00010000
00000000
00010000
00000010
00010000
00000000
00010000
00000000
00010000
02000000
00000000
00000000
00000000
00000000
00000000
,
23000000
30200000
00302000
00003020
,
00000031
00000100
00000000
00000100
00000010
00000100
00000000
00000001
00000000
00001000
00000002
00000000
00000000
00000000
00000000
00000000
,
00000203
00000320
00002030
00023000
,
10030000
00010000
00000000
00010000
01000000
00010000
00000000
10000000
00000000
00100000
02000000
00000000
00000000
00000000
00000000
00000000
,
03001000
00100000
10000000
00100000
00010000
01000000
00100000
00010000
,
00000100
00000001
00000010
00000100
00000001
00000100
00000010
00000001
,
00001000
00000010
00000100
00001000
00000100
00000010
00010000
00001000
,
01000000
00100000
01000000
00010000
00110000
00000000
00110000
00000000
,
00010000
00000100
00000010
00001000
00000010
00000100
00000010
00000001
,
00000100
00001000
00000100
00000010
00001000
00000001
00000010
00001000
,
00100000
00001000
01000000
00100000
00010000
00100000
10000000
01000000
,
01100000
00000000
01100000
00000000
01100000
00000000
01100000
00000000
01100000
00000000
01100000
00000000
,
00020000
00000000
20030000
00000000
30100000
01000000
00001000
00000000
,
00010000
00000100
00010000
00000010
00000200
00000001
00000301
00000000
,
00000010
00000001
00001000
00000010
00020000
00000100
00030100
00000000
,
00001100
00001100
00000000
00000101
00000101
00000000
00001000
00000001
,
00000100
00000010
00001000
00000001
00000100
00010000
00100000
00000000
,
10000000
10010000
00000000
01000000
01100000
00100000
10000000
00010000
,
20200000
30300000
00022000
00033000
,
01001000
00001100
00000011
00010100
,
00000010
00000100
00001000
00000100
00000001
00000010
00001000
01000000
,
00100000
00010000
00100000
01000000
10000000
01000000
00001000
00010000
,
01000000
00100000
00001000
00010000
00000010
00000100
00000001
00001000
,
00001100
00001100
00000001
00000000
00000101
00000101
00001000
00000000
,
00000100
00010000
00001000
01000000
10000000
01000000
00100000
01000000
,
10000000
01000000
00010000
00100000
10000000
00100000
00001000
01000000
,
00100000
00010000
00100000
10000000
01000000
00100000
00001000
00010000
,
01100000
01100000
00100000
00000000
10010000
10010000
01000000
00000000
,
10000000
01000000
10000000
01000000
10000000
01000000
10000000
01000000
10000000
01000000
10000000
01000000
10000000
01000000
10000000
01000000
,
10000000
01000000
10000000
01000000
10000000
01000000
10000000
01000000
10000000
01000000
10000000
01000000
10000000
01000000
10000000
01000000
,
10000000
01000000
10000000
01000000
10000000
01000000
10000000
01000000
10000000
01000000
10000000
01000000
10000000
01000000
10000000
01000000
,
20000000
30000000
00202000
00303000
,
00000010
00000001
00000010
00000001
00000010
00000001
00000010
00000001
00000010
00000001
00000010
00000001
00000010
00000001
00000010
00000001
,
00000010
00000001
00000010
00000001
00000010
00000001
00000010
00000001
00000010
00000001
00000010
00000001
00000010
00000001
00000010
00000001
,
00000010
00000001
00000010
00000001
00000010
00000001
00000010
00000001
00000010
00000001
00000010
00000001
00000010
00000001
00000010
00000001
,
00000010
00000001
00000010
00000001
00000010
00000001
00000010
00000001
00000010
00000000
00000100
00000000
00000010
00000000
00000110
00000000
,
00010000
00001000
00010000
00001000
00010000
00001000
00010000
00001000
00010000
00001000
00010000
00001000
00010000
00001000
00010000
00001000
,
00010000
00001000
00010000
00001000
00010000
00001000
00010000
00001000
00010000
00001000
00010000
00001000
00010000
00001000
00010000
00001000
;

//---------------dance-double - ----------------
#NOTES:
     dance-double:
     :
     Challenge:
     16:
     :
00000000
00000000
00000000
00000000
,
00000000
00000000
00000000
00000000
,
00000000
00000000
00000000
00000000
,
00000000
00000000
00000000
00000000
,
00000000
00000000
00000000
00000000
,
01000000
00000000
00010000
00100000
00010000
00000000
10000000
01000000
10000000
00000000
00100000
01000000
00200000
00000000
00000000
00000000
,
00301000
00000000
00000100
00000001
00000000
00000001
00000010
00000000
00000011
00000000
00001001
00000000
00001100
00000000
00000000
00000000
,
00010000
00000000
00000100
00000010
00000100
00000000
00001000
01000000
00001000
00000000
01000000
00100000
02000000
00000000
00000000
00000000
,
13000000
00000000
00010000
01000000
00000000
01000000
00100000
00000000
10100000
00000000
01100000
00000000
01010000
00000000
00000000
00000000
,
00001000
00000000
01000000
00100000
01000000
00000000
00100000
01000000
00100000
00000000
01000000
00100000
01000000
00000000
00100000
01000000
,
00100000
00000000
01000000
00100000
10000000
00000000
00010000
00000000
00110000
00000000
00000000
00000000
00110000
00000000
00000000
00000000
,
01000000
00000000
00001000
00010000
00001000
00000000
00010000
00001000
00010000
00000000
00001000
00010000
00001000
00000000
00010000
00000000
,
00101000
00000000
11000000
00000000
01001000
00000000
00011000
00000000
00000011
00000000
00000101
00000000
,
00010020
00010030
00010200
00010300
00021000
01030000
02100000
00000000
,
03100000
00010000
00000000
10000000
01000000
10000000
00000000
00100000
00000000
01000000
00010000
00000000
00100000
00000000
00000000
00000000
,
20010000
30010000
01020000
01030000
02001000
03001000
00012000
00000000
,
00003010
00000001
00000000
00000100
00000010
00000100
00000000
00000001
00000000
00001000
00000100
00000000
00010000
00000000
00000010
00000000
,
00001020
00000130
00000102
00001003
00001200
00010300
00020010
00000000
,
01030000
00100000
00000000
00010000
01000000
00010000
00000000
10000000
00000000
00100000
01000000
00000000
00001000
00000000
00000000
00000000
,
01020000
00130000
01200000
01300000
21000000
30010000
00210000
00000000
,
00301000
00000000
00000000
00000010
00000000
00000000
00000000
00000000
00000000
00000001
00000000
00000000
00000100
00000000
00000000
00000001
00000000
00000000
00000000
00000000
00000000
00000010
00000000
00000000
00000000
00000000
00000000
00000010
00000000
00000000
00000100
00000000
00000000
00000000
00000000
00000000
00001000
00000000
00000000
00000000
00000100
00000000
00000000
00000000
00010000
00000000
00000000
00000000
,
00100000
00000000
10000000
00000000
01000000
00100000
01000000
00100000
01000000
00000000
00010000
00000000
00001000
00000000
00000100
00000000
,
00000001
00000000
00000010
00000000
00000100
00010000
00000100
00010000
00000100
00000000
00000001
00000000
00000100
00000000
00001000
00000000
,
00100000
00000000
01000000
00000000
00010000
10000000
00010000
10000000
00010000
00000000
00000100
00000000
00000010
00000000
00001000
00000000
,
00000001
00000000
00000100
00000010
00000000
00000010
00001000
00000000
00001100
00000000
00000000
00000000
00001100
00000000
00000000
00000000
,
00000001
00000010
00000100
00001000
00000010
00010000
00001000
01000000
00100000
01000000
00001000
00010000
,
01000000
00100000
00010000
10000000
00100000
01000000
00001000
00010000
00000100
00000010
00000001
00001000
,
00000010
00010000
00000100
00000010
00000001
00001000
00000010
00000100
00000001
00001000
00000000
00000000
,
00010100
00000000
01001000
00000000
01100000
00000000
10010000
00000000
00101000
00000000
00010010
00000000
,
00000100
00000001
00000010
00001000
01000000
00100000
01000000
00010000
,
00100000
10000000
00100000
01000000
00100000
00001000
01000000
10000000
,
01000000
00100000
10000000
01000000
00010000
00000010
00001000
00000001
,
00000100
00000010
00000001
00000010
00010000
00000100
10000000
00010000
,
01000000
10000000
01000000
00100000
10000000
00010000
00100000
00001000
,
01000000
00100000
00010000
00000100
00000010
00010000
00001000
00000100
,
00002001
00000001
00003001
00000000
00000120
00000100
00000130
00000000
,
00000101
00000001
00000011
00001000
00001100
00000010
00001010
00000100
,
00000001
00000000
00001000
00000100
00001000
00000000
00000100
00010000
00000100
00000000
01000000
00100000
01000000
00000000
00010000
10000000
,
00010000
00000000
00100000
10000000
00100000
00000000
00010000
01000000
00010000
00000000
00100000
00001000
00100000
00000000
00010000
00000010
,
00010000
00000000
01000000
00100000
01000000
00000000
10000000
00010000
10000000
00000000
00001000
00100000
00001000
00000000
00010000
00000000
,
00010010
00010010
00000100
00000001
00001010
00001010
00010000
00000000
,
00000100
00000000
00000010
00000001
00000010
00000000
00000001
00001000
00000001
00000000
00001000
01000000
00001000
00000000
01000000
10000000
,
01000000
00000000
10000000
00010000
10000000
00000000
00100000
01000000
00100000
00000000
01000000
00001000
01000000
00000000
00001000
00010000
,
00001000
00000000
00100000
01000000
00100000
00000000
00001000
00000100
00001000
00000000
00000100
00000010
00000100
00000000
00000010
00000000
,
00001010
00001010
00000001
00000100
00000110
00000110
00001000
00000000
,
00000001
00000010
00000100
00001000
00000001
00000010
00000100
00001000
00000001
00000010
00000100
00001000
00000001
00000010
00000100
00001000
,
00000001
00000010
00000100
00001000
00000001
00000010
00000100
00001000
00000001
00000010
00000100
00001000
00000001
00000010
00000100
00001000
,
00000001
00000010
00000100
00001000
00000001
00000010
00000100
00001000
00000001
00000010
00000100
00001000
00000001
00000010
00000100
00001000
,
00000001
00000000
00000000
00000000
00000000
00000000
00000000
00000000
00000100
00010000
00000100
00010000
00000100
00010000
00000100
00010000
,
10000000
01000000
00100000
00010000
10000000
01000000
00100000
00010000
10000000
01000000
00100000
00010000
10000000
01000000
00100000
00010000
,
10000000
01000000
00100000
00010000
10000000
01000000
00100000
00010000
10000000
01000000
00100000
00010000
10000000
01000000
00100000
00010000
,
10000000
01000000
00100000
00010000
10000000
01000000
00100000
00010000
10000000
01000000
00100000
00010000
10000000
01000000
00100000
00010000
,
10000000
01000000
00100000
00010000
10000000
01000000
00100000
00010000
10000000
00000000
10000000
00000000
10000000
00000000
10000000
00000000
,
10000000
01000000
00100000
00010000
00001000
00000100
00000010
00000001
00000010
00000100
00001000
00010000
00100000
01000000
10000000
01000000
,
00100000
00010000
00001000
00000100
00000010
00000001
00000010
00000100
00001000
00010000
00100000
01000000
10000000
01000000
00100000
00010000
;
