#TITLE:real-high-SPEED;
#ARTIST:Makoto feat. SK;
#BANNER:real-high-SPEED.png;
#BACKGROUND:real-high-SPEED-bg.png;
#JACKET:real-high-SPEED-jacket.png;
#MUSIC:real-high-SPEED.ogg;
#SAMPLESTART:15.8;
#SAMPLELENGTH:20;
#DISPLAYBPM:131;
#BPMS:0=130.3,4=130.65;
#BGCHANGES:;

//---------------dance-single - ----------------
#NOTES:
     dance-single:
     :
     Beginner:
     2:
     :
0000
0000
0000
0000
,
0000
0000
0000
0000
,
0000
0000
0000
0000
,
0000
0000
0000
0000
,
0000
0000
0000
0000
,
0001
0000
0001
0000
,
1000
0000
1000
0000
,
0001
0000
0001
0000
,
1000
0000
1000
0000
,
0100
0000
0000
0000
,
0010
0000
0000
0000
,
0100
0000
0100
0000
,
0100
0000
0000
0000
,
1000
0000
1000
0000
,
0001
0000
0001
0000
,
0100
0000
0100
0000
,
0010
0000
0010
0000
,
1000
0000
0001
0000
,
1000
0000
0001
0000
,
0001
0000
0000
0000
,
0010
0000
0000
0000
,
0100
0000
0000
0000
,
1000
0000
0000
0000
,
0001
0000
0001
0000
,
0010
0000
0010
0000
,
0100
0000
0100
0000
,
1000
0000
1000
0000
,
0000
0000
0000
0000
,
0001
0000
0000
0000
,
1000
0000
0000
0000
,
0001
0000
0000
0000
,
0100
0000
0100
0000
,
0100
0000
0000
0000
,
0010
0000
0000
0000
,
1000
0000
0000
0000
,
0001
0000
0001
0000
,
1000
0000
0000
0000
,
1000
0000
1000
0000
,
0001
0000
0001
0000
,
0000
0000
0000
0000
,
0100
0000
0100
0000
,
0001
0000
0001
0000
,
1000
0000
1000
0000
,
0000
0000
0000
0000
,
0010
0000
0000
0000
,
0000
0000
0000
0000
,
1000
0000
0001
0000
,
0001
0000
1000
0000
,
0100
0000
0100
0000
,
0100
0000
0000
0000
,
1000
0000
0001
0000
,
0001
0000
1000
0000
,
0100
0000
0100
0000
,
0010
0000
0010
0000
,
1000
0000
0001
0000
,
1000
0000
0001
0000
,
1001
0000
0000
0000
,
0000
0000
0000
0000
;

//---------------dance-single - ----------------
#NOTES:
     dance-single:
     :
     Easy:
     4:
     :
0000
0000
0000
0000
,
0000
0000
0000
0000
,
0000
0000
0000
0000
,
0000
0000
0000
0000
,
0000
0000
0000
0000
,
0001
1000
0001
0000
,
1000
0001
1000
0000
,
0100
0001
0010
0000
,
0100
1000
0010
0000
,
1000
1000
0100
0000
,
0001
0001
0100
0000
,
0020
0000
0130
0100
,
0001
1000
1001
0000
,
0010
0010
1000
0000
,
0010
0010
0001
0000
,
1000
0000
0001
0010
,
0100
0100
1001
0000
,
0001
0000
1000
0010
,
0001
0010
0100
0000
,
0001
0100
0100
0000
,
0010
0100
0100
0000
,
1000
0100
0100
0000
,
0100
0001
1000
0001
,
0010
0100
0100
0000
,
1000
0100
0100
0000
,
0001
0100
0100
0000
,
0001
0100
0010
1000
,
0000
0000
0000
0000
,
2000
0000
3000
0000
,
0002
0000
0003
0000
,
0200
0000
0300
0000
,
0020
0000
0030
0000
,
1000
1000
0001
0001
,
0100
0100
0010
0010
,
0110
0000
0000
0000
,
1000
0001
0100
0000
,
0010
0000
0100
0100
,
0001
0000
1000
0000
,
0010
0000
0100
0000
,
0001
0010
0100
1000
,
0001
0001
0010
0000
,
1000
1000
0010
0000
,
0200
0000
0000
0300
,
0000
0000
0000
0000
,
2002
0000
0000
3003
,
0000
0000
0000
0000
,
0001
0001
0100
0000
,
1000
1000
0100
0000
,
0020
0000
0130
0100
,
1000
0001
1001
0000
,
0010
0010
0001
0000
,
0010
0010
1000
0000
,
0001
0000
1000
0010
,
0100
0100
1001
0000
,
1000
0000
0001
0010
,
1000
0010
0100
0000
,
2002
0000
0000
0000
0000
0000
0000
3003
,
0000
0000
0000
0000
;

//---------------dance-single - ----------------
#NOTES:
     dance-single:
     :
     Medium:
     6:
     :
0000
0000
0000
0000
,
0000
0000
0000
0000
,
0000
0000
0000
0000
,
0000
0000
0000
0000
,
0000
0000
0000
0000
,
1000
1000
0001
0001
,
0100
0000
0100
0000
0001
1000
0001
0000
,
0010
0010
0100
0100
,
0001
1000
1001
0000
,
1000
0000
0100
0000
0001
0000
1000
0100
,
0001
0100
1000
0010
,
0100
0001
0010
0100
,
1000
0001
0100
0001
1000
0000
0000
0000
,
0001
0000
0010
0000
0100
0000
0001
0100
,
0010
1000
0002
0103
,
1000
0100
1000
0000
0001
0100
0001
0000
,
0010
0100
1001
0000
,
1000
0100
0001
0010
,
1000
0001
0110
0000
,
1000
0100
0001
0100
,
1000
0100
0001
0000
,
1000
0010
0100
0001
,
0010
1000
0100
0001
,
0100
1000
0100
0001
,
0100
1000
0001
0000
,
0100
0010
1000
0100
,
0001
0010
1000
0100
,
0000
0000
0000
0000
,
2010
0000
0000
3000
,
0201
0000
0000
0300
,
1002
0000
0000
0003
,
0120
0000
0100
0130
,
0001
0000
0001
0001
0010
0000
0000
0000
,
1000
0000
1000
1000
0100
0000
0000
0000
,
0010
0000
0010
0010
1000
0000
0001
0000
,
0100
0100
0001
0000
1001
0000
0000
0000
,
2000
0100
0001
3001
,
0010
1000
0010
0010
,
0002
0100
1000
1003
,
0001
0010
0100
0000
1000
0000
0100
0000
,
0020
0001
0001
0031
,
0200
1000
1000
1300
,
2020
0000
0000
3030
,
0000
0000
0000
0000
,
0202
0000
0000
0303
,
0000
0000
0000
0000
,
0001
0000
0100
0000
1000
0000
0001
0100
,
1000
0100
0001
0010
,
0100
1000
0010
0100
,
0001
1000
0100
1000
0001
0000
0000
0000
,
1000
0000
0010
0000
0100
0000
1000
0100
,
0010
0001
2000
3100
,
0001
0100
0001
0000
1000
0100
1000
0000
,
0010
0100
2002
3003
,
0001
0100
1000
0000
0010
0000
0001
0000
,
1000
0001
1000
0000
0110
0000
0000
0000
,
2002
0000
0000
0000
0000
0000
0000
3003
,
0000
0000
0000
0000
;

//---------------dance-single - ----------------
#NOTES:
     dance-single:
     :
     Hard:
     8:
     :
0000
0000
0000
0000
,
0000
0000
0000
0000
,
0000
0000
0000
0000
,
0000
0000
0000
0000
,
0000
0000
0000
0000
,
1000
0000
0001
0100
0010
1000
0100
0000
,
0001
0000
0100
0010
0001
1000
0100
0000
,
1100
0000
0101
0000
0010
1000
0001
0000
,
0100
0010
1000
0010
0001
0000
0000
0000
,
1000
0000
0110
0000
0001
0000
1000
0100
,
0001
0000
0110
0000
1000
0000
0001
0010
,
1000
0010
0001
0100
,
0010
1000
0100
0010
0001
0000
0000
0000
,
0010
0000
1001
0000
0100
0000
0010
1000
,
0100
0000
1001
0000
0010
0000
0100
0001
,
0010
0000
0100
0000
1000
0001
1000
0000
,
1100
0101
2002
3003
,
0001
0010
1000
0000
0100
0001
0010
0000
,
1000
0100
0001
0010
0100
0000
0000
0000
,
1000
0000
0000
0100
0000
0000
0010
0000
0000
0001
0000
0000
0001
0000
0000
0000
,
0100
0000
0000
0001
0000
0000
1000
0000
0000
0010
0000
0000
0010
0000
0000
0000
,
0001
0000
0000
0010
0000
0000
0100
0000
0000
1000
0000
0000
1000
0000
0000
0000
,
0010
0000
0000
1000
0000
0000
0001
0000
0000
0010
0000
0000
0100
0000
0100
0000
,
1000
0000
0000
0100
0000
0000
0010
0000
0000
0001
0000
0000
0011
0000
0000
0000
,
0100
0000
0000
0010
0000
0000
0001
0000
0000
1000
0000
0000
1100
0000
0000
0000
,
0010
0000
0000
1000
0000
0000
0001
0000
0000
0100
0000
0000
0110
0000
0000
0000
,
0001
0000
0000
1000
0000
0000
0010
0000
0000
0100
0000
0000
0001
0000
1001
0000
,
0000
0000
0000
0000
,
0200
0000
0001
0000
0010
0010
1300
0000
,
0020
0000
1000
0000
0001
0001
0130
0000
,
0002
0000
1000
0000
0013
0100
0010
0000
,
2000
0000
0001
0000
3100
0010
0100
0000
,
1000
0100
0001
0100
0200
0000
0310
0000
,
0001
0010
1000
0010
0020
0000
0130
0000
,
2100
3001
0102
1003
,
1000
0010
0100
0001
1000
0000
0000
0000
,
1100
0000
0000
0110
0000
0000
0011
0000
,
1000
0000
0010
0000
0001
0100
1000
0000
,
0101
0000
0001
1001
0000
1000
1010
0000
,
1000
0100
1000
0100
0010
0001
0010
0000
,
0001
0000
0000
0000
0100
0000
0000
0000
1010
0000
0000
0001
0000
0000
0101
0000
,
0010
0000
0000
0000
1000
0000
0000
0000
0001
0000
0000
0110
0000
0000
0100
0000
,
2002
0000
0000
3003
,
1000
0100
0001
0100
1000
0100
0101
0000
,
2002
0000
0000
3003
,
0010
0000
0000
0110
0000
0000
0100
0000
0110
0000
0000
0000
0000
0000
0000
0000
,
0001
0000
0110
0000
1000
0100
0001
0010
,
1000
0000
0110
0000
0001
0010
1000
0100
,
0001
0100
1000
0010
,
0100
0001
0010
0100
1000
0000
0000
0000
,
0100
0000
1001
0000
0010
1000
0100
0001
,
0010
0000
1001
0000
0100
0001
0010
1000
,
0100
0000
0010
0000
0001
1000
0001
0000
,
0011
1010
2002
3003
,
1000
0100
0001
0000
0010
1000
0100
0000
,
0001
0010
1000
0100
0110
0000
0000
0000
,
2002
0000
0000
0000
0000
0000
0000
3003
,
0000
0000
0000
0000
;

//---------------dance-single - ----------------
#NOTES:
     dance-single:
     :
     Challenge:
     13:
     :
0000
0000
0000
0000
,
0000
0000
0000
0000
,
0000
0000
0000
0000
,
0000
0000
0000
0000
,
0000
0000
0000
0000
,
1000
0010
0000
1000
0010
0000
0100
0001
0000
0100
0001
0000
0010
0000
0100
0000
,
1000
0100
0000
1000
0100
0000
0010
0001
0000
0010
0001
0000
1000
0000
0001
0000
,
0100
0010
0000
0100
0010
0000
1000
0001
0000
1000
0001
0000
1000
0000
0100
0000
,
0001
0001
1000
0010
0010
0101
0000
1000
,
1100
0000
0000
0110
0000
0000
0011
0000
0000
0000
0100
0000
0010
0000
1000
0000
,
0001
0000
1000
0010
0000
1000
0001
0000
2200
0000
0000
0000
3300
0000
0001
0100
,
0001
0000
0000
1000
0010
0000
0100
0000
0001
0000
0010
0001
0000
1000
0100
0000
,
1010
0000
0000
0101
0000
0000
0001
0000
1000
0000
0011
0000
0000
0000
0100
0000
,
0101
0000
0000
1001
0000
0000
1100
0000
0000
0000
0001
0000
0100
0000
1000
0000
,
0010
0000
0000
1001
0000
0000
0220
0000
0000
0000
0330
0000
0001
0100
0001
0100
,
0001
0000
0010
0000
0010
0000
0001
0000
1000
0100
0000
1000
0100
0000
0010
0000
,
0011
0000
0000
0101
0000
0000
2020
0000
0000
0000
3030
0000
0100
0010
0100
0010
,
0100
0000
0001
0000
0001
0000
1000
0000
1000
0000
0000
0010
0100
0000
0001
0000
,
0010
0000
0001
0000
0001
0000
0100
0000
0101
0000
0000
1100
0000
0000
1001
0000
,
0110
0000
0000
1000
0010
0000
0100
0001
0000
0100
0001
0000
0010
0000
0000
0000
,
0100
0000
0000
1000
0001
0000
0010
0100
0000
0010
0100
0000
1000
0000
0000
0000
,
0001
0000
0000
0010
0001
0000
1000
0010
0000
1000
0010
0000
0100
0000
0000
0000
,
0011
0000
0000
1100
0000
0000
0101
0000
0000
1010
0000
0000
1001
0000
0110
0000
,
1000
0000
0000
0010
0100
0000
0001
1000
0000
0100
0010
0000
0001
0000
0000
0000
,
0010
0000
0000
0001
0100
0000
0010
1000
0000
0001
1000
0000
0100
0000
0000
0000
,
0001
0000
0000
1000
0010
0000
0100
0001
0000
0010
0100
0000
1000
0000
0000
0000
,
1010
0000
0000
0101
0000
0000
0011
0000
0000
1100
0000
0000
1001
0000
0110
0000
,
1000
0000
0100
0000
0001
0000
0100
0000
1000
0000
0010
0100
0010
0100
0010
0100
,
0010
0000
1000
0000
1000
0000
0001
0000
0001
0000
0000
0010
0001
0000
0100
0000
,
0010
0000
0000
1000
0100
0000
0010
0000
0001
0100
0001
0000
1000
0000
0000
0000
,
0100
0000
1000
0000
1000
0000
0010
0000
0010
0000
0000
0100
0001
0000
1000
0000
,
0001
0000
0000
0010
0001
0000
0100
0000
1000
0010
1000
0000
0100
0000
0000
0000
,
0010
0000
0001
0000
0001
0000
0100
0000
0100
0000
0010
1000
0000
0010
1000
0000
,
0100
0000
0100
0000
1000
0000
1000
0000
0001
0000
0100
0010
0000
0100
0010
0000
,
1000
0000
0100
0000
0100
0000
0010
0000
0010
0000
0001
1000
0000
0001
1000
0000
,
0010
0000
1000
0000
1000
0000
0001
0000
0001
0000
1000
0100
0000
1000
0100
0000
,
1001
0010
0100
1010
0001
1000
1100
0000
,
0010
0001
1000
0001
0100
0010
1000
0000
,
1010
0001
0100
0101
0010
1000
1001
0002
,
0023
0000
0000
0230
0000
0000
2300
3020
2030
0000
0000
3002
0000
0000
0203
0000
,
0310
0000
0100
0000
0100
0000
0001
0000
0010
0000
0001
1000
0000
0001
1000
0000
,
0100
0000
1000
0000
1000
0000
0001
0000
0100
0000
0010
1000
0000
0010
1000
0000
,
0200
0000
0000
2300
0000
0000
3002
0000
0203
0000
0000
0302
0000
0000
0023
0000
,
0000
0031
1000
0001
1000
0000
0010
0100
0010
0100
0000
0001
0000
1000
0100
0000
,
0010
0000
0001
0000
0001
0000
0100
0000
0100
0000
0010
1000
0000
1000
0001
0000
,
1100
0000
0000
0011
0000
0000
1100
0000
0011
0000
1001
0000
0010
0100
0010
0000
,
1010
0000
0000
0110
0000
0000
0101
0000
0000
0000
0010
0001
0000
1000
0100
0000
,
1010
0000
0000
1001
0000
0000
1100
0000
0022
0000
0000
0000
0033
0000
1000
0100
,
1000
0000
0000
0010
0100
0000
0001
0000
0010
0000
0001
0000
0100
0000
1000
0000
,
0010
0000
0000
1000
0100
0000
0010
0000
0001
0000
0110
0000
1000
0000
0001
0000
,
0011
0000
0000
1001
0000
0000
1100
0000
0000
0000
0010
0100
0000
0001
1000
0000
,
1001
0000
0000
0101
0000
0000
0022
0000
0000
0000
0033
0000
1000
0010
1000
0010
,
1000
0000
0100
0000
0100
0000
1000
0000
0010
0100
0000
0100
0001
0000
1000
0000
,
1001
0000
0000
0011
0000
0000
2020
0000
0000
0000
3030
0000
0100
0001
0100
0001
,
0100
0000
0010
0000
1000
0000
0001
0000
0010
0001
0000
0001
1000
0000
0100
0000
,
1000
0000
0010
0000
0001
0000
0100
0000
0101
0000
0000
1100
0000
0000
1001
0000
,
0120
0000
0000
0001
0000
0000
1000
0000
0000
0001
0000
0000
1000
0000
0000
0000
,
0200
0000
0000
0000
,
0330
0000
0000
0000
;

//---------------dance-double - ----------------
#NOTES:
     dance-double:
     :
     Easy:
     4:
     :
00000000
00000000
00000000
00000000
,
00000000
00000000
00000000
00000000
,
00000000
00000000
00000000
00000000
,
00000000
00000000
00000000
00000000
,
00000000
00000000
00000000
00000000
,
00010000
10000000
00010000
00000000
,
00100000
00001000
00100000
00000000
,
00001000
00010000
00001000
00000000
,
00000100
00000001
00000010
00000000
,
00001000
00001000
00000100
00000000
,
00010000
00010000
00001000
00000000
,
00100000
00100000
01000000
01000000
,
10000000
00010000
10010000
00000000
,
00100000
00100000
00010000
00000000
,
00001000
00001000
00010000
00000000
,
00000100
00000000
00000010
00000001
,
00000100
00000100
00001001
00000000
,
00001000
00000000
00010000
00000000
,
00001000
00010000
01000000
00000000
,
10000000
01000000
01000000
00000000
,
00100000
00010000
00010000
00000000
,
00001000
00000100
00000100
00000000
,
00000100
00000010
00000100
00000010
,
00000001
00000100
00000100
00000000
,
00000010
00001000
00001000
00000000
,
00010000
00001000
00001000
00000000
,
00010000
01000000
00100000
10000000
,
00000000
00000000
00000000
00000000
,
20000000
00000000
30000000
00000000
,
00020000
00000000
00030000
00000000
,
00002000
00000000
00003000
00000000
,
00000200
00000000
00000300
00000000
,
00000001
00000001
00001000
00001000
,
00000100
00001000
00000100
00000000
,
00010000
00010000
01000000
01000000
,
10000000
00010000
01000000
00000000
,
00001000
00000000
00020000
00031000
,
00001000
00000000
00000100
00000010
,
00000020
00000030
00000200
00000300
,
00000001
00001000
00001000
00000000
,
00010000
00010000
00100000
00000000
,
10000000
10000000
01000000
00000000
,
00022000
00000000
00000000
00033000
,
00000000
00000000
00000000
00000000
,
00002002
00000000
00000000
00003003
,
00000000
00000000
00000000
00000000
,
00001000
00001000
00000010
00000000
,
00010000
00010000
00001000
00000000
,
01000000
01000000
00100000
00100000
,
10000000
00010000
10010000
00000000
,
01000000
01000000
00010000
00000000
,
00001000
00001000
00010000
00000000
,
00000010
00000000
00000100
00000001
,
00000010
00000010
00001001
00000000
,
00001000
00000000
00010000
00000000
,
00001000
00010000
00100000
00000000
,
20020000
00000000
00000000
00000000
00000000
00000000
00000000
30030000
,
00000000
00000000
00000000
00000000
;

//---------------dance-double - ----------------
#NOTES:
     dance-double:
     :
     Medium:
     6:
     :
00000000
00000000
00000000
00000000
,
00000000
00000000
00000000
00000000
,
00000000
00000000
00000000
00000000
,
00000000
00000000
00000000
00000000
,
00000000
00000000
00000000
00000000
,
00010000
00000000
00001000
00000000
00010000
00001000
00100000
00000000
,
01000000
10000000
01000000
00100000
,
00011000
00000000
00000100
00000010
,
00000001
00000000
00001000
00000100
00010000
00000000
00000000
00000000
,
00010000
01000000
10000000
11000000
,
00020000
00031000
00011000
00000000
,
00001000
00000100
00000001
00000101
,
00000010
00000000
00000100
00001000
00010000
00000000
00000000
00000000
,
00010000
01000000
10000000
10010000
,
00100000
00001000
00000010
00000000
,
00000001
00000100
00001000
00010000
,
01000000
00100000
01100000
00000000
,
10000000
00000000
00010000
00000000
00100000
00001000
00010000
00000000
,
00000010
00000100
00000110
00000000
,
00000001
00000010
00001000
00000100
,
00000001
00000010
00001000
00000000
,
00010000
01000000
10000000
00100000
,
00010000
00000000
01000000
00000000
00100000
00000000
00001000
00010000
,
00001000
00000010
00000001
00000100
,
00001000
00000010
00000100
00000000
,
00010000
00100000
10000000
01000000
,
00010000
00100000
01000000
10000000
,
00000000
00000000
00000000
00000000
,
00102000
00000000
00010000
00003000
,
00020100
00000000
00030010
00000100
,
00001002
00000000
00000100
00000003
,
00000010
00000000
00000100
00000000
00001000
00000100
00001000
00000000
,
00020010
00000000
00001000
00030000
,
01002000
00000000
00103000
01000000
,
20010000
00000000
01000000
30000000
,
00100000
00000000
00001000
00010000
00000100
00000000
00000000
00000000
,
00000001
00000000
00000000
00000110
00000000
00000000
00001000
00000000
,
00010000
00001000
00100000
01000000
,
10000000
00000000
00000000
01100000
00000000
00010000
00002000
00000000
,
00000000
00000000
00003000
00000000
,
00010000
00000000
00001000
00000000
00000010
00000100
00000010
00000000
,
00000100
00001000
00000100
00020000
,
00002000
00000000
00000000
00033000
,
00000000
00000000
00000000
00000000
,
02200000
00000000
00000000
00000000
,
03300000
00000000
00000000
00000000
,
00001000
00000100
00000001
00000101
,
00002000
00013000
00011000
00000000
,
00010000
01000000
10000000
11000000
,
00100000
00000000
01000000
00010000
00001000
00000000
00000000
00000000
,
00001000
00000100
00000001
00001001
,
00000010
00010000
00100000
00000000
,
10000000
01000000
00010000
00001000
,
00000100
00000010
00000110
00000000
,
00000001
00000000
00001000
00000000
00000010
00010000
00001000
00000000
,
00100000
01000000
01100000
00000000
,
20020000
00000000
00000000
00000000
00000000
00000000
00000000
30030000
,
00000000
00000000
00000000
00000000
;

//---------------dance-double - ----------------
#NOTES:
     dance-double:
     :
     Hard:
     9:
     :
00000000
00000000
00000000
00000000
,
00000000
00000000
00000000
00000000
,
00000000
00000000
00000000
00000000
,
00000000
00000000
00000000
00000000
,
00000000
00000000
00000000
00000000
,
00000001
00000000
00001000
00000000
00000010
00001000
00010000
00100000
,
00010000
00000000
01000000
00000000
00100000
10000000
01000000
00010000
,
00001000
00000000
00010000
00000000
00001000
00010000
00001000
00000100
,
00000010
00000000
00000100
00000001
00001000
00000000
00000000
00000000
,
00000011
00000000
00000100
00010000
00002000
00000000
00103000
01000000
,
10000000
00110000
01010000
00000000
,
00100000
00000000
00001000
00000000
00000100
00000001
00000010
00000000
,
00001200
00000000
00010300
00001000
00100000
00000000
00000000
00000000
,
11000000
00000000
00100000
00001000
00020000
00000000
00030100
00000010
,
00000001
00001100
00001010
00000000
,
00000100
00000000
00010000
00000000
00100000
10000000
01000000
00000000
,
00110000
01001000
00022000
00033000
,
00000010
00000000
00000100
00000000
00000001
00001000
00010000
00001000
,
00010000
01000000
00100000
00000000
,
00010000
00000000
00000000
10000000
00000000
00000000
01000000
00000000
00000000
00010000
00000000
00000000
00010000
00000000
00000000
00000000
,
00001000
00000000
00000000
00000100
00000000
00000000
00000010
00000000
00000000
00000001
00000000
00000000
00000001
00000000
00000000
00000000
,
00000010
00000000
00000000
00001000
00000000
00000000
00000100
00000000
00000000
00010000
00000000
00000000
00010000
00000000
00000000
00000000
,
01000000
00000000
00000000
10000000
00000000
00000000
00100000
00000000
00000000
00010000
00000000
00000000
00001000
00000000
00001000
00000000
,
00010000
00000000
00000000
01000000
00000000
00000000
00100000
00000000
00000000
10000000
00000000
00000000
11000000
00000000
00000000
00000000
,
00100000
00000000
00000000
00001000
00000000
00000000
00000010
00000000
00000000
00000001
00000000
00000000
00000001
00000000
00000000
00000000
,
00000100
00000000
00000000
00000010
00000000
00000000
00010000
00000000
00000000
01000000
00000000
00000000
01100000
00000000
00000000
00000000
,
10000000
00000000
00000000
00010000
00000000
00000000
00100000
00000000
00000000
00001000
00000000
00000000
00010000
00000000
00011000
00000000
,
00000000
00000000
00000000
00000000
,
00000002
00000000
00000200
00000003
,
00001300
00010000
00001000
00010000
01000000
00000000
00100000
00000000
,
20000000
00000000
00200000
30000000
,
00310000
00000000
00011000
00000000
00000010
00000100
00001000
00000000
,
00000200
00000000
00000002
00000300
,
00000103
00010000
00001000
00010000
00000100
00010000
00001000
00000000
,
00200000
00000000
20000000
00300000
,
31000000
00000000
00010000
00000000
00001000
00010000
00100000
00000000
,
11000000
00000000
00000000
00110000
00000000
00000000
00011000
00000000
,
00001100
00000000
00000110
00000000
00000010
00000001
00000100
00000000
,
00000101
00000000
00000010
00001010
00000000
00010000
00012000
00000000
,
00100000
01000000
00100000
01003000
,
00200000
00000000
01300000
10000000
01000000
00100000
00010000
00000000
,
00000020
00000000
00000130
00000001
00000100
00001000
00000010
00000000
,
00000200
00000000
00000001
00000010
,
00001300
00000000
00010000
00100000
01000000
10000000
00100000
00000000
,
00011000
00000000
00000100
00000010
00000001
00000100
00001000
00000000
,
00020000
00031000
00011000
00000000
,
11000000
00000000
00100000
00001000
00020000
00000000
00030100
00000010
,
00000001
00001100
00002020
00003030
,
00000100
00000000
00010000
00000000
00100000
10000000
01000000
00000000
,
00210000
00000000
00301000
00010000
00000100
00000000
00000000
00000000
,
00000011
00000000
00000100
00010000
00002000
00000000
00103000
01000000
,
10000000
00110000
01010000
00000000
,
00100000
00010000
00001000
00000000
00000100
00000001
00000010
00000000
,
00001100
00010010
00022000
00033000
,
01000000
00010000
00100000
00000000
10000000
00010000
00001000
00010000
,
00001000
00000100
00000010
00000001
00000100
00000000
00000000
00000000
,
00002002
00000000
00000000
00000000
00000000
00000000
00000000
00003003
,
00000000
00000000
00000000
00000000
;
