#TITLE:my future;
#ARTIST:Billie Eilish;
#BANNER:my future-bn.png;
#BACKGROUND:my future-bg.png;
#JACKET:my future-jacket.png;
#MUSIC:my future.ogg;
#OFFSET:1.715;
#SAMPLESTART:37.102;
#SAMPLELENGTH:20;
#LASTBEATHINT:1.237;
#DISPLAYBPM:105;
#BPMS:0=105;
#STOPS:103.75=0.1;
#BGCHANGES:;

//---------------dance-single - ----------------
#NOTES:
     dance-single:
     :
     Beginner:
     1:
     :
0000
0000
0000
0000
,
0000
0000
0000
0000
,
0000
0000
0000
0000
,
0000
0000
0000
0000
,
0000
0000
0000
0000
,
0010
0000
0000
0000
,
0000
0000
1000
0000
,
0100
0000
0000
0000
,
0000
0000
0000
0000
,
1000
0000
0001
0000
,
0100
0000
0000
0000
,
0001
0000
0010
0000
,
0001
0000
1000
0000
,
0100
0000
0000
0000
,
0000
0000
0010
0000
,
0000
0000
0001
0000
,
0000
0000
0000
0000
,
1000
0000
1000
0000
,
0001
0000
0001
0000
,
0100
0000
0010
0000
,
0100
0000
0000
0000
,
0000
0000
0000
0000
,
0001
0000
0000
0000
,
0000
0000
0000
0000
,
1000
0000
0000
0000
,
0010
0000
0000
0000
,
0200
0000
0000
0000
,
0300
0000
0001
0000
,
2000
0000
0000
0000
,
3000
0000
0100
0000
,
1000
0000
0010
0000
,
0000
0000
0100
0000
,
0001
0000
0000
0000
,
1000
0000
0000
0000
,
0000
0002
0000
0000
,
0003
0000
0100
0000
,
0010
0000
0000
0000
,
0000
0000
1000
0000
,
0010
0000
0000
0000
,
0100
0000
0001
0000
,
1000
0000
0000
0000
,
0001
0000
0000
0000
,
0020
0000
0000
0000
,
0000
0000
0000
0030
;

//---------------dance-single - ----------------
#NOTES:
     dance-single:
     :
     Easy:
     5:
     :
0000
0000
0000
0000
,
0000
0000
0000
0000
,
0000
0000
0000
0000
,
0000
0000
0000
0000
,
0000
0000
0000
0000
,
0020
0000
0000
0000
,
0030
1000
0001
1000
,
0200
0000
0000
1300
,
0002
0000
0003
0110
,
2002
0003
3010
0100
,
0002
0000
0003
1001
,
0220
0030
0301
1000
,
0020
0030
1000
0100
,
0020
0000
0000
0000
,
0030
0001
2000
3000
,
0000
0010
0000
0200
0000
0000
0000
0000
,
0302
0003
2000
3000
,
0002
0000
0020
0033
,
0200
0000
2000
3300
,
0010
0010
1000
0001
,
0200
0000
0000
0310
,
0020
0000
0000
0000
0000
0000
1030
0100
,
0000
1000
0002
0000
0000
0000
0000
0000
,
0013
0000
0000
0000
0010
0000
0001
0200
,
0000
0000
0000
0000
0300
0000
0010
2000
,
0000
0000
0000
3100
,
1000
0001
0200
0000
0020
0000
0330
0000
,
2000
3000
0001
0100
,
0020
1000
0000
0100
,
0000
1030
0002
0103
,
0002
0000
0000
2003
0000
0000
0100
0000
,
0000
3010
0100
0001
,
0010
0002
0000
1003
,
0200
0000
0000
0310
,
0002
2000
0000
0000
,
0000
3003
0010
1000
,
0200
0000
0000
0000
,
0000
0300
1000
0001
,
2000
0000
0000
0000
3000
0001
0200
0000
,
0000
0300
0010
0100
,
0001
2000
3020
0130
,
0002
0000
0003
0200
,
0020
0000
0000
0000
,
0000
0000
0000
0330
;

//---------------dance-single - ----------------
#NOTES:
     dance-single:
     :
     Medium:
     7:
     :
0000
0000
0000
0000
,
0000
0000
0000
0000
,
0000
0000
0000
0000
,
0000
0000
0000
0000
,
0000
0000
0000
0000
,
0020
0000
0000
0000
,
0030
0000
1000
0000
0100
0000
0010
0002
,
0000
2000
0000
0000
0000
0000
0000
0000
,
0000
0000
3003
0110
,
2002
0000
0003
0000
3100
0000
1000
0001
,
0000
0020
0000
0000
0030
0000
0011
0000
,
2200
0000
3000
0000
0310
0000
0001
1000
,
0000
0200
0000
0000
1300
0000
0001
2000
,
0000
0020
0000
0000
0000
0000
0000
0000
,
3030
0000
0002
0000
0200
0000
0000
0303
,
0000
0002
0000
0020
0000
0000
0000
0000
,
0000
0000
0000
0033
,
0200
0000
0020
0300
,
2000
0030
0002
3003
,
0011
1100
0101
1010
,
0220
0000
0000
0000
,
0000
0000
0000
0000
0000
0000
0000
0000
0030
0000
0000
0000
0301
1000
0001
0000
,
0000
0010
0200
0000
0000
0000
0000
0000
,
0000
0000
0000
0000
0300
0000
1000
0020
,
0000
0000
0000
0000
0030
0000
1000
0002
,
0000
0000
0000
0000
0003
0000
0010
0100
,
1000
0000
0010
0100
0010
0000
2000
0000
0000
0000
0000
0000
0100
0000
0000
0000
,
0010
0000
0000
0000
3100
0000
0000
0000
2000
0000
0000
3002
0000
0000
0000
0000
,
0023
0001
1000
0001
,
0100
0000
0000
0000
0130
0000
0000
0000
2000
0000
0000
3020
0000
0000
0000
0000
,
2030
0000
3001
0200
0000
0000
0010
0000
,
1000
0000
0301
2000
0000
3020
0000
2030
,
0000
0000
3002
0000
0100
0000
0000
0000
0010
0000
0000
0000
0103
0000
0000
0001
,
1000
0020
0100
0000
1000
0000
0230
0000
,
0301
0000
0000
0000
0101
0000
0000
0001
1000
0000
0100
0000
0020
0000
0000
0000
,
0000
0000
0000
0000
0030
0000
0000
0000
0002
0000
0000
0203
0000
0000
0000
0000
,
0320
0000
1000
0000
,
1030
0000
0000
0000
0000
0000
0000
0100
1000
0000
0010
0000
1000
0000
0001
0000
,
0000
0200
0000
0000
0000
0000
0000
0000
0300
0000
0010
0000
2000
0000
0000
0000
,
0000
0000
3000
0100
1000
0001
1000
0010
,
0200
0000
0000
0000
0320
0000
0000
0000
0000
2030
0000
0000
0000
0002
0000
0000
,
0000
0000
0003
3200
,
0020
0000
0000
0000
,
0000
0000
0000
0330
;

//---------------dance-single - ----------------
#NOTES:
     dance-single:
     :
     Hard:
     9:
     :
0000
0000
0000
0000
,
0000
0000
0000
0000
,
0000
0000
0000
0000
,
0000
0000
0000
0000
,
0000
0000
0000
0000
,
2000
0002
0000
0000
0000
0000
0000
0000
,
3003
0000
0010
0000
1000
0000
0010
0200
,
0000
0002
0000
0000
0300
0000
1003
0100
,
0020
0000
0000
0000
0000
0000
0031
1000
,
0200
0000
0300
0000
1100
0000
0010
0100
,
0000
0002
1000
0000
0010
0000
0103
0000
,
0020
0000
0030
0000
1010
0000
0001
1000
,
0000
0200
1000
0000
0320
0000
0031
1000
,
0020
0200
0030
0000
0002
0000
0003
0000
,
1300
0200
0002
0303
,
0010
0200
0000
2300
0002
0000
0003
0000
,
0020
0030
0200
3300
,
2020
0030
0002
3003
,
0202
0300
2000
3003
,
0010
0010
1000
0001
,
0200
0000
0010
0000
,
2000
0000
0000
0000
0000
0000
0000
0000
3000
0000
0000
0000
0301
1000
0002
0000
,
0000
0010
0020
0000
0000
0000
0033
0000
,
0200
0000
0000
0000
1300
0000
0001
0200
,
0020
0000
0000
0000
0300
0000
1000
2030
,
0002
0000
0000
0000
0003
0000
3001
0100
,
0010
0000
1000
0100
2000
0000
0000
0000
3001
0000
0000
0010
0100
0000
1000
0000
,
0010
0000
0000
0100
0001
0000
0000
0001
0020
0000
0000
0230
0000
0000
1300
0000
,
0001
0000
0000
1000
0100
0000
0000
0100
0010
0000
0000
0010
0001
0000
1000
0000
,
0010
0000
0000
0010
1000
0000
0000
0001
2000
0000
0000
3020
0000
0000
0130
0000
,
0001
0000
1000
0100
1000
0000
0010
0000
0100
0000
0000
0001
1000
0000
0100
0000
,
0010
0000
0000
0010
0001
0000
1000
0000
0010
0000
0100
0000
0010
0000
1000
0000
,
0100
0000
0010
0001
0010
0000
0000
0001
1000
0000
0000
1000
0010
0000
0100
0000
,
0001
0000
1000
0100
1000
0000
0000
0010
1000
0000
0000
0001
1000
0000
0100
0000
,
0010
0000
0000
0000
0001
0000
0000
1000
0010
0100
0010
0100
0020
0000
0000
0000
,
0000
0000
0000
0000
0000
0000
0000
0000
1030
0000
0000
0002
0000
0000
1003
0000
,
0200
0000
0020
0030
,
0020
0000
0000
0000
0330
0000
0000
0001
1000
0000
0010
0000
0100
0000
0001
0000
,
0020
0000
0000
0000
0000
0031
2000
0000
,
0000
0000
0000
3010
1000
0100
1000
0001
,
0010
0000
0001
0100
0001
0000
2000
0000
0000
0000
3020
0000
0000
0200
0000
0000
,
0000
0000
0030
0302
,
2000
0000
0000
0000
,
0000
0000
0000
3003
;
