#TITLE:little steps;
#SUBTITLE:;
#ARTIST:Freeman;
#TITLETRANSLIT:;
#SUBTITLETRANSLIT:;
#ARTISTTRANSLIT:;
#GENRE:;
#CREDIT:;
#BANNER:little steps.png;
#BACKGROUND:little steps-bg.png;
#LYRICSPATH:;
#CDTITLE:;
#MUSIC:little steps.ogg;
#OFFSET:0.000000;
#SAMPLESTART:7.743000;
#SAMPLELENGTH:20.000000;
#SELECTABLE:YES;
#DISPLAYBPM:155.000000;
#BPMS:0.000000=154.979996
;
#STOPS:
;
#BGCHANGES:;
#KEYSOUNDS:;
#ATTACKS:;

//---------------dance-single - ----------------
#NOTES:
     dance-single:
     :
     Beginner:
     3:
     0.135994,0.184013,0.058884,0.000000,0.000000,97.000000,91.000000,6.000000,0.000000,0.000000,0.000000,0.135994,0.184013,0.058884,0.000000,0.000000,97.000000,91.000000,6.000000,0.000000,0.000000,0.000000:
0000
0000
0000
0000
,
0000
0000
0000
0000
,
0000
0000
0000
0000
,
0000
0000
0000
0000
,
0000
0000
0000
0000
,
0001
0000
0000
0000
,
0001
0000
0000
0000
,
0001
0000
0000
0000
,
0001
0000
0000
0000
,
0010
0000
0000
0100
,
0100
0000
0000
0000
,
0001
0000
0000
0000
,
1000
0000
0001
0001
,
0000
0010
0000
0100
,
0100
0000
0000
0000
,
1000
0000
0000
0000
,
0001
0000
0000
0000
,
0010
0000
0000
0100
,
0100
0000
0000
0000
,
0001
0000
0000
0000
,
1000
0000
0001
0000
,
0001
0000
0000
0000
,
1000
0000
0000
0000
,
1000
0000
0000
0000
,
0000
0000
0110
0000
,
1001
0000
0000
0000
,
0000
0000
0000
0000
,
0010
0010
0000
0000
,
0100
0100
0000
0000
,
0100
0100
0000
0000
,
0001
0001
0000
0000
,
1000
1000
0000
0000
,
0001
0001
0000
0000
,
0001
0000
0100
0000
,
1000
0000
0000
0000
,
0001
0000
1000
0000
,
1000
0000
0001
0000
,
1000
0000
0001
0000
,
0000
1000
0000
1000
,
1000
0000
0000
1001
,
0000
0000
0000
0001
,
0001
0000
0000
1001
,
0000
0000
0000
0000
,
0100
0100
0000
0000
,
0010
0010
0000
0000
,
0010
0010
0000
0000
,
1000
1000
0000
0000
,
0001
0001
0000
0000
,
1000
1000
0000
0000
,
1000
0000
0010
0000
,
0001
0000
0000
0000
,
1000
0000
0001
0000
,
0001
0000
1000
0000
,
0001
0000
1000
0000
,
0000
0001
0000
0001
,
0001
0000
0000
1001
,
0000
0000
0000
1000
,
1000
0000
0000
1001
,
0000
0000
0000
0000
,
0001
0000
1000
0000
,
1000
0000
0100
0000
,
0010
0000
0100
0000
,
1000
0000
0001
0000
;

//---------------dance-single - ----------------
#NOTES:
     dance-single:
     :
     Easy:
     6:
     0.185064,0.277124,0.019628,0.117768,0.000000,132.000000,130.000000,2.000000,12.000000,0.000000,0.000000,0.185064,0.277124,0.019628,0.117768,0.000000,132.000000,130.000000,2.000000,12.000000,0.000000,0.000000:
0000
0000
0000
0000
,
0000
0000
0000
0000
,
0000
0000
0000
0000
,
0000
0000
0000
0000
,
0000
0000
0000
0000
,
0010
0000
0000
0000
,
0010
0000
0000
0000
,
0010
0000
0000
0000
,
0010
0000
0000
0100
,
0001
0000
0000
0000
,
0000
0000
0000
0000
,
1000
1000
0001
0001
,
1000
0000
0000
0010
,
0100
0000
0000
0000
,
0000
0000
0000
0000
,
1000
0100
0001
0100
,
1000
0000
0000
0100
,
1000
0000
0000
0000
,
0000
0000
0000
0000
,
0001
0010
0100
1000
,
1000
0100
0010
0001
,
1000
0000
0000
0001
0000
0000
0010
0000
,
1000
0000
0000
0000
0000
0010
0000
0000
,
1000
0000
0000
0100
0000
0000
0010
0000
,
0001
0000
0100
0000
,
2002
3003
0000
0000
,
0000
0000
0000
0000
,
0010
0010
0100
0000
,
0001
0001
1000
0000
,
0100
0100
0010
0000
,
1000
1000
0001
0000
,
0010
0010
0100
0000
,
0001
0001
0010
0000
,
0001
0010
0100
1000
,
1000
0000
0000
0000
,
0100
0000
0000
1000
0000
0000
1000
0000
,
0000
0000
0001
1000
,
0010
0000
0000
0010
0000
0000
0001
0000
,
0000
1000
0100
0010
,
0100
0000
0000
0100
0000
0000
0100
0000
,
0000
0000
0000
0001
,
0100
0000
0000
0100
0000
0000
2000
0000
,
0000
3000
0000
0000
,
0100
0100
0010
0000
,
1000
1000
0001
0000
,
0010
0010
0100
0000
,
0001
0001
1000
0000
,
0100
0100
0010
0000
,
1000
1000
0100
0000
,
1000
0100
0010
0001
,
0001
0000
0000
0000
,
0010
0000
0000
0001
0000
0000
0001
0000
,
0000
0000
1000
0001
,
0100
0000
0000
0100
0000
0000
1000
0000
,
0000
1000
0010
0100
,
0010
0000
0000
0010
0000
0000
0110
0000
,
0000
0000
0000
1000
,
0010
0000
0000
0010
0000
0000
2000
0000
,
0000
3000
0000
0000
,
2000
3000
0200
0300
,
2000
3000
0200
0300
,
0020
0030
0200
0300
,
2000
3000
0002
1003
;

//---------------dance-single - ----------------
#NOTES:
     dance-single:
     :
     Medium:
     9:
     0.357511,0.431940,0.186466,0.157024,0.019628,255.000000,236.000000,19.000000,16.000000,0.000000,0.000000,0.357511,0.431940,0.186466,0.157024,0.019628,255.000000,236.000000,19.000000,16.000000,0.000000,0.000000:
0000
0000
0000
0000
,
0000
0000
0000
0000
,
0000
0000
0000
0000
,
0000
0000
0000
0000
,
0000
0000
0000
0000
,
1000
0001
1000
0000
0001
0000
0000
0000
,
0001
1000
0001
0000
1000
0000
0000
0000
,
1000
0010
1000
0000
0001
0000
0000
0000
,
0001
0010
0001
0000
1000
0000
0100
0100
,
0100
0000
0000
1000
0000
0000
0001
0100
,
0001
0000
0000
1000
0000
0000
0010
0000
,
0001
0100
1000
0100
0001
0100
1000
0000
,
1001
0000
0001
0001
,
1000
0000
0000
0001
0000
0000
0001
0100
,
0001
0000
0000
0001
0000
0000
0010
0000
,
1000
0000
0000
0110
0000
0000
1100
0000
,
0011
0000
0000
0000
0000
0000
0100
0100
,
0100
0000
0000
1000
0000
0000
0001
0100
,
0001
0000
0000
1000
0000
0000
0010
0000
,
0001
0100
1000
0100
0001
0100
1000
0000
,
0110
0000
0000
0000
0001
0000
0001
0001
,
1000
0000
0000
0001
0000
0000
0010
0000
,
1000
0000
0000
0000
0000
0010
0001
0010
,
1000
0000
0000
0100
0000
0000
0010
0000
,
0001
0000
0220
0330
,
2002
3003
0000
0000
,
1000
1000
0001
0000
0001
0001
1000
0000
,
0010
1000
0010
1000
0000
0001
0100
0000
,
0010
1000
0010
1000
0000
0001
0100
0000
,
0010
0001
0010
0001
0000
1000
0100
0000
,
0010
0001
0010
0001
0000
1000
0100
0000
,
1000
1000
0001
0001
,
0001
0001
1000
1000
,
0001
0000
0010
0000
0100
0000
1000
2002
,
0000
0000
3003
0000
0000
0001
1000
0001
,
1000
0000
0100
1000
0000
0010
0001
0000
,
0000
0000
0000
1000
0100
0010
0001
0000
,
0010
0000
0100
0010
0000
1000
0001
0000
,
0000
1001
0011
1100
,
0001
0000
0000
0100
0000
0000
0200
0000
,
0000
0000
0300
0000
0000
0001
0001
0001
,
0010
0000
0000
0100
0000
0000
2020
0000
,
0000
3030
0000
0000
,
0100
1000
0100
1000
0000
0001
0010
0000
,
0100
1000
0100
1000
0000
0001
0010
0000
,
0100
0001
0100
0001
0000
1000
0010
0000
,
0100
0001
0100
0001
0000
1000
0010
0000
,
1000
1000
0001
0001
,
0001
0001
1000
1000
,
1000
0000
0100
0000
0010
0000
0001
2002
,
0000
0000
3003
0000
0000
1000
0001
1000
,
0001
0000
0010
0001
0000
0100
1000
0000
,
0000
0000
0000
0001
0010
0100
1000
0100
,
0100
0000
0010
0100
0000
0001
1000
0000
,
0000
1001
1100
0011
,
1000
0000
0000
0011
0000
0000
0110
0000
,
0000
0000
0000
0000
0000
0001
0001
0001
,
0010
0000
0000
0100
0000
0000
0022
0000
,
0000
0033
0000
0000
,
2000
0000
3200
0000
,
2300
0000
0000
3100
,
0010
0010
0100
0100
,
1000
0001
0000
0001
1000
0000
0010
0001
0000
1000
0100
0000
0001
0000
0010
0000
;

//---------------dance-single - ----------------
#NOTES:
     dance-single:
     :
     Hard:
     13:
     0.497711,0.740468,0.225723,0.363119,0.068698,355.000000,332.000000,23.000000,37.000000,0.000000,0.000000,0.497711,0.740468,0.225723,0.363119,0.068698,355.000000,332.000000,23.000000,37.000000,0.000000,0.000000:
0000
0000
0000
0000
,
0000
0000
0000
0000
,
0000
0000
0000
0000
,
0000
0000
0000
0000
,
0000
0000
0000
0000
,
1000
0100
1000
0100
0010
0100
0010
0000
,
0001
0010
0001
0010
0100
0010
0100
0000
,
1000
0010
1000
0010
0100
0010
0100
0000
,
1000
0001
1000
0001
0110
0000
0000
0000
,
0010
0100
1000
0100
0010
0001
0010
0100
,
1000
0100
0001
0100
1000
0010
0001
0010
,
1000
0100
0001
0100
1000
0010
0001
0010
,
1000
1010
0100
0101
,
0010
0100
1000
0100
0010
0001
0010
0100
,
1000
0100
0001
0100
1000
0010
0001
0010
,
2000
0000
0000
3200
0000
0000
0301
0000
,
0220
0000
0000
0330
,
0100
0010
1000
0010
0100
0001
0100
0010
,
1000
0010
0001
0010
1000
0100
0001
0100
,
1000
0010
0001
0010
1000
0100
0001
0100
,
1000
1010
0110
0101
,
0002
0000
0000
0003
0020
0000
0000
0030
,
0200
0000
0300
1000
,
2000
0000
0100
3000
0200
0000
0010
0300
,
0020
0000
0031
0000
,
0100
1000
0100
0000
0010
0001
0010
0000
0100
1000
0100
0000
0010
0001
0010
0000
,
0100
0001
0100
0000
0010
1000
0010
0000
0100
0001
0100
0000
1001
0000
0000
0000
,
0001
0001
0001
0001
0000
0010
0010
0010
,
0000
1000
1000
1000
0000
0100
0100
0000
,
0002
0010
0010
0013
0000
0020
0100
0130
,
0000
2000
0100
3100
0000
0100
0100
0010
,
0001
1000
1000
1000
0000
0010
0100
0100
,
0000
1000
0001
0001
0000
0100
0010
0010
,
1000
0100
0010
0001
1000
0000
0001
2002
,
0000
0000
0000
3003
0000
1000
1000
0001
,
0002
0000
0013
0020
0000
0130
0200
0000
,
0000
0000
0300
1000
1000
0100
0010
0001
,
2000
0000
3100
0200
0000
0310
0020
0000
,
0030
1010
0101
1010
,
0010
1000
0010
0101
0000
0000
0002
0000
,
0100
0000
0103
0000
0000
1000
1000
0001
,
0100
0001
0100
1010
0000
0000
2020
0000
,
0000
0000
3030
0000
,
1000
1000
1000
1000
0000
0010
0010
0010
,
0000
0001
0001
0001
0000
0100
0100
0000
,
2000
0010
0010
3010
0000
0020
0100
0130
,
0000
0002
0100
0103
0000
0100
0100
0010
,
1000
0001
0001
0001
0000
0010
0100
0100
,
0000
0001
1000
1000
0000
0100
0010
0010
,
0001
0100
0010
1000
0001
0000
1000
2002
,
0000
0000
0000
3003
0000
0001
0001
1000
,
2000
0000
3010
0010
0000
0100
0200
0000
,
0000
0000
0300
0001
0001
0100
0010
1000
,
0002
0000
0103
0200
0000
0310
0020
0000
,
0030
0011
1100
0011
,
0010
0001
0010
1100
0000
0000
2000
0000
,
0100
0000
3100
0000
0000
0001
0001
1000
,
0100
1000
0100
0011
0000
0000
0022
0000
,
0000
0000
0000
0033
,
1000
0000
0100
0000
1000
0000
0100
0000
0010
0001
0010
0000
0001
0000
0000
0000
,
0001
0010
0001
0000
0010
0000
0001
0000
0100
1000
0100
0000
1000
0000
0000
0000
,
1000
0000
0010
0000
1000
0000
0010
0000
0100
0001
0100
0000
0001
0000
0000
0000
,
1000
0100
1000
0000
0001
0010
0001
0000
1000
0100
1000
0000
0010
0000
1001
0000
;

//---------------dance-single - ----------------
#NOTES:
     dance-single:
     :
     Challenge:
     16:
     0.768298,0.925585,0.157024,0.274793,0.637912,548.000000,532.000000,16.000000,28.000000,0.000000,0.000000,0.768298,0.925585,0.157024,0.274793,0.637912,548.000000,532.000000,16.000000,28.000000,0.000000,0.000000:
// measure 0
0000
0000
0000
0000
,  // measure 1
0000
0000
0000
0000
,  // measure 2
0000
0000
0000
0000
,  // measure 3
0000
0000
0000
0000
,  // measure 4
0000
0000
0000
0000
,  // measure 5
1000
0100
1000
0100
1000
0000
0010
0000
0100
0001
0100
0001
0100
0000
0000
0000
,  // measure 6
0001
0010
0001
0010
0001
0000
1000
0000
0010
0100
0010
0100
0010
0000
0000
0000
,  // measure 7
0100
0001
0100
0001
0100
0000
0010
0000
1000
0001
1000
0001
1000
0000
0000
0000
,  // measure 8
0001
0010
1000
0010
0001
0000
1000
0010
0001
0010
1000
0000
0100
0000
0010
0000
,  // measure 9
0001
0100
0000
0100
0010
0000
0010
1000
0000
1000
0001
0000
0200
0000
0000
0000
,  // measure 10
0310
0100
0000
0100
0001
0000
0001
1000
0000
1000
0100
0000
0020
0000
0000
0000
,  // measure 11
0130
1000
0000
1000
0001
0000
0001
0100
0000
0100
0010
0000
2000
0000
0000
0000
,  // measure 12
3001
1000
0000
1000
0010
0000
0100
0000
0010
0000
1000
0000
0001
0000
0000
0000
,  // measure 13
1000
0100
0000
0100
0010
0000
0010
0001
0000
0001
1000
0000
0020
0000
0000
0000
,  // measure 14
1030
0001
0000
0001
0100
0000
0100
0010
0000
0010
1000
0000
0002
0000
0000
0000
,  // measure 15
0013
0001
0000
0001
0100
0000
0100
0010
0000
0010
1000
0000
0200
0000
0000
0000
,  // measure 16
1300
0001
0000
0001
0100
0000
0110
0000
1001
0000
0000
0000
0010
0000
0100
0000
,  // measure 17
1000
0010
0000
0100
0001
0000
0010
0100
0000
1000
0001
0000
0100
0000
0010
0000
,  // measure 18
0100
1000
0000
0100
0001
0000
0010
0100
0000
0010
0001
0000
1000
0000
0010
0000
,  // measure 19
0001
0010
0000
1000
0100
0000
1000
0001
0000
0100
0010
0000
1000
0000
0001
0000
,  // measure 20
0020
0031
0000
0000
2000
3010
0000
0000
0200
1300
0000
0000
0002
0103
0000
0000
,  // measure 21
0010
1000
0001
1000
0010
0000
0100
0001
0000
0100
0001
0000
2000
0000
0000
0000
,  // measure 22
3100
0010
0001
0010
0100
0000
1000
0001
0000
1000
0001
0000
0100
0000
0010
0000
,  // measure 23
1000
0100
0001
0100
1000
0000
0010
0100
0000
0010
0100
0000
0002
0000
0000
0000
,  // measure 24
0013
0001
0100
0001
0010
0000
0100
0000
1000
0010
1000
0001
1000
0000
0000
0000
,  // measure 25
0010
1000
0100
0010
0001
0000
0101
0000
1000
0001
0010
0100
1000
0000
1100
0000
,  // measure 26
0001
0010
0100
1000
0100
0010
0001
0010
0100
1000
0100
0010
0001
1000
0001
0000
,  // measure 27
0100
0010
0001
0001
1000
0010
0100
1000
,  // measure 28
0010
0100
0001
1000
0010
1000
0001
0100
,  // measure 29
0001
1000
0100
1000
0100
0010
0010
0001
,  // measure 30
1000
0100
0010
0010
0001
0001
0100
1000
,  // measure 31
0100
1000
0010
0001
1000
0001
0100
0010
,  // measure 32
0100
0010
0001
0010
0100
0001
1000
1000
,  // measure 33
0010
0100
0001
0001
1000
1000
0010
0100
,  // measure 34
0010
0100
1000
0100
0001
0001
1000
0010
,  // measure 35
0100
0000
0001
0000
0010
0000
0100
0000
1000
0001
1000
0000
0020
0000
0000
0000
,  // measure 36
1030
0000
0100
0000
0010
0000
0001
0000
0100
0010
0100
0000
0001
0000
1000
0000
,  // measure 37
0100
0000
0010
0000
0100
0000
1000
0000
0001
0010
0001
0000
0200
0000
0000
0000
,  // measure 38
0301
0000
0010
0000
0100
0000
1000
0000
0001
0010
0001
0000
1000
0100
1000
0000
,  // measure 39
2010
0000
3001
0021
0000
0130
1200
0000
,  // measure 40
0301
0100
0010
0100
1000
0000
0001
0000
1000
0010
1000
0001
0010
0000
0100
0000
,  // measure 41
0210
0000
1300
2001
0000
3010
1020
0000
,  // measure 42
0130
0001
0010
0001
1000
0000
0100
0000
1000
0010
0100
0001
1000
0000
0000
0000
,  // measure 43
0010
0100
0001
1000
1000
0001
0010
0100
,  // measure 44
1000
0001
0001
0100
0010
0010
1000
0100
,  // measure 45
0100
0010
0100
1000
0001
1000
0010
0001
,  // measure 46
0010
0001
0001
0010
1000
0100
0100
1000
,  // measure 47
0010
0010
1000
0001
1000
0100
0001
0100
,  // measure 48
1000
0100
0001
0001
1000
0100
0010
0010
,  // measure 49
0010
1000
0001
0001
1000
0010
0100
0100
,  // measure 50
1000
0001
0001
0100
1000
0010
0100
0010
,  // measure 51
1000
0000
0001
0000
0010
0000
0100
0000
1000
0010
0100
0000
0002
0000
0000
0000
,  // measure 52
0013
0000
0001
0000
0100
0000
0010
0000
1000
0001
0100
0000
0010
0000
1000
0000
,  // measure 53
0100
0000
0010
0000
0001
0000
0100
0000
0001
1000
0010
0000
2000
0000
0000
0000
,  // measure 54
3100
0000
0010
0000
0001
0000
1000
0000
0010
0100
0001
0000
0010
0100
1000
0000
,  // measure 55
1002
0000
0013
0021
0000
0031
0201
0000
,  // measure 56
0310
1000
0001
1000
0010
0000
0100
0000
0001
0010
0100
1000
0001
0000
0100
0000
,  // measure 57
0120
0000
1030
2100
0000
3001
0102
0000
,  // measure 58
0013
0001
1000
0001
1000
0000
0010
0000
0100
1000
0100
0001
0100
0000
0000
0000
,  // measure 59
0001
0010
0001
0010
0001
0000
0100
0000
1000
0010
1000
0010
1000
0000
0000
0000
,  // measure 60
0100
1000
0100
1000
0100
0000
0010
0000
0001
0100
0001
0100
0001
0000
0000
0000
,  // measure 61
1000
0010
1000
0010
1000
0000
0001
0000
1000
0100
1000
0100
1000
0000
0000
0000
,  // measure 62
0010
1000
0001
1000
0010
0000
0100
0000
0001
0010
0100
1000
0100
0010
0001
0000
;
