#TITLE:licca;
#ARTIST:Qrispy Joybox;
#BANNER:licca-bn.png;
#BACKGROUND:licca-bg.png;
#JACKET:licca-jacket.png;
#MUSIC:licca.ogg;
#OFFSET:1.05;
#SAMPLESTART:19.75;
#SAMPLELENGTH:20;
#LASTBEATHINT:0.137;
#DISPLAYBPM:98:196;
#BPMS:0=196,160=98,176=196;
#STOPS:159.5=1.224;
#BGCHANGES:;

//---------------dance-single - ----------------
#NOTES:
     dance-single:
     :
     Beginner:
     4:
     :
0000
0000
0000
0000
,
0000
0000
0000
0000
,
0000
0000
0000
0000
,
0000
0000
0000
0000
,
0000
0000
0000
0000
,
1001
0000
0000
0000
,
0001
0001
0000
0000
,
1001
0000
0000
0000
,
1000
1000
0000
0000
,
1001
0000
0000
0000
,
0110
0000
0000
0000
,
1001
0000
0000
0000
,
0110
0000
0000
0000
,
1001
0000
0000
0000
,
0110
0000
0000
0000
,
1001
0000
0000
0000
,
0110
0000
0000
0000
,
0001
0001
0000
0000
,
1001
0000
0000
0000
,
0100
0100
0000
0000
,
1001
0000
0000
0000
,
0010
0010
0000
0000
,
1001
0000
0000
0000
,
1000
1000
0000
0000
,
0110
0000
0000
0000
,
0001
0000
0001
0000
,
1000
0000
0001
0000
,
0010
0000
0100
0000
,
1000
0000
0110
0000
,
0010
0000
0001
0000
,
0100
0000
0100
0000
,
0010
0000
1000
0000
,
0001
0000
1001
0000
,
0010
0010
0000
0000
,
0110
0000
0000
0000
,
1000
1000
0000
0000
,
0110
0000
0000
0000
,
0001
0001
0000
0000
,
0110
0000
0000
0000
,
0100
0100
0000
0000
,
0001
0000
1000
0000
,
0010
0000
0100
0000
,
0001
0000
1000
0000
,
0110
0000
0000
0000
,
0001
0000
1000
0000
,
0010
0010
0010
0000
,
1000
0000
0100
0000
,
1000
1000
1000
0000
,
0010
0000
1000
0000
,
0001
0000
0010
0000
,
0100
0000
1000
0000
,
0001
0001
0001
0000
,
0010
0000
0001
0000
,
0100
0100
0100
0000
,
0001
0000
1000
0000
,
0001
0001
0001
0000
,
0010
0000
0010
0000
,
0100
0000
0100
0000
,
1001
0000
0000
0000
,
0000
0000
0000
0000
,
1000
0000
0001
0000
,
0110
0000
0000
0000
,
0010
0000
0100
0000
,
1001
0000
0000
0000
,
0001
0000
1000
0000
,
0001
0000
1000
0000
,
0010
0000
0100
0000
,
0001
0001
0001
0000
,
0010
0000
0001
0000
,
1000
1000
1000
1000
,
1000
0000
0010
0000
,
0100
0100
0100
0000
,
0001
0000
0001
0000
,
1000
0000
1000
0000
,
1001
0000
0000
0000
,
0000
0000
0000
0000
,
0010
0010
0000
0000
,
0110
0000
0000
0000
,
1000
1000
0000
0000
,
1001
0000
0000
0000
,
0001
0001
0000
0000
,
0110
0000
0000
0000
,
0100
0100
0000
0000
,
1001
0000
0000
0000
;

//---------------dance-single - ----------------
#NOTES:
     dance-single:
     :
     Easy:
     8:
     :
0000
0000
0000
0000
,
0000
0000
0000
0000
,
0000
0000
0000
0000
,
0000
0000
0000
0000
,
0000
0000
0000
0000
,
1001
0010
1000
0001
,
0101
0010
1000
0100
,
1001
0010
0001
1000
,
1100
0010
1000
0001
,
1001
0100
0100
0100
,
0001
1000
0002
0003
,
0110
0010
0010
0010
,
1000
0100
2000
3000
,
1001
1000
1000
1000
,
0010
0100
0020
0030
,
0110
0001
0001
0001
,
0010
0001
1000
1000
,
1010
0000
1010
0000
0000
0101
0000
0101
,
0000
0000
0000
0000
,
0011
0000
0011
0000
0000
1100
0000
1100
,
0000
0000
0000
0000
,
1001
0000
1001
0000
0000
0110
0000
0110
,
0000
0000
0000
0000
,
1010
0000
1010
0000
0000
0011
0000
0011
,
0000
0000
1000
0001
,
0010
0001
0100
0010
,
1000
0001
1000
0100
,
0010
0001
0100
0010
,
1000
0001
2200
0300
,
3001
0010
0001
0100
,
1000
0010
0100
0001
,
0010
0001
0100
0010
,
1000
0001
0021
0030
,
1001
0000
1001
0000
0000
1010
0000
1010
,
0000
0000
0000
0000
,
1100
0000
1100
0000
0000
0101
0000
0101
,
0000
0000
0000
0000
,
0011
0000
0011
0000
0000
0110
0000
0110
,
0000
0000
0000
0000
,
1001
0000
1001
0000
0000
0110
0000
0110
,
0002
0003
2000
3000
,
0020
0030
0200
0300
,
0002
0013
0200
1300
,
0020
0030
2000
3000
,
0001
0100
1000
0100
,
0001
0010
0200
0300
,
1000
0010
1000
0001
,
0010
0100
2000
3000
,
0001
0001
1000
1000
,
0001
0010
0001
0100
,
0010
1000
1000
1000
,
0100
0010
0002
0003
,
1001
0001
1000
0100
,
1000
0010
0200
0300
,
0101
0010
0001
0100
,
0010
1000
0002
0003
,
1100
0010
1000
0001
,
0011
0100
0010
1000
,
0001
0010
0001
0100
,
1000
1000
2000
3000
,
1001
0100
1001
0100
,
0002
0003
2000
3000
,
0110
0001
0110
0001
,
0020
0000
0000
0030
,
0001
0001
1000
1000
,
0100
0100
1000
0001
,
0100
0010
1000
0100
,
1000
0001
0020
0030
,
0011
0011
1100
1100
,
0001
0100
1000
1000
,
1010
1010
0101
0101
,
0010
1000
0200
0300
,
0110
0110
1001
1001
,
0001
0010
0001
1000
,
0010
1000
0100
0010
,
0001
0001
0002
0003
,
0101
0000
0101
0000
0000
1010
0000
1010
,
0000
0000
0000
0000
,
1001
0000
1001
0000
0000
1100
0000
1100
,
0000
0000
0000
0000
,
0011
0000
0011
0000
0000
0110
0000
0110
,
0000
0000
0000
0000
,
1100
0000
1100
0000
0000
1001
0000
1001
;

//---------------dance-single - ----------------
#NOTES:
     dance-single:
     :
     Medium:
     13:
     :
0000
0000
0000
0000
,
0000
0000
0000
0000
,
0000
0000
0000
0000
,
0000
0000
0000
0000
,
0000
0000
0000
0000
,
1001
0000
0010
1000
0100
0010
0001
0101
,
0000
0101
0000
0000
1000
0100
1000
0001
,
1001
0000
0100
0001
0010
0100
1000
1100
,
0000
1100
0000
0000
0010
1000
0001
1000
,
0100
0010
0001
0000
0100
0010
1000
0000
,
0001
0100
1000
0100
0002
0000
0003
0000
,
0010
0001
1000
0000
0100
1000
0001
0000
,
1000
0010
0001
0010
2000
0000
3000
0000
,
0100
0010
0001
0000
1000
0001
0100
0000
,
0010
1000
0100
1000
0020
0000
0030
0000
,
1000
0100
0010
0000
0001
1000
0010
0000
,
0100
0001
0010
0001
0200
0000
0310
0000
,
1010
0000
1010
0000
0000
0101
0000
0101
,
0000
1000
0100
1000
0001
0100
0001
0000
,
0011
0000
0011
0000
0000
1100
0000
1100
,
0000
0001
1000
0100
2000
0000
3000
0000
,
1001
0000
1001
0000
0000
0110
0000
0110
,
0000
0010
1000
0001
1000
0100
0010
0000
,
0011
0000
0011
0000
0000
1001
0000
1001
,
0000
2000
3001
0000
0001
0100
0001
1000
,
0100
0000
0010
0001
1000
0000
0010
0100
,
0000
0001
0010
0001
0100
0010
1000
0000
,
0100
1000
0001
1000
0010
0000
0100
0001
,
0000
1000
0000
0100
2010
0000
3002
0000
,
0013
0001
0100
0010
1000
0000
0001
1000
,
0000
0100
0000
1000
0001
0000
0010
0100
,
0010
0000
0001
1000
0010
0000
1000
0100
,
1000
0000
0001
0100
2010
0000
3001
0000
,
1100
0000
1100
0000
0000
0110
0000
0110
,
0000
0001
1000
0001
1000
0100
0010
0000
,
0011
0000
0011
0000
0000
1010
0000
1010
,
0000
0100
0010
0100
2000
0000
3000
0000
,
1001
0000
1001
0000
0000
1010
0000
1010
,
0000
0100
1000
0010
1000
0010
0100
0000
,
0110
0000
0110
0000
0000
1001
0000
1001
,
0002
0000
2003
0000
,
3020
0000
0230
0000
,
0302
0023
0230
2300
,
3020
0000
0000
0000
0000
0000
0000
0000
2030
0000
0000
0000
3001
0000
0100
0010
,
1000
0000
1000
0100
0001
0000
0001
0100
,
1000
0000
0010
0100
0001
0000
0010
0001
,
0100
0000
0100
0010
1000
0000
1000
0001
,
0010
0000
0001
1000
0010
0000
0100
0001
,
1000
0000
1000
0010
0001
0000
0001
0010
,
1000
0000
1200
0000
1300
0001
0100
0010
,
0000
1000
0100
0000
1000
0001
0100
0000
,
0001
0010
0001
1000
1002
0000
0013
0001
,
1000
0000
1000
0100
0001
0000
0001
0100
,
0010
0000
0001
1000
0010
0000
0100
0001
,
1000
0000
0010
1000
0100
0000
1000
0001
,
0010
0000
0001
0100
1000
0000
0010
0100
,
0010
0000
1000
0001
0100
0000
0001
0010
,
0100
0000
1000
0100
1000
0000
1000
0001
,
0000
0010
0001
0000
1000
0001
0100
0000
,
0001
1000
0100
1000
0002
0000
0103
0010
,
1000
0000
1000
0100
0001
0000
0001
0010
,
0002
0000
0103
0000
2000
0000
3010
1000
,
0001
0000
0001
1000
0010
0000
1000
0001
,
0200
0000
0000
0000
0300
0000
0010
1000
,
0001
0000
0001
1000
0100
0000
0100
0010
,
0001
0000
0001
1000
0010
0000
0010
0100
,
0000
0001
1000
0000
0100
1000
0001
0000
,
0010
0000
0001
0100
0002
0000
1003
0100
,
1000
0000
0010
1000
0001
0000
0010
0001
,
0100
0000
0010
1000
0002
0000
1003
0000
,
1001
0000
0010
1000
0001
0000
0010
0001
,
0100
0000
0010
1000
0002
0000
0003
0000
,
0010
0001
0100
0000
0001
0010
1000
0000
,
0100
0010
0001
0000
0100
0010
1000
0000
,
1001
1000
0001
1000
0001
1000
0001
1000
,
0001
1000
0001
2000
0002
0000
3003
0000
,
0011
0000
0011
0000
0000
1100
0000
1100
,
0000
0010
0100
0010
0100
0001
1000
0000
,
1010
0000
1010
0000
0000
0110
0000
0110
,
0000
0010
1000
0010
2000
0000
3001
0000
,
1001
0000
1001
0000
0000
0011
0000
0011
,
0000
0100
0001
0010
0100
1000
0010
0000
,
0110
0000
0110
0000
0000
1001
0000
1001
;

//---------------dance-single - ----------------
#NOTES:
     dance-single:
     :
     Hard:
     15:
     :
0000
0000
0000
0000
,
0000
0000
0000
0000
,
0000
0000
0000
0000
,
0000
0000
0000
0000
,
0000
0000
0000
0000
,
1001
0010
1000
0001
1000
0010
0100
0101
,
0000
0000
0101
0000
1000
0000
0000
0000
0001
0100
0001
0100
0001
0100
0001
0000
,
1001
0100
0001
0010
0001
1000
0100
1100
,
0000
1100
0001
0000
1000
0010
0100
0001
,
1001
0100
0100
0100
0010
0010
1000
1000
,
0001
0100
1000
0100
0002
0000
0003
0000
,
0110
0010
0010
0010
1000
1000
0001
0001
,
0100
1000
0100
0001
0200
0000
0300
0000
,
1001
0010
0010
1000
1000
0001
0001
0100
,
0010
0001
0010
1000
0020
0000
0030
0000
,
0110
1000
1000
0010
0010
0100
0100
0001
,
0010
0000
0000
0100
0000
0000
0010
0000
0000
0001
0000
0000
1000
0000
0010
0000
0100
0000
0001
0000
0000
0000
0000
0000
,
0011
0000
0011
0100
0010
1010
0000
1010
,
0000
0000
1000
0100
1000
0000
0001
0000
0100
0000
0100
0000
0100
0000
0010
0000
,
1010
0000
1010
1000
0100
0110
0000
0110
,
0000
0000
0001
1000
0001
0000
0100
0000
0200
0000
0000
0000
0310
0000
0000
0000
,
1010
0000
1010
0001
0100
0101
0000
0101
,
0000
0000
0010
0001
0010
0000
0100
0000
1000
0000
1000
0000
1000
0000
0001
0000
,
0101
0000
0101
0010
1000
1001
0000
1001
,
0000
0000
0000
2000
0000
0000
3001
0000
0000
0000
0000
0000
0010
0000
0001
0000
0100
0000
0010
0000
1000
0000
0100
0000
,
0010
0001
0100
0010
1000
0100
1000
0002
,
0000
0000
0013
0000
0001
0000
0100
0000
0001
0000
1000
0000
0010
0000
0100
0001
,
1000
0100
0010
1000
0010
0100
0010
0001
,
0100
0000
0000
0010
0000
0000
1000
0000
0000
0001
0000
0000
2100
0000
0000
0000
0000
0000
3001
0000
1000
0000
0010
0000
,
0100
0001
0010
1000
0010
0100
0010
1000
,
0010
0000
0001
0000
0100
0000
1000
0000
0100
0000
0001
0000
0010
0000
0100
1000
,
0001
0100
0010
0001
0010
1000
0100
0010
,
0001
0100
0010
1000
0102
0000
1003
0001
,
0101
0000
0101
0001
0010
0011
0000
0011
,
0000
0000
1000
0010
1000
0000
0001
0000
0100
0000
0100
0000
0100
0000
0010
0000
,
0110
0000
0110
0100
0001
0011
0000
0011
,
0000
0000
1000
0001
1000
0000
0010
0000
0020
0000
0000
0000
0130
0000
0000
0000
,
1010
0000
1010
0100
1000
1001
0000
1001
,
0000
0000
0001
0100
0001
0000
1000
0000
0010
0000
0010
0000
0010
0000
0100
0000
,
0110
0000
0110
0000
1000
1100
0000
1100
,
0002
0000
2000
0003
,
0020
3000
0200
0030
,
0302
0023
0230
2300
,
0020
0000
0000
0000
3000
0000
0000
0000
1000
1000
1000
1000
1030
0000
0010
0100
,
0001
0001
0001
0100
1000
1000
1000
0100
,
0001
0010
1000
0010
0002
0000
0103
0010
,
1000
1000
1000
0100
0001
0001
0001
0100
,
0010
0001
1000
0001
0200
0000
0310
1000
,
0100
0100
0100
0010
0001
0001
0001
0100
,
1000
0100
0002
0000
0013
0100
0001
0100
,
1000
0010
0010
0010
1000
1000
0001
0001
,
0010
0001
0100
0010
2010
0000
3001
0100
,
0010
0010
0010
1000
0001
0001
0001
0010
,
1000
0010
0100
0010
0002
0000
1003
0001
,
0100
0100
0100
0010
0100
0100
0100
0001
,
0010
1000
0010
0001
0200
0000
0310
1000
,
0100
0100
0100
1000
0010
0010
0010
0001
,
0010
0010
0010
1000
0100
0001
0100
0010
,
0001
0100
0010
0100
0010
0100
0010
0100
,
0001
1000
0100
1000
0002
0000
0013
0100
,
1000
1000
1000
0010
0100
0100
0100
0001
,
0010
0001
1000
0001
0200
0000
0310
1000
,
0001
0001
0001
0010
1000
1000
1000
0010
,
0001
0000
1000
0100
1000
0000
0001
0100
0001
0000
0010
0000
0100
0000
1000
0000
,
0001
0001
0001
0100
1000
1000
1000
0100
,
0010
0010
0010
1000
0100
0100
0100
0001
,
0100
1000
1000
0001
0001
0100
0010
1000
,
0100
0010
0001
0100
0120
0000
1030
0001
,
0010
0010
0010
0001
1000
1000
1000
0010
,
1000
0100
1000
0000
0010
0000
0100
0000
0002
0000
0000
0000
0013
0000
0001
0000
,
0100
0100
0100
0010
1000
1000
1000
0001
,
0010
0000
0001
0000
0100
0000
0010
0000
1000
0000
0100
1000
0001
0000
0100
0000
,
0010
0010
0010
0010
1000
1000
1000
1000
,
0001
0001
0001
0001
0100
0100
0100
0000
,
1001
1000
0001
1000
0001
1000
0001
1000
,
0010
0000
0100
0000
0001
0000
0010
0000
0012
0000
0000
0000
1003
0001
1000
0000
,
1001
0000
1001
0010
0100
0110
0000
0110
,
0000
0000
0001
1000
0001
0000
0100
0000
0010
0000
0010
0000
0010
0000
1000
0000
,
1100
0000
1100
0001
1000
0101
0000
0101
,
0000
0000
0010
0001
0010
0000
0100
0000
2000
0000
0001
0000
3001
0000
0000
0000
,
1010
0000
1010
0000
0100
0011
0000
0011
,
0000
0000
1000
0001
1000
0000
0010
0000
0100
0000
0100
0000
0100
0000
0001
0000
,
0011
0000
0011
0100
0010
1001
0000
1001
;

//---------------dance-single - ----------------
#NOTES:
     dance-single:
     :
     Challenge:
     17:
     :
0000
0000
0000
0000
,
0000
0000
0000
0000
,
0000
0000
0000
0000
,
0000
0000
0000
0000
,
0000
0000
0000
0000
,
1001
0000
0010
1000
0100
0000
0010
0001
0100
0000
0010
1000
0001
0000
0101
0000
,
0000
0000
0101
0000
1000
0000
0001
0000
0100
0010
0100
0010
0100
0010
0100
0010
,
1000
0000
0100
0010
0001
0000
1000
0001
0100
0000
0010
1000
0001
0000
1100
0000
,
0000
0000
1100
0000
0010
0000
1000
0000
0100
0010
0000
0001
0000
0100
0010
0000
,
1001
0000
0100
0000
0100
0000
0100
0000
0001
1000
0001
0000
0100
0000
0100
0000
,
0110
0001
1000
0100
0020
0000
0030
0000
,
1001
0000
0001
0000
0001
0000
0001
0000
1000
0010
1000
0000
0100
0000
0100
0000
,
0110
0000
0000
0001
0000
0000
1000
0000
0000
0001
0000
0000
0200
0000
0000
0000
0010
0000
0000
0000
0310
0000
0000
0000
,
1001
0000
1000
0000
1000
0000
0010
0000
0100
0001
0100
0000
0010
0000
0010
0000
,
0110
1000
0001
0010
0200
0000
0300
0000
,
1001
0000
0010
0000
0010
0000
0010
0000
0001
0100
0001
0000
1000
0000
1000
0000
,
0110
0000
0000
0001
0000
0000
0010
0000
0000
0100
0000
0000
1000
0000
0010
0000
1000
0000
0001
0000
0010
0000
0001
0000
,
0100
0010
0110
0010
1000
1100
0000
1100
,
0000
0000
0000
0000
0000
0000
1000
0000
0000
0001
0000
0000
1000
0000
0000
0000
0000
0000
0100
0000
0000
0000
0000
0000
0010
0000
0000
0000
0001
0000
0000
0000
1000
0000
0000
0000
0010
0000
0000
0000
1000
0000
0000
0000
0001
0000
0000
0000
,
0100
0010
1010
1000
0001
0011
0000
0011
,
0000
0000
0100
0001
1000
0000
1000
0000
1000
0000
0010
0100
0020
0000
0000
0000
,
1030
0001
0011
0100
0010
1010
0000
1010
,
0000
0000
0000
0000
0000
0000
0100
0000
0000
0010
0000
0000
0100
0000
0000
0000
0000
0000
1000
0000
0000
0000
0000
0000
0001
0000
0000
0000
0010
0000
0000
0000
0001
0000
0000
0000
1000
0000
0000
0000
0100
0000
0000
0000
0010
0000
0000
0000
,
0001
0100
0110
0000
1000
1001
0000
1001
,
0000
0000
0000
2000
0000
0000
3001
0000
0000
0000
0000
0000
0010
0000
0001
0000
0100
0000
0010
0000
1000
0000
0100
0000
,
0010
0001
0100
1000
0100
0010
0100
0001
,
0010
0000
1000
0000
0010
0000
0100
0000
0010
0000
0001
0000
0100
0000
0010
1000
,
0001
0010
1000
0010
0100
0001
0100
0010
,
0100
0000
0000
1000
0000
0000
0001
0000
0000
0100
0000
0000
1020
0000
0000
0000
0000
0000
1030
0000
0100
0000
0010
0000
,
0001
0100
0010
0001
0010
1000
0100
0001
,
0100
0000
0010
0000
0100
0000
1000
0000
0010
0000
0100
0000
0001
0000
0010
0100
,
1000
0001
0010
0100
0001
0100
0010
0100
,
1000
0100
0001
0100
2100
0001
3001
0100
,
0110
0001
0110
1000
0100
1100
0000
1100
,
0000
0000
0000
0000
0000
0000
0001
0000
0000
0010
0000
0000
0100
0000
0000
0000
0000
0000
1000
0000
0000
0000
0000
0000
0010
0000
0000
0000
0100
0000
0000
0000
0001
0000
0000
0000
1000
0000
0000
0000
0100
0000
0000
0000
0010
0000
0000
0000
,
0001
0100
0011
1000
0001
1001
0000
1001
,
0000
0000
0100
1000
0001
0000
0001
0000
0001
0000
0100
0000
0020
0000
0000
0000
,
0130
0001
0011
0100
1000
0110
0000
0110
,
0000
0000
0000
0000
0000
0000
0001
0000
0000
1000
0000
0000
0001
0000
0000
0000
0000
0000
0100
0000
0000
0000
0000
0000
0010
0000
0000
0000
1000
0000
0000
0000
0001
0000
0000
0000
0010
0000
0000
0000
0100
0000
0000
0000
1000
0000
0000
0000
,
0010
0100
0101
0010
1000
1100
0000
1100
,
0002
0000
0000
0000
0000
0000
0000
0000
2000
0000
0000
0000
0000
0000
0000
0003
,
0020
0000
0000
0000
0000
0000
0000
3000
0200
0000
0000
0000
0000
0000
0000
0030
,
0002
0000
0000
0300
0020
0000
0000
0003
0200
0000
0000
0030
2000
0000
0000
0300
,
0020
0000
0000
0000
0000
0000
0000
0000
0000
0000
0000
0000
0000
0000
3000
0000
1030
0100
1000
0100
1000
0100
1000
0100
2000
0000
0000
0000
3001
0000
0100
0000
,
0010
0010
0010
1000
0100
0100
0100
0010
,
0001
0000
0100
0000
1000
0000
0100
0000
0001
0000
0010
0100
1000
0000
0001
0000
,
0010
0010
0010
0001
1000
1000
1000
0010
,
0100
0000
0001
0000
0010
0000
0001
0000
1000
0000
0100
0010
0001
0000
1000
0000
,
0001
0001
0001
0010
1000
1000
1000
0010
,
0001
0000
0001
0000
0100
0010
1000
0000
0100
0010
0001
0000
1000
0000
0010
0000
,
0100
0001
0001
0001
1000
1000
0010
0100
,
0001
0000
0010
0100
1000
0000
0010
1000
0002
0000
0000
0000
0013
0000
0100
0000
,
1000
1000
1000
0010
0100
0100
0100
0001
,
0010
0000
0001
0100
0001
0000
1000
0100
1000
0000
0010
0100
0001
0000
1000
0000
,
0100
0100
0100
0010
0001
0001
0001
0100
,
0010
1000
0100
1000
0001
0000
0010
0000
0100
0000
1000
0010
1000
0000
0001
0000
,
0100
0100
0010
0010
1000
1000
0001
0001
,
0010
0000
0010
0000
0100
0000
0100
0000
1000
0010
1000
0001
0010
0000
0100
0000
,
2000
0010
0010
0010
0010
0010
0010
0010
,
3010
0000
1000
0000
0001
0000
1000
0000
0002
0000
0000
0000
0103
0010
0100
0000
,
0001
0000
1000
0100
1000
0000
0010
0000
0100
0000
0001
1000
0001
0000
0010
0000
,
0100
0000
1000
0100
0010
0000
0001
0100
0010
0000
1000
0001
1000
0000
0100
0000
,
0010
0000
0001
1000
0001
0000
0100
0000
0010
0000
1000
0100
1000
0000
0001
0000
,
0100
0000
0010
0000
1000
0000
0001
0000
0010
0000
0001
1000
0001
0000
0100
0000
,
0010
0010
0010
0010
1000
1000
1000
1000
,
0001
0001
0001
0001
0100
0100
0100
0100
,
0001
0000
0010
0100
1000
0000
0010
0000
1000
0000
0100
0000
1000
0000
0001
0000
,
0100
0010
1000
0000
0100
0010
0001
0000
0200
0000
0001
0000
0301
0000
1000
0000
,
0010
0000
1000
0001
0010
0000
0100
0000
1000
0000
0010
0100
0001
0000
1000
0000
,
0100
0010
0001
0000
1000
0001
0100
0000
0010
0000
1000
0001
0100
0000
0010
1000
,
0010
0000
0100
0001
0010
0000
0100
0000
1000
0000
0010
1000
0001
0000
0100
0000
,
0010
1000
0100
0010
0001
0000
0100
0000
0010
0000
1000
0001
1000
0000
0100
0000
,
0010
0001
0010
0100
1000
0000
0010
0000
1000
0100
1000
0001
0100
0000
0001
0000
,
0010
0100
0010
0001
1000
0000
0100
0000
1000
0010
0100
0001
0010
0100
1000
0000
,
0002
0100
0100
0100
0100
0100
0100
0100
,
0103
0000
0010
0000
1000
0000
0001
0000
0010
0000
0001
0100
0001
0000
1000
0100
,
1000
0010
1100
0001
0010
0101
0000
0101
,
0000
0000
0000
0000
0000
0000
0010
0000
0000
0001
0000
0000
1000
0000
0000
0000
0000
0000
1000
0000
0000
0000
0000
0000
1000
0000
0000
0000
0010
0000
0000
0000
0100
0000
0000
0000
0001
0000
0000
0000
0010
0000
0000
0000
0001
0000
0000
0000
,
1000
0100
0011
0100
0001
1010
0000
1010
,
0000
0000
1000
0100
0010
0000
0001
0000
0100
0000
0010
0000
2000
0000
0000
0000
,
3001
0010
0110
1000
0001
1010
0000
1010
,
0000
0000
0000
0000
0000
0000
0100
0000
0000
1000
0000
0000
0001
0000
0000
0000
0000
0000
0001
0000
0000
0000
0000
0000
0001
0000
0000
0000
0010
0000
0000
0000
0100
0000
0000
0000
1000
0000
0000
0000
0010
0000
0000
0000
1000
0000
0000
0000
,
0001
0100
0110
0010
1000
1001
0000
1001
;
