#TITLE:let it out;
#ARTIST:true dreamer;
#BANNER:let it out.png;
#BACKGROUND:let it out-bg.png;
#JACKET:let it out-jacket.png;
#MUSIC:let it out.ogg;
#SAMPLESTART:62.538;
#SAMPLELENGTH:20;
#DISPLAYBPM:146;
#BPMS:0=146;
#BGCHANGES:;

//---------------dance-single - ----------------
#NOTES:
     dance-single:
     :
     Beginner:
     3:
     :
0000
0000
0000
0000
,
0000
0000
0000
0000
,
0000
0000
0000
0000
,
0110
0000
0000
0000
,
0001
0000
0000
0000
,
1000
0000
0000
0000
,
0010
0000
0000
0000
,
0110
0000
0000
0000
,
1000
0000
0000
0000
,
0001
0000
0000
0000
,
0100
0000
0000
1001
,
0000
0200
0000
0000
,
0000
0300
0000
1000
,
0000
0002
0000
0000
,
0000
0003
0000
0100
,
0000
0020
0000
0000
,
0000
0030
0000
0100
,
0000
0000
1000
0000
,
0001
0000
1000
0000
,
0200
0000
0000
0300
,
0000
0000
0000
0000
,
0001
0000
0001
0000
,
0000
0000
1000
0000
,
0001
0000
0001
0000
,
0000
0000
1000
0000
,
0001
0000
0001
0000
,
0000
0000
1000
0000
,
1000
0000
1000
0000
,
1000
0000
0100
0000
,
0000
0000
0000
1000
,
0000
0000
0000
1000
,
0000
0000
0000
0001
,
0000
0100
0000
0001
,
0000
0000
0000
0100
,
0000
0000
0000
1000
,
0000
0000
0100
0000
,
0010
0000
0200
0000
,
0000
0000
0300
0000
,
0001
0000
0000
0000
,
0010
0000
0100
0000
,
1000
1000
0000
0000
,
0010
0000
0100
0000
,
0001
0001
0000
0000
,
0100
0000
0010
0000
,
0010
0000
1000
0000
,
0001
0000
1001
0000
,
1000
1000
0000
0000
,
0100
0000
0010
0000
,
0001
0001
0000
0000
,
0100
0000
0010
0000
,
1000
1000
0000
0000
,
0010
0000
0100
0000
,
0100
0000
0001
0000
,
1000
0000
1001
0000
,
0000
0010
0000
0001
,
0000
0100
0000
1001
,
0000
0010
0000
0001
,
0000
0100
0000
1001
,
0000
0000
2000
0000
,
0000
0000
0000
3000
;

//---------------dance-single - ----------------
#NOTES:
     dance-single:
     :
     Easy:
     4:
     :
0000
0000
0000
0000
,
0000
0000
0000
0000
,
0000
0000
0000
0000
,
0010
0000
0000
0000
,
0001
0000
0000
0000
,
1000
0000
0000
0000
,
0100
0000
0000
0000
,
0010
0000
0000
0000
,
1000
0000
0000
0000
,
0001
0000
0000
0000
,
0100
0000
0000
1001
,
0200
0000
0000
0000
,
0000
0000
0300
1000
,
0002
0000
0000
0000
,
0000
0000
0003
0100
,
0020
0000
0000
0000
,
0000
0000
0030
0100
,
0001
0000
1000
0000
,
0001
0000
1000
0000
,
0200
0000
0000
0300
,
0000
0000
0000
0000
,
0001
0000
0001
0000
,
1000
0000
0000
0000
,
1000
0000
1000
0000
,
0001
0000
0000
0000
,
0001
0000
0001
0000
,
1000
0000
0000
0000
,
1000
0000
0001
0000
,
1000
0001
0100
0000
,
0000
0000
0000
0010
,
0000
0000
0000
1000
,
0000
0000
0000
0001
,
0000
0100
0000
0001
,
0000
0000
0000
0010
,
0000
0000
0000
1000
,
0010
0000
0100
0000
,
0110
0000
0100
0000
,
0200
0000
0300
0000
,
0001
1000
0100
0000
,
0010
0000
0000
0000
,
1000
0001
0100
0000
,
0010
0000
0000
0000
,
0001
0010
1000
0000
,
0100
0000
0000
0000
,
0010
0000
1000
0000
,
0001
0000
1001
0000
,
0001
1000
0100
0000
,
0010
0000
0000
0000
,
1000
0001
0100
0000
,
0010
0000
0000
0000
,
0001
0010
1000
0000
,
0100
0000
0000
0000
,
0010
0000
1000
0000
,
0001
0000
1001
0000
,
0000
0000
0001
0000
,
0100
0000
1000
0000
,
1000
0010
0000
0001
,
0000
0100
0000
1001
,
0000
0001
2000
0000
,
0000
0000
0000
3000
;

//---------------dance-single - ----------------
#NOTES:
     dance-single:
     :
     Medium:
     7:
     :
0000
0000
0000
0000
,
0000
0000
0000
0000
,
0000
0000
0000
0000
,
0010
0001
0000
0000
,
1000
0000
0010
0000
,
0010
1000
0000
0000
,
0001
0000
0010
1001
,
0100
0001
0000
0000
,
0010
0000
0001
0000
,
0100
0010
0100
0010
,
1000
0001
1000
1001
,
0000
0020
0000
0130
,
0000
0010
0000
0101
,
0000
0020
0000
0130
,
0000
0100
0000
1010
,
0000
0200
0000
0310
,
0000
0010
0000
1001
,
0000
0100
1000
0100
,
0000
0010
1000
0010
,
0001
0000
0001
0000
1000
0010
0000
0000
,
1000
0000
1000
0000
0001
0010
0000
0000
,
1000
0000
0001
0100
,
0001
0000
1000
1100
,
0001
0000
1000
0010
,
1000
0000
0001
0011
,
1000
0000
0001
0010
,
0001
0000
1000
1010
,
0001
0000
1000
0100
,
1000
1000
0001
0101
,
0000
2000
0000
3200
,
0000
0320
0000
0031
,
0000
2000
0000
3020
,
0000
0230
0000
0301
,
0000
0002
0000
0203
,
0000
0320
0000
1030
,
0000
0110
0100
0100
,
0200
0000
0020
0000
,
0000
0000
0000
0330
,
0000
1000
0001
0010
,
0100
1000
0001
1100
,
0000
0001
1000
0010
,
0100
0001
1000
0101
,
0000
1000
0001
0100
,
0010
1000
0001
1010
,
2000
3001
0002
1003
,
1100
0000
0101
0000
,
0000
0100
0000
0020
,
1000
0001
1000
0031
,
0000
0100
0000
0200
,
0001
1000
0001
1300
,
0000
0100
0000
0000
,
1100
0011
1100
0011
,
2000
3001
0002
1003
,
1100
0000
0101
0000
,
2000
0000
3000
0000
,
0002
0000
1003
1000
,
1010
0000
1010
0000
,
0101
0000
0101
0000
,
2000
0000
0002
0000
,
0000
0000
0000
3003
,
1001
0000
0000
0000
0110
0110
0000
1001
;

//---------------dance-single - ----------------
#NOTES:
     dance-single:
     :
     Hard:
     11:
     :
0000
0000
0000
0000
,
0000
0000
0000
0000
,
0000
0000
0000
0000
,
0001
0000
0000
1000
0100
0000
0000
0000
0000
0000
0000
0000
0100
0000
0100
0000
,
1000
0001
0000
1000
0001
0000
0000
0000
0000
0000
0000
0000
0001
0000
0000
0000
,
1000
0000
0000
0001
0100
0000
0000
0000
0000
0000
0000
0000
0100
0000
0100
0000
,
0001
1000
0000
0001
1000
0000
0000
0000
0000
0000
0000
0000
1100
0000
0000
0000
,
0001
0000
0000
1000
0010
0000
0000
0000
0000
0000
0000
0000
0010
0000
0010
0000
,
1000
0001
0000
1000
0001
0000
0000
0000
0000
0000
0000
0000
0001
0000
0000
0000
,
2000
3100
0002
0013
,
1200
1300
0021
0031
,
1000
0000
0000
1000
0100
0000
0000
0000
0100
0000
0000
0100
0010
0000
0000
0000
,
0010
0001
0010
1000
0010
0000
1010
0000
,
0001
0000
0000
0001
0100
0000
0000
0000
0100
0000
0000
0100
0010
0000
0000
0000
,
0010
1000
0010
0001
0010
0000
0011
0000
,
1000
0000
0000
1000
0010
0000
0000
0000
0010
0000
0000
0010
0100
0000
0000
0000
,
0100
0001
0100
1000
0100
0000
1100
0000
,
1000
0010
0000
0000
0101
0000
0000
0000
0010
1000
0000
0000
1010
0000
0000
0000
,
0100
0010
0100
1000
0100
0010
0001
0000
,
0002
0000
0013
0000
0100
0110
0000
0000
,
2000
0000
3100
0000
0010
0110
0000
0000
,
1000
0100
0010
0000
0010
1000
0010
0000
,
0010
0000
0010
0001
1000
0100
0001
0000
,
0001
0100
0010
0000
0010
0001
0010
0000
,
0010
0000
0010
1000
0001
0100
1000
0000
,
1000
0010
0100
0000
0100
1000
0100
0000
,
0100
0000
0100
0001
1000
0010
0001
0000
,
0001
0010
0100
0000
0100
0001
0100
0000
,
0100
0000
0100
1000
0001
0000
1001
0000
,
1000
0000
0000
0100
0000
0000
1000
0000
0010
0000
0000
1000
0000
0000
0010
0000
,
0100
1000
0100
0010
0001
0010
0110
0000
,
0001
0000
0000
0100
0000
0000
0001
0000
0010
0000
0000
0001
0000
0000
0010
0000
,
0100
0001
0100
0010
1000
0010
0110
0000
,
1000
0000
0000
0010
0000
0000
1000
0000
0100
0000
0000
1000
0000
0000
0100
0000
,
0010
1000
0010
0100
0001
0100
0110
0000
,
1000
0000
0000
0001
0010
0000
0000
0000
0001
0000
0000
1000
0100
0000
0000
0000
,
0010
0000
1000
0001
0000
0000
0000
0000
0100
0000
0001
1000
0000
0000
0000
0000
,
0220
0000
0000
0330
,
1000
0000
0010
0000
0001
0000
0000
0000
0001
0010
0000
0000
0010
0100
0000
0000
,
0100
0000
0010
0000
1000
0010
1010
0000
,
0001
0000
0010
0000
1000
0000
0000
0000
1000
0010
0000
0000
0010
0100
0000
0000
,
0100
0000
0010
0000
0001
0010
0011
0000
,
1000
0000
0100
0000
0001
0000
0000
0000
0001
0100
0000
0000
0100
0010
0000
0000
,
0010
0000
0000
0000
0100
0000
0000
0000
1000
0000
0100
0000
1100
0000
0000
1000
,
0010
0000
0000
0010
0100
0000
0000
0100
1000
0000
0000
1000
0100
0000
0000
0000
,
0001
0100
0001
0010
0100
1000
1001
0000
,
1100
0000
0000
0001
0010
0000
0000
0010
0100
0000
0000
0100
1000
0000
0000
0000
,
1000
0000
0000
0100
0000
0000
1000
0000
0001
0000
0000
0000
0101
0000
0000
0000
,
0011
0000
0000
1000
0100
0000
0000
0100
0010
0000
0000
0010
0001
0000
0000
0000
,
0001
0000
0000
0010
0000
0000
0001
0000
1000
0000
0000
0000
1010
0000
0000
0000
,
1010
0000
0000
0001
0100
0000
0000
0100
0010
0000
0000
0010
1000
0000
0000
0000
,
1000
0000
0000
0010
0000
0000
1000
0000
0001
0000
0000
0000
0011
0000
0000
0001
,
0100
0000
0000
0100
0010
0000
0000
0010
0001
0000
0000
0001
0010
0000
0000
0000
,
1000
0010
1000
0100
0010
0001
1001
0000
,
1000
0000
0000
1000
0000
0000
1000
0100
0010
0000
0000
0010
0000
0000
0010
0001
,
0100
0000
0000
0100
0000
0000
0100
0010
1000
0000
0000
1000
0000
0000
1000
0000
,
1100
0000
0100
0010
0100
0000
0101
0000
,
0011
0000
0010
0100
0010
0000
1010
0000
,
0202
0303
2020
0000
,
0000
0000
0000
3030
,
1000
0000
0001
0000
0000
1000
0010
0000
0100
0000
0001
0001
0000
0010
0100
0000
;

//---------------dance-single - ----------------
#NOTES:
     dance-single:
     :
     Challenge:
     15:
     :
0000
0000
0000
0000
,
0000
0000
0000
0000
,
0000
0000
0000
0000
,
1000
0000
0000
0100
0000
0000
0010
0000
0001
0000
0000
1000
0000
0000
0001
0000
,
0010
0000
0000
0100
0000
0000
1000
0000
0001
0000
0000
0000
0000
0000
0000
0000
,
0010
0000
0000
0001
0000
0000
0100
0000
0010
0000
0000
1000
0000
0000
0001
0000
,
1000
0000
0000
0100
0000
0000
0010
0000
0001
0000
0000
0000
1001
0000
0000
0000
,
0010
0000
0000
0001
0000
0000
1000
0000
0100
0000
0000
0010
0000
0000
0001
0000
,
1000
0000
0000
0001
0000
0000
0100
0000
0010
0000
0000
0000
0101
0000
0000
0000
,
1000
0000
0000
0100
0000
0000
1000
0000
0010
0000
0000
0100
0000
0000
0001
0000
,
0010
0000
0000
0001
0000
0000
1000
0000
0100
0000
0000
0000
0110
0000
0000
0000
,
1000
0001
0000
1000
0001
0000
0100
0000
0010
0000
0000
1000
0000
0000
0001
0000
,
0010
0100
0000
0010
0100
0000
1000
0000
0001
0000
0000
0000
0011
0000
0000
0000
,
1000
0100
0000
1000
0100
0000
0010
0000
0001
0000
0000
1000
0000
0000
0010
0000
,
0100
0001
0000
0100
0001
0000
1000
0000
0100
0000
0000
0000
1010
0000
0000
0000
,
0100
0010
0000
0100
0010
0000
0001
0000
0100
0000
0000
0001
0000
0000
1000
0000
,
0010
1000
0000
0010
1000
0000
0100
0000
0010
0000
0000
0000
0011
0000
0000
0000
,
0100
1000
0000
0100
1000
0000
0001
0000
0100
0010
0000
0100
0010
0000
1000
0000
,
0001
0100
0000
0001
0100
0000
0010
0000
1000
0000
0000
0000
0001
0000
0000
0000
,
1100
0000
0000
0000
0001
0100
0000
0010
1000
0000
0101
0000
0000
0000
0000
0000
,
0010
0001
0010
0001
0010
0100
1000
0100
0010
0000
0000
1001
0000
0000
0100
0001
,
1000
0010
0000
1000
0100
0000
0010
0000
0001
1000
0000
0001
0100
0000
0010
0000
,
1000
0100
0000
0010
0001
0000
1000
0000
0010
0000
0000
0100
0001
0000
1000
0000
,
1000
0100
0000
0010
0001
0000
1000
0000
0010
0100
0000
0010
1000
0000
0001
0000
,
0010
0100
0000
0010
0001
0000
1000
0000
0010
0000
0000
1000
0001
0000
0000
0000
,
0100
0001
0000
1000
0100
0000
0010
0000
0001
1000
0000
0001
0010
0000
0100
0000
,
1000
0010
0000
0100
0001
0000
0010
0000
0100
0000
0000
0000
0012
0000
0000
0000
,
1003
0010
0000
1000
0001
0000
0010
0000
0100
0010
0000
0100
1000
0000
0001
0000
,
0100
0010
0000
1000
0001
0000
0010
0000
0100
0000
0000
1000
0001
0000
0000
0000
,
1100
0000
0000
1100
0000
0000
0001
0000
0010
0000
0000
0001
0000
0000
0100
0000
,
0010
0000
0000
1000
0000
0000
0100
0000
1000
0000
0000
0001
1000
0000
0000
0000
,
0101
0000
0000
0101
0000
0000
0010
0000
1000
0000
0000
0001
0000
0000
0010
0000
,
0100
0000
0000
1000
0000
0000
0001
0000
0100
0000
0000
0010
0100
0000
0000
0000
,
0001
0000
0010
0100
0000
0010
0100
0000
1000
0000
0001
0100
0000
0001
0100
0000
,
0010
0000
1000
0001
0000
1000
0001
0000
0100
0000
0000
0100
0000
0000
0100
0000
,
0010
1000
0010
1000
0010
0000
0100
0000
0001
0010
0001
0010
0001
0000
1000
0000
,
0100
0000
0010
0001
0000
0001
1000
0010
0100
0000
0001
0010
0000
0010
0100
1000
,
0002
0000
0000
0000
0000
0000
0000
0000
1003
0001
1000
0001
1000
0001
1000
0001
,
0010
0001
0000
1000
0010
0000
0100
0000
0001
0000
0010
0100
0000
1000
0001
0000
,
1000
0010
0000
1000
0100
0010
0001
0000
0100
0000
0001
1000
0000
1000
0100
0000
,
0010
0001
0000
0100
0010
0000
1000
0000
0100
0000
0010
0001
0000
1000
0100
0000
,
1000
0001
0000
0010
0001
0010
0100
0000
1000
0000
0001
0100
0000
0100
0010
0000
,
1000
0001
0010
0100
1000
0000
0010
0000
0100
0000
0001
1000
0000
0001
0010
0000
,
0100
0001
0100
1000
0010
0000
0100
0000
0001
0000
1000
0010
0000
1000
0001
0000
,
0010
0001
0010
0100
1000
0000
0001
0000
0100
0000
0010
1000
0000
1000
0100
0000
,
0010
0001
0010
0001
0100
0001
1000
0000
0100
0000
1000
0100
1000
0001
1000
0010
,
0100
0000
0001
0010
0000
0001
0010
0000
0100
0000
1000
0001
0000
1000
0001
0000
,
0100
0010
0000
0010
1000
0000
0100
0000
0010
0000
0001
0100
0000
0010
1000
0000
,
0100
0010
0000
0001
0100
0000
0010
0000
1000
0100
0000
0010
0001
0000
0100
0000
,
0001
0000
0010
0001
0000
1000
0001
0000
0100
0000
0010
1000
0000
1000
0100
0000
,
0010
0000
0001
0100
0000
0010
1000
0000
0100
0000
0010
0100
0000
1000
0001
0000
,
0100
0000
0001
1000
0000
0010
0100
0000
0010
0000
1000
0100
1000
0000
0001
0100
,
0001
0000
0010
0001
0000
1000
0010
0000
0100
0010
0000
1000
0001
0000
0100
0000
,
0010
0000
0000
1000
0000
0000
0001
0000
1000
0100
0010
0001
0010
0100
1000
0000
,
1100
0000
0000
0110
0000
0000
0011
0000
0101
0000
0000
1001
0000
0000
1010
0000
,
0110
0000
0000
0101
0000
0000
0011
0000
1010
0000
0000
1100
0000
0000
1001
0000
,
0110
0000
1000
0100
1000
0000
0001
0000
0011
0000
0010
0001
0100
0000
0010
0000
,
1010
0000
1000
0100
1000
0001
0100
0000
0101
0000
0010
1000
0000
0001
0010
0000
,
0100
1000
0000
1000
0010
0100
0001
0000
0010
0000
0001
0100
0000
0001
0100
0000
,
0010
1000
0010
1000
0100
0010
0001
0000
0100
0000
0010
1000
0000
0001
1000
0000
,
1001
0000
1001
0000
0000
0001
0010
0100
1000
0000
0010
1000
0000
0002
0200
0000
,
0000
0000
0000
0000
,
0300
0000
0000
0003
;
