#TITLE:in love wit you;
#ARTIST:Kotaro feat. Aya;
#BANNER:in love wit you.png;
#BACKGROUND:in love wit you-bg.png;
#JACKET:in love wit you-jacket.png;
#MUSIC:in love wit you.ogg;
#SAMPLESTART:41.76;
#SAMPLELENGTH:20;
#DISPLAYBPM:148;
#BPMS:0=148;
#BGCHANGES:;

//---------------dance-single - ----------------
#NOTES:
     dance-single:
     :
     Beginner:
     1:
     :
0000
0000
0000
0000
,
0000
0000
0000
0000
,
0000
0000
0000
0000
,
0000
0000
0000
0000
,
0000
0000
0000
0000
,
0000
0000
0000
0000
,
0100
0000
0000
0000
,
0000
0000
0000
0000
,
0010
0000
0000
0000
,
0000
0000
0000
0000
,
1000
0000
0000
0000
,
0001
0000
0000
0000
,
1000
0000
1000
0000
,
1000
0000
0000
0000
,
0001
0000
0000
0000
,
1000
0000
0000
0000
,
0001
0000
1000
0000
,
0001
0000
0000
0000
,
0100
0000
0000
0000
,
0100
0000
0000
0000
,
0001
0000
0001
0000
,
1000
0000
1000
0000
,
0100
0000
0000
0000
,
0001
0000
0000
0000
,
0001
0001
0001
0000
,
0001
0000
0000
0000
,
0100
0000
0000
0000
,
1000
0000
1000
0000
,
0100
0000
0000
0000
,
0001
0000
0001
0000
,
0100
0000
0000
0000
,
0010
0000
0010
0000
,
0100
0000
0000
0000
,
0100
0100
0100
0000
,
0100
0000
0000
0000
,
1000
0000
0001
0000
,
1000
0000
0000
0000
,
0001
0000
0100
0000
,
0001
0000
0000
0000
,
0100
0000
1000
0000
,
0100
0000
0000
0000
,
1000
1000
1000
0000
,
1000
0000
0000
0000
,
0000
0000
0000
0000
,
0001
0000
0000
0000
,
0000
0000
0000
0000
,
0100
0000
0000
0000
,
0000
0000
0000
0000
,
0010
0000
0000
0000
,
0000
0000
0000
0000
,
1000
0000
1000
0000
,
0100
0000
0000
0000
,
0001
0000
0001
0000
,
0010
0000
0000
0000
,
0100
0000
0100
0000
,
0001
0000
0000
0000
,
0010
0000
0010
0000
,
0100
0100
0100
0100
,
0000
0000
0000
0000
;

//---------------dance-single - ----------------
#NOTES:
     dance-single:
     :
     Easy:
     3:
     :
0000
0000
0000
0000
,
0000
0000
0000
0000
,
0000
0000
0000
0000
,
0000
0000
0000
0000
,
0000
0000
0000
0000
,
0000
0000
0000
0000
,
2000
0000
0000
0000
,
3000
0000
0000
0000
,
0002
0000
0000
0000
,
0003
0000
0000
0000
,
0200
0000
0300
0000
,
0001
0001
0000
0000
,
0020
0000
0000
0000
,
0030
0000
0000
0000
,
0200
0000
0300
0000
,
1000
1000
0000
0000
,
0001
0000
1000
0000
,
0010
0010
0010
0000
,
0200
0000
0300
0000
,
0020
0000
0030
0000
,
2000
0000
3000
0000
,
0002
0000
0003
0000
,
0020
0000
0030
0000
,
0200
0000
0300
0000
,
0001
0010
0100
1000
,
0200
0000
0300
0000
,
2000
0000
0000
3000
,
1000
0000
0100
0100
,
0200
0000
0000
0300
,
0100
0000
0010
0010
,
0020
0000
0000
0030
,
0010
0000
0001
0001
,
0002
0000
0000
0003
,
0001
0010
0100
1000
,
0020
0000
0000
0030
,
0010
0000
0100
0010
,
0200
0000
0000
0300
,
0100
0000
1000
0100
,
2000
0000
0000
3000
,
1000
0000
0001
1000
,
0002
0000
0000
0003
,
0001
0010
0100
1000
,
0200
0000
0000
0000
,
0000
0000
0300
0000
,
0002
0000
0000
0000
,
0000
0000
0003
0000
,
0020
0000
0000
0000
,
0000
0000
0030
0000
,
2000
0000
0000
3000
,
1000
0100
0010
0001
,
2000
0000
0000
0000
,
0200
0000
3300
0000
,
0002
0000
0000
0000
,
0200
0000
0303
0000
,
0020
0000
0000
0000
,
0200
0000
0330
0000
,
0002
0000
0000
0000
,
1003
0100
0010
0001
,
0000
0000
0000
0000
;

//---------------dance-single - ----------------
#NOTES:
     dance-single:
     :
     Medium:
     6:
     :
0000
0000
0000
0000
,
0000
0000
0000
0000
,
0000
0000
0000
0000
,
0000
0000
0000
0000
,
0000
0000
0000
0000
,
0000
0000
0000
0000
,
2000
0000
0020
3030
,
2002
0000
3003
0000
,
0002
0000
0020
0033
,
2002
0000
3003
0000
,
0020
0000
1030
0000
,
0100
0100
1000
0000
,
0002
0000
0103
0000
,
0001
0000
0001
0100
0010
0000
0000
0000
,
0020
0000
0130
0000
,
0100
0100
0001
0000
,
0022
0033
2200
3300
,
1002
2003
3001
0000
,
2000
0000
0002
0003
,
0100
0100
3001
0000
,
0002
0000
2000
3000
,
0100
0100
1003
0110
,
0002
0000
0103
0000
,
2000
0000
3010
0000
,
0011
0110
1100
1001
,
0001
0010
0100
2000
0000
0000
3000
0000
,
0001
2000
0200
0300
,
3001
0100
0010
1000
,
1000
0002
0020
0030
,
1003
0100
0001
1000
,
0010
2000
0200
0300
,
3001
0010
1000
0001
,
1000
0002
0200
0303
,
1100
0110
0011
1001
,
0010
0000
1000
2000
0000
0000
0000
0000
,
0001
0000
3100
1000
,
0001
0000
0001
0002
0000
0000
0000
0000
,
1000
0000
0103
0001
,
0010
0000
1000
2000
0000
0000
0000
0000
,
0010
0000
0000
0000
3001
0000
1000
0100
,
0020
0000
0000
0030
,
0110
1100
1001
0011
,
0220
0000
0000
0000
,
0000
0000
0330
2000
,
0002
0000
0000
0000
,
0000
0003
3010
0100
,
2002
0000
0000
0000
,
0000
3000
0013
1000
,
0020
0000
0030
0010
,
0011
0110
1100
1001
,
0002
0000
1003
0000
,
0200
0000
0301
0000
,
2000
0000
3100
0000
,
0002
0000
0013
0000
,
2001
0000
3010
0000
,
1002
0000
0103
0000
,
1200
0000
0301
0000
,
0002
0000
0203
0000
2300
0000
3010
0010
,
0000
0000
0000
0000
;

//---------------dance-single - ----------------
#NOTES:
     dance-single:
     :
     Hard:
     9:
     :
0000
0000
0000
0000
,
0000
0000
0000
0000
,
0000
0000
0000
0000
,
0000
0000
0000
0000
,
0000
0000
0000
0000
,
0000
0000
0000
0000
,
2000
0000
0020
0030
,
0002
0003
0020
3030
,
0002
0000
0020
0030
,
2000
3000
0020
0033
,
0200
0000
0000
0001
0301
0000
0000
0000
,
0020
0000
0000
1000
1030
0000
0000
0000
,
2000
0000
0000
0001
3001
0000
0000
0000
,
2000
0000
3001
0100
0010
0000
0000
0000
,
0200
0000
0000
0010
0310
0000
0000
0000
,
0020
0000
0000
0100
0130
0000
0000
1000
,
0200
0000
0300
0010
0002
0010
0003
1000
,
0020
0000
0001
0000
0100
0030
1000
0002
,
0020
0030
2000
3000
,
0200
0000
0300
0000
1003
0000
0010
2000
,
0200
0300
0002
0003
,
0020
0030
3001
0110
,
2001
0000
0000
0001
3100
0000
0000
0000
,
1002
0000
0000
1000
0103
0000
0000
1000
,
2000
0100
3200
0010
0320
0001
0032
0000
,
1003
0100
0010
0002
0000
0000
0003
0000
,
1000
0000
0002
0200
0000
0000
0300
0000
,
1003
0100
0020
0000
0001
0000
1030
0000
,
0001
0000
2000
0200
0000
0000
0300
0000
,
3001
0100
0020
0000
1000
0000
0031
0000
,
1100
0000
0002
0020
0000
0000
0030
0000
,
1003
0010
0200
0000
0001
0000
1300
0000
,
0011
0000
2000
0020
0000
0030
0000
0001
,
3002
0010
0023
0100
0230
1000
2300
0000
,
3001
0000
0200
0002
0000
0000
0300
0000
,
1000
0000
0100
0000
0013
1000
0002
0000
,
1003
0000
0200
2000
0000
0000
0300
0000
,
0001
0000
0100
0000
3010
0001
2000
0000
,
3100
0000
0020
0002
0000
0000
0030
0000
,
0100
0000
0010
0000
0103
1000
0010
1000
,
0200
0000
0000
0000
0000
0000
0000
0010
,
0320
0001
0032
1000
2003
0100
3200
0010
,
0320
0000
0000
0000
,
0002
0000
0003
0032
,
2000
0000
0000
3000
,
0200
0300
0103
2010
,
0002
0000
0000
0003
,
0200
0300
3100
0021
,
0200
0000
0330
0210
,
2300
3200
0302
0103
,
1200
0000
0000
0001
0301
0000
0000
0000
,
0021
0000
0000
1000
1030
0000
0000
0000
,
0102
0000
0000
0010
0013
0000
0000
0000
,
2010
0000
0000
0100
3100
0000
0000
0000
,
1002
0000
0000
0010
0103
0000
0000
0000
,
2001
0000
0000
0100
3010
0000
0000
0000
,
0220
0330
2002
3003
,
1000
0100
0010
0001
1000
0100
0010
0001
,
0000
0000
0000
0000
;

//---------------dance-single - ----------------
#NOTES:
     dance-single:
     :
     Challenge:
     13:
     :
0000
0000
0000
0000
,
0000
0000
0000
0000
,
0000
0000
0000
0000
,
0000
0000
0000
0000
,
0000
0000
0000
0000
,
0000
0000
0000
0000
,
0020
0000
0000
0032
0000
0000
0203
0000
0000
0000
0310
0000
1000
0000
0001
0000
,
0200
0000
0000
0320
0000
0000
1030
0000
0001
0100
0001
0000
1000
0010
1000
0000
,
0200
0000
0000
2300
0000
0000
3002
0000
0000
0000
0013
0000
0001
0000
0100
0000
,
0001
0010
0100
0010
1000
0100
1000
0001
,
0010
0010
0010
0001
0101
0000
1000
0001
,
0100
0000
0100
0000
0100
0000
0010
0000
1000
0100
1000
0100
1000
0000
0001
0000
,
0010
0001
0100
0010
0100
1000
0100
0001
,
0020
0000
0000
0230
0000
0000
2300
0000
0000
0000
3001
0000
1000
0000
0100
0000
,
1000
1000
1000
0001
0101
0000
0010
0100
,
0010
0000
0010
0000
0010
0000
0001
0000
1001
0000
0000
0000
1000
0010
1000
0010
,
1000
0000
0001
0000
0000
0010
0001
0010
0001
0000
0100
0000
0000
0010
1000
0010
,
1000
0100
0010
0001
0100
0010
1000
0001
,
0020
0000
0000
0032
0000
0000
0203
0000
0000
0000
0301
0000
1000
0000
0100
0000
,
0020
0000
0000
0230
0000
0000
1300
0000
0001
0100
0001
0100
0001
0000
1000
0000
,
0020
0000
0000
2030
0000
0000
3100
0000
1000
0000
0010
0000
0100
0000
0101
0000
,
0000
1001
0000
1010
0000
1000
0100
0001
,
0020
0000
0000
0032
0000
0000
2003
0000
0000
0000
3100
0000
1000
0000
0001
0000
,
0200
0000
0000
0302
0000
0000
0013
0000
0100
1000
0100
1000
0100
0000
0010
0000
,
0010
0001
0001
0100
0100
1000
1000
0001
,
0001
0000
0100
0000
0010
0000
1000
0000
0100
0010
0100
0010
0100
0000
1000
0000
,
0001
0100
0110
0220
0000
0000
0300
1000
,
1030
0000
0100
0010
0000
0010
0001
0000
0100
0000
0001
1000
0000
1000
0100
0000
,
1000
0001
0101
0202
0000
0000
0300
0010
,
0013
0000
0001
1000
0000
1000
0010
0000
0100
0000
0001
0100
0000
0100
0010
0000
,
1000
0000
0100
0000
1100
0000
2200
0000
0000
0000
0000
0000
0300
0000
3001
1000
,
0001
0000
0010
0100
0000
0100
1000
0000
0010
0000
1000
0000
0001
0000
0100
0000
,
0010
1000
1010
2020
0000
0000
3000
1000
,
2030
0001
3002
0010
0023
0100
0230
1000
,
1300
0000
0010
0000
1001
0000
2002
0000
0000
0000
0000
0000
0003
0000
3010
1000
,
0100
0000
0010
0001
0000
0001
1000
0000
0010
0000
1000
0000
0100
0000
0010
0000
,
0001
0000
0100
0000
1010
0000
2020
0000
0000
0000
0000
0000
3000
0000
0130
0001
,
1000
0000
0100
0010
0000
0010
0001
0000
1000
0000
0001
0000
0010
0000
0100
0000
,
1000
0001
0011
0022
0000
0000
0030
0100
,
0103
0000
0001
1000
0000
1000
0010
0000
1000
0000
0100
0000
0010
0000
0001
0000
,
0100
0010
0110
0220
0000
0000
0300
1000
,
2030
0100
3200
0010
0320
0001
0032
0100
,
0203
0000
0000
0320
0000
0000
2030
0000
0000
0000
3001
0000
0010
0000
1000
0000
,
0200
0000
0000
0320
0000
0000
0031
0000
1000
0000
0010
0000
1000
0001
1000
0000
,
0020
0000
0000
2030
0000
0000
3200
0000
0000
0000
0310
0000
0001
0000
1000
0000
,
0020
0000
0000
2030
0000
0000
3001
0000
0011
0000
0000
0000
0001
0100
0010
0000
,
2010
0000
0000
3002
0000
0000
2003
0000
0000
0000
3100
0000
0010
0000
0001
0000
,
0200
0000
0000
0320
0000
0000
1030
0000
0001
0010
0001
0010
0001
0000
1000
0000
,
0200
0000
0000
0320
0000
0000
0230
0000
0000
0000
1300
0000
0010
0000
0001
0000
,
1000
0100
0010
0001
0100
0010
1000
0001
,
0020
0000
0000
0032
0000
0000
2003
0000
0000
0000
3100
0000
1000
0000
0010
0000
,
0200
0000
0000
0320
0000
0000
1030
0000
0002
0000
0000
0000
0003
0000
0000
0000
,
0020
0000
0000
0032
0000
0000
2003
0000
0000
0000
3100
0000
1000
0000
0010
0000
,
0200
0000
0000
0302
0000
0000
0203
0000
0000
0000
0310
0000
1000
0000
0001
0000
,
2000
0000
0000
3020
0000
0000
0230
0000
0000
0000
0301
0000
0010
0000
0100
0000
,
2000
0000
0000
3002
0000
0000
0013
0000
0200
0000
0000
0000
0300
0000
0000
0000
,
2000
0000
0000
3200
0000
0000
0302
0000
0000
0000
0103
0000
0010
0000
0001
0000
,
0100
0001
0010
1000
0001
1000
0100
0010
;

//---------------dance-double - ----------------
#NOTES:
     dance-double:
     :
     Easy:
     4:
     :
00000000
00000000
00000000
00000000
,
00000000
00000000
00000000
00000000
,
00000000
00000000
00000000
00000000
,
00000000
00000000
00000000
00000000
,
00000000
00000000
00000000
00000000
,
00000000
00000000
00000000
00000000
,
00000002
00000000
00000003
00000000
,
00000200
00000000
00000300
00000000
,
00000020
00000000
00000030
00000000
,
00020000
00000000
00030000
00000000
,
00001000
00001000
00000000
00000000
,
00100000
00100000
00000000
00000000
,
00010000
00010000
10000000
10000000
,
02000000
00000000
03000000
00000000
,
00010000
00001000
00000000
00000000
,
00000100
00000010
00000000
00000000
,
00000020
00000030
00000002
00000003
,
00001000
00001000
00001000
00000000
,
00000200
00000300
00010000
00000000
,
00020000
00030000
00001000
00000000
,
00002000
00003000
00100000
00000000
,
00200000
00300000
02000000
03000000
,
20000000
30000000
00010000
00000000
,
00020000
00030000
00100000
00000000
,
00100000
00001000
00010000
00000100
,
00000020
00000000
00000030
00000000
,
00000002
00000000
00000000
00000003
,
00000001
00000001
00000100
00000000
,
00000020
00000000
00000000
00000030
,
00001000
00001000
00010000
00000000
,
00002000
00000000
00000000
00003000
,
00100000
00100000
00010000
00000000
,
02000000
00000000
00000000
03000000
,
00100000
00001000
00010000
00000100
,
00000020
00000000
00000000
00000030
,
00001001
00000000
00000110
00000000
,
00000200
00000000
00000000
00000300
,
00001001
00000000
00011000
00000000
,
00200000
00000000
00000000
00300000
,
10010000
00000000
01100000
00000000
,
02000000
00000000
00000000
03000000
,
00100000
00001000
00010000
00000100
,
00000020
00000000
00000000
00000000
,
00000030
00000000
00000000
00000001
,
00000200
00000000
00000000
00000000
,
00000300
00000000
00001000
00010000
,
02000000
00000000
00000000
00000000
,
03000000
00000000
10000000
00100000
,
02000000
00000000
03000000
00000000
,
00100000
00001000
00010000
00000100
,
00000020
00000030
00000001
00000000
,
00000002
00000003
00000100
00000000
,
00002000
00003000
00010000
00000000
,
00200000
00300000
10000000
00000000
,
02000000
03000000
00010000
00000000
,
00002000
00003000
00000100
00000000
,
00000020
00000030
00010000
00000000
,
00100000
00001000
00010000
00011000
,
00000000
00000000
00000000
00000000
;

//---------------dance-double - ----------------
#NOTES:
     dance-double:
     :
     Medium:
     6:
     :
00000000
00000000
00000000
00000000
,
00000000
00000000
00000000
00000000
,
00000000
00000000
00000000
00000000
,
00000000
00000000
00000000
00000000
,
00000000
00000000
00000000
00000000
,
00000000
00000000
00000000
00000000
,
00200000
00000000
20000000
00300000
,
00020000
00000000
30030000
00000000
,
00000020
00000000
00000002
00000030
,
00002000
00000000
00003003
00000000
,
00000010
00000200
00000000
00000310
,
00010000
00002000
00000000
00003000
,
00100000
00020000
01000000
01030000
,
20000000
00000000
30000000
00000000
,
00100000
02000000
00000000
03100000
,
00001000
00020000
00000000
00030000
,
00002200
00003300
00000022
00000033
,
00000001
00001000
00002002
00003003
,
00000020
00000000
00000130
00010000
,
00002000
00000000
01003000
00010000
,
20000000
00000000
30100000
01000000
,
00001000
00000000
00010000
00000000
00001000
00000100
00000001
00000000
,
00000200
00000000
00000310
00010000
,
00002000
00000000
00103000
01000000
,
12000000
13000000
00210000
00301000
,
00010000
00001000
00010000
00002000
00000000
00000000
00003000
00000000
,
00000100
00000001
00000002
00000000
,
00000100
00000100
00002000
00000003
,
00003100
00010000
00020000
00000000
,
00000100
00000100
00002000
00030000
,
00103000
01000000
02000000
00000000
,
10000000
10000000
00200000
03000000
,
10300000
00010000
00020000
00030000
,
21000000
31000000
00210000
00301000
,
00010000
00000010
00000020
00000000
,
00000100
00000100
00020000
00000030
,
00031000
01000000
02000000
00000000
,
00100000
00100000
00002000
03000000
,
00013000
00000100
00000200
00000000
,
00000001
00000001
00000020
00000300
,
00001030
00100000
00200000
00300000
,
12000000
13000000
00210000
00301000
,
00022000
00000000
00000000
00000000
,
00000000
00000000
00003000
00030020
,
00000200
00000000
00000000
00000000
,
00000000
00000030
00000301
00001000
,
00020200
00000000
00000000
00000000
,
00000000
00000300
00031000
00100000
,
02000000
00000000
00000000
13000000
,
01000000
00010000
00001000
00000100
,
00000002
00000000
00000020
00000003
,
00000200
00000000
00000330
00000000
,
00002000
00000000
00200000
00003000
,
00020000
00000000
00330000
00000000
,
20000000
00000000
00020000
30000000
,
02000000
00000000
03030000
00000000
,
00002000
00000000
00020000
00003000
,
00030100
00000000
00000002
00000000
00000013
00000000
00001000
00001000
,
00000000
00000000
00000000
00000000
;

//---------------dance-double - ----------------
#NOTES:
     dance-double:
     :
     Hard:
     9:
     :
00000000
00000000
00000000
00000000
,
00000000
00000000
00000000
00000000
,
00000000
00000000
00000000
00000000
,
00000000
00000000
00000000
00000000
,
00000000
00000000
00000000
00000000
,
00000000
00000000
00000000
00000000
,
00002000
00000000
00000200
00000300
,
00000002
00000003
00000020
00003030
,
00020000
00000000
02000000
03000000
,
20000000
30000000
00200000
00330000
,
02000000
00000000
00000000
03001000
00002000
00000000
00003000
00000000
,
00020000
00000000
00000000
00030100
00000200
00000000
00000300
00000000
,
00000020
00000000
00000000
00000031
00000002
00000000
00001003
00000000
,
00000200
00000000
00000000
00010000
00010300
00000000
00000000
00000000
,
02000000
00000000
00000000
13000000
20000000
00000000
30000000
00000000
,
00020000
00000000
00000000
00130000
00200000
00000000
00300000
00001000
,
00020000
00000000
00030000
00000010
00000200
00000000
00000300
00000001
,
00000020
00000000
00000100
00000000
00000130
00000000
00010000
00002000
,
02000000
03000000
00020000
00030000
,
00200000
00000000
00300000
00000000
01003000
00000000
00001000
00020000
,
00000200
00000300
00002000
00003000
,
00000020
00000030
00030100
00100000
,
02000000
00000000
03010000
00001000
,
00000200
00000000
00000000
00000000
00000301
00000000
00000000
00000001
,
00000002
00002003
00023000
20030000
,
32000000
00200000
00000000
03300000
,
10000000
00000000
00020000
02000000
00000000
00000000
03000000
00000000
,
00130000
00001000
00000200
00000000
00000010
00000000
00000301
00000000
,
00001000
00000000
00000002
00000200
00000000
00000000
00000300
00000000
,
00000013
00000100
00020000
00000000
00001000
00000000
00130000
00000000
,
01000000
00000000
00200000
20000000
00000000
00000000
30000000
00000000
,
01300000
00001000
00020000
00000000
00000100
00000000
00030010
00000000
,
00000001
00000000
00000020
00002000
00000000
00000000
00003000
00000001
,
00000032
00002003
00023000
20030000
,
31000000
00000000
00200000
00002000
00000000
00000000
00300000
00000000
,
00010000
00000000
00010000
00000000
00013000
00000100
00000020
00000000
,
00000031
00000000
00000200
00000002
00000000
00000000
00000300
00000000
,
00001000
00000000
00001000
00000000
00001003
00000100
00020000
00000000
,
00031000
00000000
00200000
00020000
00000000
00000000
00300000
00000000
,
10000000
00000000
10000000
00000000
10030000
01000000
00010000
00001000
,
00000200
00000000
00000000
00000000
00000000
00000000
00000300
00000001
,
00000002
00002003
00023000
20030000
,
30200000
00000000
00000000
00000000
,
00002000
00000000
00300000
00023000
,
20000000
00000000
00000000
30000000
,
02000000
03000000
00032000
00003020
,
00000230
00000000
00000002
00000003
,
00002000
00003000
00000320
00020030
,
00032000
00000000
00000000
00203000
,
02300000
23000000
30020000
00032000
,
00003002
00000000
00000000
00000013
00000020
00000000
00000030
00000000
,
00000200
00000000
00000000
00010300
00020000
00000000
00030000
00000000
,
00002000
00000000
00000000
00103000
00200000
00000000
00300000
00000000
,
02000000
00000000
00000000
13000000
20000000
00000000
30000000
00000000
,
00020000
00000000
00000000
01000000
02000000
00000000
03030000
00000000
,
00002000
00000000
00000000
00010000
00020000
00000000
00033000
00000000
,
00000020
00000000
00000000
00000100
00000200
00000000
00000330
00000000
,
00000001
00000100
00002000
00000000
00013000
01000000
20000000
30100000
,
00000000
00000000
00000000
00000000
;
