#TITLE:i feel...;
#ARTIST:AKIRA YAMAOKA;
#BANNER:i feel...-bn.png;
#BACKGROUND:i feel...-bg.png;
#JACKET:i feel...-jacket.png;
#MUSIC:i feel....ogg;
#SAMPLESTART:69.362;
#SAMPLELENGTH:20;
#DISPLAYBPM:141;
#BPMS:0=141.176,4=140.999;
#BGCHANGES:;

//---------------dance-single - ----------------
#NOTES:
     dance-single:
     :
     Beginner:
     3:
     :
0000
0000
0000
0000
,
0000
0000
0000
0000
,
0000
0000
0000
0000
,
0001
0000
0000
0000
,
1000
0000
0000
0000
,
0001
0000
0001
0000
,
1000
0000
1000
0000
,
0001
0000
0001
0000
,
1000
0000
1000
0000
,
0010
0000
0010
0000
,
0100
0000
0100
0000
,
0010
0000
0010
0000
,
1001
0000
0000
0000
,
0001
0000
0001
0000
,
1000
0000
1000
0000
,
0001
0000
0001
0000
,
1000
0000
1000
0000
,
0010
0000
0010
0000
,
0100
0000
0100
0000
,
0010
0000
0010
0000
,
1001
0000
0000
0001
,
0001
0000
0000
0000
,
0001
0000
0000
0100
,
0100
0000
0000
0000
,
0100
0000
0000
1000
,
1000
0000
0000
0000
,
1000
0000
0000
0010
,
0010
0000
0000
0000
,
0010
0000
0000
0000
,
0100
0000
0001
0000
,
0100
0000
0001
0000
,
1000
0000
0100
0000
,
1000
0000
0100
0000
,
0001
0001
0000
0000
,
0100
0100
0000
0000
,
0001
0001
0000
0000
,
0100
0100
0000
0000
,
0010
0010
0000
0000
,
0100
0100
0000
0000
,
0010
0010
0000
0000
,
0100
0000
0000
0001
,
0001
0000
0000
0000
,
0001
0000
0000
0100
,
0100
0000
0000
0000
,
0100
0000
0000
1000
,
1000
0000
0000
0000
,
1000
0000
0000
0010
,
0010
0000
0000
0000
,
0010
0000
0000
0001
,
0001
0000
0000
0000
,
0001
0000
0000
0100
,
0100
0000
0000
0000
,
0100
0000
0000
1000
,
1000
0000
0000
0000
,
1000
0000
0000
0010
,
0010
0000
0000
0000
,
0010
0000
0000
0000
,
0010
0000
0000
0000
,
0000
0000
0000
0000
;

//---------------dance-single - ----------------
#NOTES:
     dance-single:
     :
     Easy:
     4:
     :
0000
0000
0000
0000
,
0000
0000
0000
0000
,
0000
0000
0000
0000
,
0001
0000
1000
0000
,
0010
0010
0100
0100
,
0010
0001
0000
0001
,
0010
1000
0000
1000
,
0000
0001
0000
1000
,
0000
0001
0000
1000
,
0000
0010
0000
1001
,
0000
0100
0000
1001
,
0000
0010
0000
0010
,
0000
0100
0100
0100
,
0000
0001
0000
0001
,
0000
1000
0000
1000
,
0001
0100
1000
0100
,
0002
0000
0000
0003
,
0010
0010
0000
0010
,
0000
0100
0000
0100
,
1000
0100
0001
0100
,
2000
0000
0000
3000
,
0001
0001
1000
1000
,
0010
0000
0100
0000
,
0010
0010
0100
0100
,
0001
0000
1000
0000
,
0001
0001
0001
0000
,
1000
1000
1000
0000
,
0010
0000
0100
0000
,
1001
0000
1001
0000
,
0100
0000
0000
0000
,
0010
0000
0000
0000
,
0001
0000
0000
0000
,
1000
0000
0000
0000
,
0001
0000
0001
0101
,
1000
0000
1000
1100
,
0010
1000
0010
0000
,
0100
0001
0100
0000
,
0010
0000
0010
1000
,
0100
0001
0100
0000
,
2002
0000
0000
3003
,
0000
0000
0000
0000
,
0010
0000
0100
0000
,
0010
0000
0100
0000
,
0001
0001
1000
1000
,
0010
0010
0100
0100
,
1000
0000
0001
0000
,
1000
0000
0001
0001
,
0010
0010
0001
0000
,
0100
0100
1000
0100
,
0001
0000
1000
0000
,
0001
0100
1000
0100
,
0001
0000
0100
0000
,
2000
0000
0000
3000
,
0010
0010
0001
0100
,
1000
0100
0001
0000
,
0010
0000
0100
0000
,
1001
0000
0000
0000
,
0000
0000
0000
0000
;

//---------------dance-single - ----------------
#NOTES:
     dance-single:
     :
     Medium:
     8:
     :
0000
0000
0000
0000
,
0000
0000
0000
0000
,
0000
0000
0000
0000
,
0010
0000
0100
0000
,
0001
0000
1000
0000
0010
1000
0001
0100
,
0020
0000
0000
0000
,
0000
0000
0000
0030
,
2000
3000
0002
0003
,
0020
0030
0200
0300
,
2002
0000
0000
0000
,
0000
0000
0000
3003
,
0020
1030
0200
0301
,
0010
1010
0100
0101
,
0001
0100
0001
0000
1000
0100
1000
0000
,
0010
0000
0100
0000
0010
1000
0001
0100
,
0002
0103
2000
3010
,
0020
0130
0200
0301
,
1000
0100
0001
0100
,
1000
0100
0001
0010
,
2000
3100
0002
0013
,
0220
0000
0000
0000
0330
0000
0001
0100
,
0001
0000
1000
0000
0001
0100
0010
1000
,
0001
1000
0100
1000
,
0001
0000
0000
0010
0000
0000
0100
0000
1000
0000
0000
0010
0000
0000
1000
0000
,
0200
0000
0300
0000
0110
0000
1000
0010
,
1000
0000
0001
0000
1000
0100
0010
0001
,
1000
0001
0100
0001
,
1000
0000
0000
0010
0000
0000
0100
0000
0001
0000
0000
0010
0000
0000
0001
0000
,
0200
0300
0001
1000
,
0001
0000
0000
0000
0010
0000
0000
0000
0000
0000
0000
0000
0001
0000
0000
0100
,
0000
0000
0000
0000
0100
0000
0000
0000
0000
0000
0000
0000
1000
0000
0000
0010
,
0000
0000
0000
0000
0010
0000
0000
0000
0000
0000
0000
0000
1000
0000
0000
0001
,
0000
0010
1001
0100
,
0001
0010
0000
1000
0000
0001
0000
0110
,
0000
0100
0000
0010
0000
1000
0000
1001
,
0000
0001
0000
0011
0000
1000
0000
1100
,
0000
0001
0000
1000
0000
0001
0000
1000
,
0000
0010
0000
0110
0000
1000
0000
0001
,
0000
1001
0000
0100
0000
0001
0000
1000
,
0010
0000
0001
0000
1000
0001
0100
0000
,
0220
0000
0000
0330
,
0001
1000
0010
0000
0100
0001
0010
0000
,
0002
0103
2000
3010
,
1000
0000
0000
0010
0000
0000
0100
0000
0001
0000
0000
0010
0000
0000
0001
0000
,
0200
0300
0001
1000
,
0010
1000
0100
0000
0010
0001
0100
0000
,
0020
0130
0200
0310
,
0010
0000
0000
1000
0000
0000
0001
0000
0100
0000
0000
0010
0000
0000
1000
0000
,
0002
0003
1000
0001
,
2002
0000
0000
3003
,
0220
0330
2002
3003
,
0010
0001
0100
0000
0001
1000
0100
0000
,
0001
0000
1000
0000
0001
1000
0010
0000
,
0220
0000
0000
0000
,
0000
0000
0000
0330
,
0020
1030
0200
0301
,
0001
0000
1000
0000
0010
1000
0001
0000
,
0000
0000
0000
0000
;

//---------------dance-single - ----------------
#NOTES:
     dance-single:
     :
     Hard:
     12:
     :
0000
0000
0000
0000
,
0000
0000
0000
0000
,
0000
0000
0000
0000
,
0000
0000
0000
0000
,
0000
0000
0000
0000
,
0100
0000
0000
0010
0000
0000
1000
0000
0001
0000
1000
0000
1000
0000
0000
0000
,
0100
0000
0000
0010
0000
0000
0001
0000
1000
0000
0001
0000
0001
0000
0000
0000
,
1000
0000
0000
0100
0000
0000
0010
0000
0000
0000
0001
0000
0000
0000
0100
0000
,
1000
0000
0000
0001
0000
0000
0010
0000
0010
0000
0000
0001
0000
0000
1000
0000
,
0010
0000
0000
0100
0000
0000
0001
0000
1000
0000
0001
0000
0001
0000
0000
0000
,
0010
0000
0000
0100
0000
0000
1000
0000
0001
0000
1000
0000
1000
0000
0000
0000
,
0100
0010
0000
0001
0000
0100
0000
1000
,
0001
0000
0000
0010
0000
0000
1000
0000
1000
0000
0000
0100
0000
0000
0001
0000
,
1000
0000
0000
0010
0000
0000
0100
0000
0001
0000
0100
0000
0010
0000
1000
0000
,
0001
0000
0000
0010
0000
0000
0100
0000
1000
0000
0100
0000
0010
0000
0000
0000
,
0001
0000
0000
0100
0000
0000
0010
0000
0000
0000
1000
0000
0000
0000
1000
0000
,
0100
0000
0000
1000
0000
0000
0010
0000
1000
0000
0000
0001
0000
0000
0100
0000
,
0010
0000
0000
0100
0000
0000
1000
0000
0001
0000
0001
0000
0001
0000
0000
0000
,
0010
0000
0000
0100
0000
0000
0001
0000
1000
0000
1000
0000
1000
0000
0001
0000
,
0100
0000
0010
0000
0000
0000
1000
0100
0000
0000
0010
0000
0000
0000
0001
0100
,
0000
0010
0000
0001
0000
1000
0001
0001
,
1000
0100
0000
0001
0100
0010
0000
1000
,
0100
0010
0000
1000
0001
0000
0010
0100
,
0001
0100
0000
0100
0000
0000
0010
0000
1000
0000
0000
0001
0000
0000
0010
0000
,
0100
0000
0100
0000
1000
0000
0100
0000
0000
0000
0001
0100
0000
0000
0010
0000
,
0001
0100
0000
1000
0100
0010
0000
0001
,
0100
0010
0000
0001
1000
0000
0010
0100
,
1000
0100
0000
0100
0000
0000
0010
0000
0001
0000
0000
1000
0000
0000
0010
0000
,
0100
0000
0100
0000
0001
0000
0100
0000
0010
0000
1000
0100
1000
0000
0001
0000
,
1000
0000
0100
0000
1000
0000
0000
0000
0001
0000
0000
0100
0010
0000
1000
0000
,
0001
0000
0100
0000
0001
0000
0000
0000
1000
0000
0000
0100
0010
0000
0001
0000
,
0010
0000
0100
0000
0010
0000
0001
0000
0000
0000
0000
0100
0010
0000
1000
0000
,
0001
0000
0100
0000
1000
0000
0100
0000
0001
0000
0000
1000
0100
0000
0010
0000
,
0001
0000
0000
0010
0000
0000
0100
0000
1000
0000
0000
1000
0001
0000
0100
0000
,
0000
0000
0010
1000
0000
0000
0001
0100
0000
0000
0001
0000
0100
0000
0010
0000
,
1000
0010
0000
0100
0000
0000
0001
0000
1000
0000
0000
1000
0100
0000
0010
0000
,
0000
0000
0001
0100
0000
0000
1000
0100
0000
0000
0010
0000
0001
0000
0010
0000
,
1000
0000
0000
0100
0000
0000
1000
0000
0001
0000
0000
0010
0100
0000
1000
0000
,
0000
0000
0100
0001
0000
0000
0100
0010
0000
0000
1000
0000
0100
0000
1000
0000
,
0001
0000
0100
0010
0000
0000
1000
0000
1000
0000
0100
0010
0000
0000
0001
0000
,
2002
0000
3003
0100
,
1000
0000
0001
0000
1000
0000
0001
0100
0000
0000
0010
0000
0000
0000
1000
0100
,
0000
0010
0000
1000
0000
0001
0100
0000
,
0010
1000
0000
0001
0000
0000
0100
0000
0100
0000
0000
0001
0000
0000
1000
0000
,
0000
0000
0100
0010
0000
0000
0100
0000
1000
0000
0100
0000
0010
0000
0000
0000
,
0001
0000
1000
0000
0001
0000
1000
0100
0000
0000
0010
0000
0000
0000
0001
0100
,
0000
0010
0000
0001
0000
1000
0100
0000
,
0010
0001
0000
1000
0000
0000
0100
0000
0100
0000
0000
1000
0000
0000
0001
0000
,
0000
0000
0100
0010
0000
0000
0100
0000
0001
0000
0100
0000
0010
0000
0000
0000
,
1000
0000
0001
0000
1000
0000
0001
0010
0000
0000
0100
0000
0000
0000
1000
0010
,
0000
0100
0000
1000
0000
0001
0010
0000
,
0100
1000
0000
0001
0000
0000
0010
0000
0010
0000
0000
0001
0000
0000
1000
0000
,
0000
0000
0010
0100
0000
0000
0010
0000
1000
0000
0010
0000
0100
0000
0000
0000
,
0001
0000
1000
0000
0001
0000
1000
0010
0000
0000
0100
0000
0000
0000
0001
0010
,
0000
0100
0000
0001
0000
1000
0010
0000
,
0100
0001
0000
1000
0000
0000
0010
0000
0010
0000
0000
1000
0000
0000
0001
0000
,
0000
0000
0010
0100
0000
0000
0001
0000
0100
0000
0010
0000
2002
0000
0000
0000
,
0000
0000
0000
3003
,
0000
0000
0000
0000
;

//---------------dance-single - ----------------
#NOTES:
     dance-single:
     :
     Challenge:
     17:
     :
0000
0000
0000
0000
,
0000
0000
0000
0000
,
0000
0000
0000
0000
,
1000
0001
1000
0001
1000
0001
1000
0001
1000
0001
1000
0001
1000
0001
1000
0001
,
0100
0010
0100
0010
0100
0010
0100
0010
0100
0010
0100
0010
0100
0010
0100
0010
,
2000
0000
0000
3002
0000
0000
0023
0000
0032
0000
0103
0010
0100
0000
0100
0000
,
0002
0000
0000
2003
0000
0000
3020
0000
2030
0000
3100
0010
0100
0000
0100
0000
,
2000
0000
0000
3002
0000
0000
0203
0000
0310
1000
0010
0100
0001
0000
0010
0001
,
1000
0000
0010
0100
0000
0100
0001
0000
0010
0000
0100
1000
0000
1000
0001
0000
,
0020
0000
0000
0032
0000
0000
0203
0000
0320
0000
1030
0100
1000
0000
0001
0010
,
0200
0000
0000
2300
0000
0000
3002
0000
0203
0000
0000
0320
0000
0000
2030
0000
,
3002
0000
0000
0010
0000
0000
1000
0000
1000
0000
0000
0010
0000
0000
0100
0000
,
0103
0000
0001
0010
0000
0001
1000
0000
0100
0000
1000
0010
0000
0100
0001
0000
,
0020
0000
0000
0032
0000
0000
2003
0000
3020
0000
1030
0100
0010
0000
0001
0100
,
0002
0000
0000
2003
0000
0000
3200
0000
0320
0000
0031
1000
0001
0000
0100
0000
,
0020
0000
0000
2030
0000
0000
3200
0000
0310
0000
0001
0100
0001
1000
0000
1000
,
0010
0000
0100
0010
0000
1000
0001
0000
0010
0000
0100
1000
0000
0001
0100
0000
,
0002
0000
0000
2003
0000
0000
3002
0000
0203
0000
0310
1000
0010
0100
0001
0000
,
0010
0001
0000
0001
0100
0000
0100
0010
0000
0010
2000
0000
0000
0000
3001
0000
,
0010
0000
0001
0100
0001
0000
1000
0000
0100
0000
0010
0001
0010
0000
0100
0000
,
1000
0010
1000
0010
0100
0001
0100
0001
0010
0001
1000
0001
0100
0000
0000
0000
,
0110
0000
0010
1000
0000
0010
0100
0001
0010
0001
1000
0000
0100
1000
0001
0000
,
0010
0000
0001
0100
0000
0001
0010
0100
1000
0010
1000
0100
1000
0001
0010
0000
,
0100
0000
1000
0010
0000
0100
0001
0010
0001
1000
0010
1000
0100
0010
0001
0000
,
0100
0000
0001
1000
0000
1000
0001
0010
0001
0100
0010
0100
0001
1000
0100
0000
,
0010
0001
0010
0100
0000
1000
0010
1000
0100
1000
0001
0010
0001
1000
0100
0000
,
0010
0000
0001
0100
0000
0001
0010
0100
1000
0010
1000
0001
1000
0000
0100
0000
,
0010
0000
0001
0100
0000
0001
0010
0001
1000
0100
1000
0000
0010
0000
0100
0000
,
0001
0010
0001
0010
0000
0001
1000
0100
1000
0010
0100
0010
1000
0100
1000
0001
,
0010
0000
0001
0100
0000
0100
1000
0000
0000
0000
0010
0000
1001
0000
0100
0001
,
0010
0000
0100
0000
1000
0010
1000
0010
0000
0000
0100
0000
0001
0010
0000
0001
,
1000
0000
0010
0100
0010
0000
0100
0010
0100
0000
0001
0000
0010
0100
0000
1000
,
0001
0000
1000
0010
1000
0000
0010
1000
0010
0000
0100
0001
0100
0001
0010
0000
,
0100
0000
1000
0010
0000
0010
0100
0000
0100
0001
0000
0001
1000
0000
0000
0001
,
0010
0000
0001
1000
0000
1000
0010
0000
0100
0000
0001
0010
0000
0001
0100
0000
,
0010
0000
1000
0100
1000
0000
0001
0100
0001
0000
0010
0001
1000
0010
0100
0000
,
0001
0000
0010
0100
0000
0100
1000
0000
1000
0010
0000
0010
0100
0000
0001
0000
,
0010
0000
0001
0100
0000
0010
1000
0000
0100
1000
0100
1000
0001
0010
0100
0000
,
1000
0000
0010
0100
0001
0000
0010
0100
1000
0000
0002
0000
0000
0000
2003
0000
,
3010
0000
1000
0100
0000
0000
0100
0010
0001
1000
0001
1000
0100
0000
1000
0010
,
0100
0000
0001
0000
1000
0001
1000
0000
0001
1000
0001
0000
0100
0000
0000
0000
,
0110
0000
0010
1000
0000
1000
0001
0010
0001
0100
0010
0100
0001
1000
0100
0000
,
0010
0000
0001
0100
0000
0001
0010
0001
1000
0100
1000
0001
0010
0100
1000
0000
,
0010
0000
1000
0100
0000
1000
0001
0010
0001
0100
0001
0010
0001
1000
0100
0000
,
0010
0001
0100
0001
0000
1000
0100
1000
0010
0100
0010
1000
0100
0010
0001
0000
,
0100
0000
0001
0010
0000
0001
0010
0100
1000
0100
0010
0100
1000
0001
1000
0000
,
0100
0000
1000
0010
0000
0100
0001
0010
0001
0100
0001
0010
0100
1000
0001
0000
,
0010
0000
0100
0010
0000
0100
1000
0001
1000
0010
0100
0001
1000
0001
1000
0100
,
0010
0001
1000
0010
0000
0100
0010
0100
0001
0010
0001
1000
0010
1000
0100
0010
,
0001
0000
0100
0010
0000
0010
1000
0001
1000
0010
0100
0010
1000
0001
0100
0000
,
0010
0000
1000
0100
0000
0010
0100
0010
0001
0100
0010
1000
0001
0100
0001
0000
,
1000
0010
1000
0010
0000
0100
0001
0010
0001
0100
0010
1000
0100
0010
0001
0000
,
1000
0010
0100
0001
0000
0001
0010
0100
1000
0010
1000
0001
0010
0001
1000
0100
,
0010
0001
0010
0100
0000
1000
0010
1000
0100
1000
0001
0010
0001
0000
1000
0000
,
0100
0000
0010
0001
0000
1000
0010
1000
0100
0010
0001
1000
0001
0000
0100
0000
,
0010
1000
0010
1000
0001
0010
0001
0010
0100
1000
0100
1000
0001
0100
0001
0100
,
0010
0001
1000
0100
0001
0100
1000
0001
0010
0100
0010
1000
0010
1000
0001
0200
,
0020
0000
0000
0000
,
0330
0000
0000
0000
;

//---------------dance-double - ----------------
#NOTES:
     dance-double:
     :
     Easy:
     3:
     :
00000000
00000000
00000000
00000000
,
00000000
00000000
00000000
00000000
,
00000000
00000000
00000000
00000000
,
10000000
00000000
00000000
00000000
,
00010000
00000000
00000000
00000000
,
01000000
00000000
00100000
00000000
,
00010000
00000000
00001000
00000000
,
00000100
00000000
00000001
00000000
,
00000010
00000000
00001000
00000000
,
00010000
00000000
00001000
00000000
,
01000000
00000000
00100000
00000000
,
10000000
00000000
01000000
00000000
,
00200000
00000000
00000000
00300000
,
00010000
00000000
10000000
00000000
,
00100000
00000000
00010000
00000000
,
00001000
00000000
00000010
00000000
,
00000001
00000000
00001000
00000000
,
00000100
00000000
00010000
00000000
,
00001000
00000000
00010000
00000000
,
02000000
03000000
00000000
00000000
,
20000000
30000000
00000000
00000000
,
20020000
00000000
00000000
30030000
,
00000000
00000000
00100000
00000000
,
00010000
00000000
00001000
00000000
,
00000010
00000000
00000001
00000000
,
00002000
00003000
00000000
00000000
,
00000002
00000003
00000000
00000000
,
00000010
00000000
00000001
00000000
,
00000100
00000000
00001000
00000000
,
00010000
00000000
00000000
00000000
,
00001000
00000000
00010000
00000000
,
01000000
00000000
10000000
00000000
,
00010000
00010000
10000000
00000000
,
20020000
30030000
00000000
00000000
,
02000000
03000000
00000000
00000000
,
00020000
00030000
00000000
00000000
,
00002000
00003000
00000000
00000000
,
00000200
00000300
00000000
00000000
,
00000002
00000003
00000000
00001000
,
00000002
00000003
00000000
00000000
,
00002002
00000000
00000000
00003003
,
00000020
00000000
00000000
00000030
,
00002000
00000000
00000000
00003000
,
00010000
00000000
01000000
00000000
,
10000000
00000000
00010000
00000000
,
00200000
00000000
00000000
00300000
,
00010000
00000000
10000000
00000000
,
00010000
00000000
01000000
00000000
,
01000000
00000000
00100000
00000000
,
20000000
00000000
00000000
30000000
,
01000000
00000000
00010000
00000000
,
00001000
00000000
00000100
00000000
,
00000001
00000000
00000010
00000000
,
00002000
00000000
00000000
00003000
,
00000000
00000000
00000000
00000000
,
00020000
00000000
00000000
00030000
,
00000000
00000000
00001000
00000000
,
00011000
00000000
00000000
00000000
,
00000000
00000000
00000000
00000000
;

//---------------dance-double - ----------------
#NOTES:
     dance-double:
     :
     Medium:
     8:
     :
00000000
00000000
00000000
00000000
,
00000000
00000000
00000000
00000000
,
00000000
00000000
00000000
00000000
,
00000000
00000000
00000000
00000000
,
00000000
00000000
00000000
00000000
,
00001000
00000000
00000000
00000001
00000000
00000000
00000000
00000000
00000100
00000000
00000000
00000000
00000000
00000000
00000000
00000000
,
00001000
00000000
00000000
00010000
00000000
00000000
00000000
00000000
01000000
00000000
00000000
00000000
00000000
00000000
00000000
00000000
,
10000000
00000000
00000000
00010000
00000000
00000000
00000000
00000000
10000000
00000000
00000000
00000000
01000000
00000000
00000000
00000000
,
00010000
00000000
00000000
00001000
00000000
00000000
00000000
00000000
00000010
00000000
00000000
00000000
00000001
00000000
00000000
00000000
,
00001000
00000000
00000000
00000001
00000000
00000000
00000000
00000000
00000100
00000000
00000000
00000000
00000000
00000000
00000000
00000000
,
00001000
00000000
00000000
00010000
00000000
00000000
00000000
00000000
00100000
00000000
00000000
00000000
00000000
00000000
00000000
00000000
,
10000000
01000000
00000000
00000000
00010000
01000000
00000000
00000000
,
00010000
00000000
00000000
00001000
00010000
00000000
01000000
00000000
,
10000000
00000000
00000000
00010000
00000000
00000000
00000000
00000000
01000000
00000000
00000000
00000000
00000000
00000000
00000000
00000000
,
00010000
00000000
00000000
00001000
00000000
00000000
00000000
00000000
00000100
00000000
00000000
00000000
00000000
00000000
00000000
00000000
,
00000001
00000000
00000000
00001000
00000000
00000000
00000000
00000000
00000001
00000000
00000000
00000000
00000100
00000000
00000000
00000000
,
00001000
00000000
00000000
00010000
00000000
00000000
00000000
00000000
00100000
00000000
00000000
00000000
10000000
00000000
00000000
00000000
,
00010000
00000000
00000000
10000000
00000000
00000000
00000000
00000000
01000000
00000000
00000000
00000000
00000000
00000000
00000000
00000000
,
00010000
00000000
00000000
00001000
00000000
00000000
00000000
00000000
00000010
00000000
00000000
00000000
00000000
00000000
00000000
00000000
,
00000001
00000100
00000000
00000000
00001000
00000100
00000000
00000000
,
00001000
00010000
00001000
00000100
,
00000010
00000000
00000000
00001000
00000000
00010000
00000000
00100000
,
00000000
10000000
00000000
01000000
00000000
00010000
01000000
00000000
,
00010000
00000000
00000000
00001000
00000000
00000000
00000000
00000000
00000100
00000000
00000000
00000001
00000000
00000000
00000000
00000000
,
00000001
00000100
00001000
00010000
,
00100000
00000000
00000000
00010000
00000000
00001000
00000000
00000010
,
00000000
00000001
00000000
00000100
00000000
00001000
00000100
00000000
,
00001000
00000000
00000000
00010000
00000000
00000000
00000000
00000000
01000000
00000000
00000000
10000000
00000000
00000000
00000000
00000000
,
10000000
01000000
00010000
00001000
,
00000100
00001000
00010000
00100000
,
00010000
00001000
00000010
00001000
,
00010000
01000000
00010000
00001000
,
00000100
00000001
00000010
00001000
,
00010000
00000000
00000000
00100000
20000000
00000000
00000000
00000000
,
01000000
00000000
30000000
01000000
00010000
00000000
00010000
00000000
,
00001000
00000000
00000000
00000010
00000002
00000000
00000000
00000000
,
00000100
00000000
00000003
00000100
00001000
00000000
00001000
00000000
,
00010000
00000000
00000000
01000000
20000000
00000000
00000000
00000000
,
00010000
00000000
30000000
00100000
10000000
00000000
01000000
00000000
,
00010000
00000000
00000000
00001000
00000000
00000100
00000000
00000001
,
00000202
00000000
00000300
00000013
,
00000001
00000100
00000001
00000000
00000100
00000000
00000000
00000000
,
00001000
00000100
00001000
00000000
00010000
00000000
00010000
00000000
,
00100000
00000000
00000000
10000000
00000000
00000000
00000000
00000000
01000000
00000000
00000000
00000000
00000000
00000000
00000000
00000000
,
00010000
00001000
00000010
00000001
,
00000010
00001000
00000010
00000000
00001000
00000000
00000000
00000000
,
00010000
01000000
00010000
00000000
00001000
00000000
00001000
00000000
,
00000010
00000000
00000000
00000001
00000000
00000000
00000000
00000000
00000100
00000000
00000000
00000000
00000000
00000000
00000000
00000000
,
00001000
00010000
00100000
10000000
,
01000000
00010000
01000000
00000000
00010000
00000000
00000000
00000000
,
00001000
00000010
00001000
00000000
00010000
00000000
00010000
00000000
,
01000000
00000000
00000000
10000000
00000000
00000000
00000000
00000000
00100000
00000000
00000000
00000000
00000000
00000000
00000000
00000000
,
00010000
00001000
00000100
00000001
,
00000100
00001000
00000100
00000000
00001000
00000000
00000000
00000000
,
00010000
01000000
00010000
00000000
00001000
00000000
00001000
00000000
,
00000100
00000000
00000000
00000001
00000000
00000000
00000000
00000000
00000010
00000000
00000000
00000000
00000000
00000000
00000000
00000000
,
00000001
00000000
00000100
00000000
00001000
00020000
00002000
00000000
,
00000000
00000000
00000000
00033000
,
00000000
00000000
00000000
00000000
;

//---------------dance-double - ----------------
#NOTES:
     dance-double:
     :
     Hard:
     12:
     :
00000000
00000000
00000000
00000000
,
00000000
00000000
00000000
00000000
,
00000000
00000000
00000000
00000000
,
00000000
00000000
00000000
00000000
,
00000000
00000000
00000000
00000000
,
01000000
00000000
00000000
00100000
00000000
00000000
10000000
00000000
01000000
00000000
00010000
00000000
00001000
00000000
00000000
00000000
,
00010000
00000000
00000000
00001000
00000000
00000000
00000010
00000000
00000001
00000000
00000000
00001000
00000000
00000000
00000100
00000000
,
00000010
00000000
00000000
00000001
00000000
00000000
00000100
00000000
00000000
00000000
00001000
00000000
00000000
00000000
00010000
00000000
,
00001000
00000000
00000000
00010000
00000000
00000000
00100000
00000000
10000000
00000000
00000000
00010000
00000000
00000000
01000000
00000000
,
00100000
00000000
00000000
10000000
00000000
00000000
01000000
00000000
00010000
00000000
00001000
00000000
00000100
00000000
00000000
00000000
,
00001000
00000000
00000000
00010000
00000000
00000000
00100000
00000000
00010000
00000000
00000000
00001000
00000000
00000000
00000100
00000000
,
00000001
00000100
00000000
00001000
00000000
00010000
00000000
00001000
,
00010000
00000000
00000000
00100000
00000000
00000000
10000000
00000000
01000000
00000000
00000000
10000000
00000000
00000000
00100000
00000000
,
01000000
00000000
00000000
00100000
00000000
00000000
10000000
00000000
01000000
00000000
00010000
00000000
00001000
00000000
00000000
00000000
,
00010000
00000000
00000000
00001000
00000000
00000000
00000100
00000000
00000001
00000000
00000000
00001000
00000000
00000000
00000100
00000000
,
00000010
00000000
00000000
00000001
00000000
00000000
00000010
00000000
00000000
00000000
00001000
00000000
00000000
00000000
00010000
00000000
,
00001000
00000000
00000000
00010000
00000000
00000000
01000000
00000000
10000000
00000000
00000000
00010000
00000000
00000000
01000000
00000000
,
00100000
00000000
00000000
10000000
00000000
00000000
00100000
00000000
00010000
00000000
00001000
00000000
00000100
00000000
00000000
00000000
,
00001000
00000000
00000000
00010000
00000000
00000000
01000000
00000000
00010000
00000000
00000000
00001000
00000000
00000000
00000010
00000000
,
00000001
00000100
00000000
00001000
00000000
00010000
00000000
00001000
,
00010000
00000000
00001000
00010000
00000000
00000000
00100000
00000000
10000000
00000000
01000000
00000000
10000000
00000000
00000000
00000000
,
01000000
00000000
00010000
00000000
01000000
00000000
00000000
00000000
00010000
00001000
00000000
00000000
00000010
00000000
00000000
00000000
,
00000001
00000000
00000100
00000000
00001000
00000000
00000100
00000000
00001000
00010000
00000000
00000000
00100000
00000000
00000000
00000000
,
10000000
00100000
00000000
10000000
00000000
00000000
01000000
00000000
10000000
00000000
00000000
01000000
00000000
00000000
00010000
00000000
,
00000000
00000000
00001000
00010000
00000000
00000000
00001000
00000010
00000000
00000000
00000001
00000000
00000001
00000000
00000000
00000000
,
00000100
00000000
00001000
00000000
00000100
00000000
00000000
00000000
00001000
00010000
00000000
00000000
00100000
00000000
00000000
00000000
,
10000000
00000000
01000000
00000000
00010000
00000000
01000000
00000000
00010000
00001000
00000000
00000000
00000010
00000000
00000000
00000000
,
00000001
00000010
00000000
00000001
00000000
00000000
00000100
00000000
00000001
00000000
00000000
00000100
00000000
00000000
00001000
00000000
,
00000000
00000000
00010000
00001000
00000000
00000000
00010000
00100000
00000000
00000000
10000000
00000000
10000000
00000000
00000000
00000000
,
01000000
10000000
00000000
00000000
00010000
00000000
00000000
00000000
10000000
00000000
00000000
01000000
00010000
00000000
01000000
00000000
,
00010000
00001000
00000000
00000000
00001000
00000000
00000000
00000000
00000010
00000000
00000000
00000010
00000001
00000000
00000100
00000000
,
00000100
00000001
00000000
00000000
00001000
00000000
00000000
00000000
00000001
00000000
00000000
00000100
00001000
00000000
00000100
00000000
,
00001000
00010000
00000000
00000000
00010000
00000000
00000000
00000000
00100000
00000000
00000000
00100000
10000000
00000000
01000000
00000000
,
10000000
00000000
00000000
01000000
00000000
00000000
00010000
00000000
00000000
00000000
00100000
01000000
00000000
00000000
00010000
00000000
,
00000000
00000000
00001000
00010000
00000000
00000000
00010000
00000100
00000000
00000000
00000010
00000000
00000001
00000000
00000100
00000000
,
00000001
00000100
00000000
00000100
00000000
00000000
00000001
00000000
00000000
00000000
00000100
00000000
00000000
00000000
00000100
00001000
,
00000000
00000000
00010000
00000000
00000000
00000000
01000000
00000000
00000000
00000000
01000000
10000000
00000000
00000000
00100000
00000000
,
10000000
00000000
00000000
01000000
00000000
00000000
00010000
00000000
00001000
00000000
00001000
00000010
00000000
00000000
00000001
00000000
,
00000000
00000000
00001000
00000001
00000000
00000000
00000001
00000100
00000000
00000000
00000100
00000000
00000000
00000000
00001000
00000000
,
00010000
00000000
00001000
00000000
00010000
00000000
00100000
00000000
10000000
00000000
00000000
10000000
01000000
00000000
00010000
00000000
,
00020000
00000000
00030000
00001000
,
00001000
00000000
00000000
00000010
00000001
00000000
00000010
00000000
00000000
00000000
00000001
00000000
00000100
00000000
00000001
00000000
,
00000100
00000000
00000000
00000100
00001000
00000000
00000100
00000000
00001000
00000000
00010000
00000000
00100000
00000000
00000000
00000000
,
00010000
00100000
00000000
10000000
00000000
00000000
10000000
00000000
01000000
00000000
00000000
00010000
00000000
00000000
00001000
00000000
,
00000000
00000100
00000000
00000001
00000100
00001000
00010000
00000000
,
00010000
00000000
00000000
00100000
10000000
00000000
00100000
00000000
00000000
00000000
10000000
00000000
01000000
00000000
10000000
00000000
,
01000000
00000000
00000000
01000000
00010000
00000000
01000000
00000000
00010000
00000000
00001000
00000000
00000010
00000000
00000000
00000000
,
00001000
00000010
00000000
00000001
00000000
00000000
00000001
00000000
00000100
00000000
00000000
00001000
00000000
00000000
00010000
00000000
,
00000000
01000000
00000000
10000000
01000000
00010000
00001000
00000000
,
00001000
00000000
00000000
00000100
00000001
00000000
00000100
00000000
00000000
00000000
00000001
00000000
00000010
00000000
00000001
00000000
,
00000010
00000000
00000000
00000010
00001000
00000000
00000010
00000000
00001000
00000000
00010000
00000000
01000000
00000000
00000000
00000000
,
00010000
01000000
00000000
10000000
00000000
00000000
10000000
00000000
00100000
00000000
00000000
00010000
00000000
00000000
00001000
00000000
,
00000000
00000010
00000000
00000001
00000010
00001000
00010000
00000000
,
00010000
00000000
00000000
01000000
10000000
00000000
01000000
00000000
00000000
00000000
10000000
00000000
00100000
00000000
10000000
00000000
,
00100000
00000000
00000000
00100000
00010000
00000000
00100000
00000000
00010000
00000000
00001000
00000000
00000100
00000000
00000000
00000000
,
00001000
00000100
00000000
00000001
00000000
00000000
00000001
00000000
00000010
00000000
00000000
00001000
00000000
00000000
00010000
00000000
,
00001000
00000000
00010000
00000000
00100000
00010000
00000000
00000000
00100000
00000000
10000000
00000000
01000000
00000000
00020000
00002000
,
00000000
00000000
00000000
00033000
,
00000000
00000000
00000000
00000000
;
