#TITLE:hora de verdad;
#SUBTITLE:;
#ARTIST:Vandalusia KAI;
#TITLETRANSLIT:;
#SUBTITLETRANSLIT:;
#ARTISTTRANSLIT:;
#GENRE:;
#CREDIT:;
#BANNER:hora de verdad-bn.png;
#BACKGROUND:hora de verdad-bg.png;
#LYRICSPATH:;
#CDTITLE:;
#MUSIC:hora de verdad.ogg;
#OFFSET:0.000000;
#SAMPLESTART:24.000000;
#SAMPLELENGTH:20.000000;
#SELECTABLE:YES;
#DISPLAYBPM:140.000000:280.000000;
#BPMS:0.000000=140.000000
,32.000000=280.000000
;
#STOPS:
;
#BGCHANGES:;
#KEYSOUNDS:;
#ATTACKS:;

//---------------dance-single - ----------------
#NOTES:
     dance-single:
     :
     Hard:
     17:
     0.871361,0.975833,0.350654,0.553664,0.055366,661.000000,623.000000,38.000000,60.000000,0.000000,0.000000,0.871361,0.975833,0.350654,0.553664,0.055366,661.000000,623.000000,38.000000,60.000000,0.000000,0.000000:
0000
0000
0000
0000
,
0000
0000
0000
0000
,
0000
0000
0000
0000
,
0000
0000
0000
0000
,
1000
0100
0010
0002
0000
0000
0000
0000
0000
0103
0010
1000
,
0002
0000
0000
0000
0000
0000
1003
0100
1000
0001
0100
0001
,
1000
0100
0010
0002
0000
0000
0000
0000
0000
0103
0010
1000
,
0001
0000
1001
0000
0011
0000
0100
0010
,
1000
0000
0100
0010
0001
0000
0100
0000
,
0100
0000
0100
0000
0001
0000
1000
0010
,
0100
0001
0001
0001
,
1000
0000
0001
0100
0010
0000
1000
0000
,
1000
0000
1000
0000
0100
1000
0001
0000
,
0001
0000
1000
0100
0001
0100
1000
0000
,
0010
0100
0010
0100
0010
0000
1000
0100
,
0010
0001
0100
0010
1000
0001
1000
0001
,
1000
0000
0001
0010
0001
0100
0010
1000
,
0200
1300
1100
0201
,
0310
1010
0021
0001
,
1000
0031
0101
1100
,
1001
0000
1000
0010
0100
0001
2000
0000
,
0000
3010
1000
0001
0200
0000
0000
0000
,
0301
1000
0020
0000
0100
0000
0130
0000
,
0110
0000
0001
0010
1000
0010
0001
0000
,
0100
0000
0010
0000
1010
0000
1000
0001
,
1000
1100
0110
0011
,
0201
0000
0310
1000
0002
0000
0103
0010
,
1000
0010
0100
0001
0200
0000
0310
1000
,
0001
1000
0200
0000
0010
0000
1300
0001
,
0200
0000
1000
0000
1300
0100
0001
0010
,
1000
0010
0100
0010
1000
0010
0001
0010
,
1000
0010
0100
0010
1000
0010
0001
0010
,
1000
0010
0001
0000
0001
0000
0001
0100
,
1000
0100
0002
0000
1003
0100
0001
0100
,
2000
0000
3001
1000
0010
0100
1000
0100
,
0001
0100
0010
1000
0100
0001
0100
0010
,
0100
1000
0200
0000
1300
0010
0001
0010
,
2000
0000
3001
0100
0010
0100
1000
0100
,
0010
1000
0100
0001
0100
0010
0001
0100
,
0001
0100
0001
0100
1000
0100
1000
0100
,
1000
0100
0001
0010
0001
0010
0001
0010
,
1000
0010
1000
0010
1000
0010
0001
0100
,
0010
0100
1000
0100
0001
0010
0100
0010
,
1000
0010
0001
1000
0001
1000
0001
1000
,
0010
0100
0010
0100
0010
0100
0001
0010
,
0100
1000
0000
1000
0002
0000
0103
0010
,
0100
0001
2000
0000
0100
0000
3001
1000
,
0020
0000
0100
0000
0130
0000
1000
0100
,
0001
0100
1000
0001
0100
0000
0110
0000
,
1001
0000
1000
0100
0001
1000
0010
0001
,
1000
0100
0001
1000
0010
0001
0100
0010
,
1000
0001
0000
0001
0020
0000
1030
0010
,
0001
0100
0020
0000
1000
0000
0130
0010
,
2000
0000
0100
0000
3001
0000
0010
0001
,
0010
0100
0010
0001
0100
0010
0100
1000
,
0100
0010
2000
0000
3001
0000
1100
0000
,
0102
0013
0011
1020
,
0100
1030
2002
0000
,
3003
0100
0010
0000
0000
0000
0000
0000
,
0000
0000
0000
0000
,
0000
0000
0000
0000
,
0000
0000
0000
0000
,
0000
0000
0000
0000
,
0000
0000
0000
0000
,
0000
0000
0000
0000
,
0000
0000
0000
0000
0000
0000
2000
0001
,
0000
0001
0000
3001
0100
0000
0010
1000
,
0010
1000
0001
0110
,
2001
0000
3100
0001
1000
0100
1000
0100
,
0010
0001
0000
0001
0100
0010
1000
0001
,
0000
0001
0010
0100
0010
0001
1000
0001
,
1000
0100
0001
0100
1000
0001
0100
0010
,
1000
0001
0000
0001
0010
0001
1000
0100
,
0000
0100
0001
0100
1000
0010
1000
0001
,
0100
0010
1000
0001
1000
0010
1000
0100
,
1000
0100
1000
0000
0001
0100
0001
0100
,
0001
0000
1000
0010
1000
0010
1000
0000
,
0001
0010
0001
0010
0001
0000
1010
0000
,
0001
0010
0100
1000
0010
0100
0010
1000
,
0001
1000
0200
0000
0010
0000
0310
0000
,
0011
0110
1100
1001
,
0100
0010
0000
0010
1000
0000
1000
0100
,
0000
0100
0010
0000
0001
0000
0100
0000
,
0001
0010
0001
0100
0010
1000
0100
0000
,
1000
0001
0000
0001
0100
0000
0100
0010
,
0000
0010
1000
0100
1000
0000
0001
0100
,
0010
0001
0010
0100
0010
1000
0010
1000
,
0001
1000
0000
0100
0020
0000
0032
0000
,
2003
3020
0230
0302
,
2003
3002
0203
0320
,
1030
0100
1000
0000
0001
0000
0001
0000
,
0001
0000
0010
0000
0001
0100
0001
0000
,
1100
0101
1100
0011
,
0100
0010
0100
0000
0001
0000
0001
0000
,
0001
0000
0010
0000
0100
1000
0100
0000
,
1000
0010
0001
0010
1000
0100
0020
0000
,
0001
0000
0031
0100
0020
0000
1000
0000
,
1030
0000
0002
0000
1000
0000
1003
0010
,
0200
0000
1000
0000
0301
0000
0100
0010
,
0100
0010
0100
0000
0001
1000
0001
1000
,
0001
0000
1000
0100
0001
0100
1000
0100
,
0002
0000
0203
0000
2300
0000
3001
0100
,
0010
1000
0100
0010
0002
0000
0000
1003
,
0001
0010
0200
0000
0000
0000
1300
0010
,
0200
0001
0001
0310
,
1000
0001
1000
0010
0100
0000
0001
0000
,
1000
0000
0010
1000
0010
0100
0010
0001
,
0010
0001
0010
0100
0010
1000
0001
0000
,
0010
0001
0100
0010
2000
0000
3100
1000
,
0010
0100
0002
0000
0010
0000
1003
0100
,
0002
0000
1000
0000
0013
0000
0001
0100
,
0010
0100
1000
0100
0010
0100
1000
0100
,
0001
1000
0020
0000
0130
0000
1010
0000
,
0102
1003
0011
2100
,
3001
0100
0010
0000
0220
0000
0000
0000
,
0000
0000
0000
0000
,
0000
0000
0000
0000
,
0000
0000
0330
0000
;

//---------------dance-single - ----------------
#NOTES:
     dance-single:
     :
     Challenge:
     19:
     1.112601,1.084258,0.701308,0.627486,0.138416,844.000000,768.000000,76.000000,68.000000,0.000000,0.000000,1.112601,1.084258,0.701308,0.627486,0.138416,844.000000,768.000000,76.000000,68.000000,0.000000,0.000000:
0000
0000
0000
0000
,
0000
0000
0000
0000
,
0000
0000
0000
0000
,
0000
0000
0000
0000
,
1000
0001
0100
0020
0000
0000
0000
0000
0000
1030
0100
0010
,
0002
0000
0000
0000
0000
0000
1003
0100
0001
1000
0010
0001
,
0100
0010
1000
0002
0000
0020
0000
0000
0030
1003
0001
0010
,
0100
0000
2000
0000
0001
0000
3000
0000
0011
0000
0200
0000
0000
0320
0000
0000
,
1030
0100
0001
0100
1000
0000
0011
0000
,
0110
0000
1100
0000
0010
1000
0100
0010
,
0001
0101
1010
1100
,
1001
0000
0010
1000
0001
0100
0110
0000
,
1010
0000
1100
0000
0101
1000
0010
1000
,
0001
0000
0010
0001
0100
0010
1000
0001
,
1000
0100
0010
0001
0100
0010
1000
0001
,
1000
0100
0010
0001
0100
0010
1000
0001
,
1000
0100
0010
1000
0010
0001
0100
0010
,
2010
0001
0001
3001
1001
0000
0102
0100
,
0100
0103
0110
0000
1010
1000
0100
0010
,
0001
0100
0010
0000
1100
0000
0110
0000
,
0011
1000
0001
0010
0100
1000
0002
0000
,
0103
0010
0100
1000
0200
0000
0001
0000
,
0301
0000
0010
0000
0100
0000
2000
0000
0000
0000
0000
0000
0001
0000
0000
0001
0000
0000
3001
0000
0000
0000
0000
0000
,
1000
0010
0001
0010
0100
0010
0001
0010
,
1000
0100
0001
0100
1100
0000
1001
1001
,
1001
0011
1100
0101
,
2010
0000
0001
0100
3200
0000
1300
0001
,
0010
1000
0010
0100
0020
0000
0031
0100
,
0010
0000
0000
1000
0000
0000
0002
0000
0000
0000
0000
0000
0010
0000
0000
0000
0000
0000
1003
0000
0001
0000
0010
0000
,
0200
0000
0001
0000
1300
0001
0100
0010
,
0100
1000
0100
0010
0100
0001
0100
1000
,
0100
0001
0010
1000
0010
0100
0010
0001
,
0100
0100
0100
0000
0110
0000
1000
0100
,
0001
0100
2000
0000
3001
0100
1000
0100
,
0002
0000
0013
0100
0001
0100
1000
0010
,
0100
0001
0100
0000
0010
0000
1000
0000
0001
0000
0010
0000
1000
0000
0010
0000
,
0001
0100
0020
0000
1030
0010
0001
0010
,
2000
0000
3001
0100
0010
0001
0010
1000
,
0100
0001
0010
1000
0001
0100
0010
1000
,
0010
0001
0010
0100
1000
0100
0001
0010
,
1000
0001
0100
0001
0100
0010
0001
0100
,
0010
1000
0100
0001
0100
0010
0001
0100
,
0010
0001
0010
0100
0001
1000
0100
1000
,
0010
0100
0001
0010
1000
0001
0100
1000
,
0001
0010
1000
0001
0100
1000
0010
0100
,
1000
0100
0001
1000
2100
0000
3001
1000
,
0100
0000
0000
0010
0000
0000
0012
0000
0000
0000
0000
0000
0100
0000
0000
0000
0000
0000
0013
0000
0001
0000
1000
0000
,
0020
0000
0130
0001
1000
0100
0010
0001
,
0010
0100
0010
0001
0100
0010
0001
0010
,
1000
0001
2000
0100
3100
0002
0100
0103
,
2000
0010
3010
0002
0010
0013
1000
0001
,
0010
1000
0100
0010
1002
0000
0103
0010
,
1000
0000
0000
0001
0000
0000
2100
0000
0000
0000
0000
0000
0010
0000
0000
0000
0000
0000
3100
0000
1000
0000
0001
0000
,
0200
0000
0310
1000
0001
0010
1000
1000
,
1000
0100
0010
0001
0100
0100
0100
0010
,
1000
0001
0012
0000
0103
0010
1010
0000
,
0201
0000
0310
1000
1001
0000
0021
0001
,
0001
0001
0001
0031
2002
0000
0000
0000
,
3003
0100
0110
0000
0000
0010
0000
0000
,
0000
1000
0000
0000
0001
0000
0020
0000
,
0000
0000
0000
0031
0100
0010
1000
0002
,
0000
0013
0100
1000
0002
0000
0203
0000
,
0320
0000
0000
0000
0000
0000
1030
0001
,
1000
0100
0010
0001
0100
0010
0100
0002
,
0000
0000
0000
0000
0000
0000
1003
0100
,
0010
0001
0010
0100
1000
0001
0100
0110
,
0000
0110
0000
0110
0002
0000
0013
0100
,
1000
0000
0010
1000
0001
1000
1100
0000
,
0201
0000
0310
0100
0001
1000
0002
0100
,
0103
2000
0010
3010
0200
0001
0301
0020
,
1000
1030
0001
0010
1000
0001
0100
1000
,
0001
0010
1000
0001
0100
1000
0020
0100
,
0130
0002
0010
0013
2000
0001
3001
0200
,
0010
0310
1000
0001
0010
0001
0100
0010
,
1000
0100
0001
0100
0010
0100
0001
0100
,
1000
0100
0001
1000
0010
0001
0010
1000
,
0100
0010
0001
0001
1000
1000
0001
0001
,
0100
0100
0010
0010
0100
0100
0101
1000
,
0100
0010
0001
1000
1010
0010
0100
0001
,
0010
1000
1100
0010
1000
0001
0100
0010
,
1100
0000
0110
0000
0011
0000
1001
0100
,
0010
1000
0100
0010
0001
0100
0001
0010
,
0100
1000
0010
0010
0010
1000
0001
1000
,
0100
0010
0001
0100
0010
1000
0001
0100
,
0010
0100
0001
0010
1000
0010
0100
0010
,
0001
1000
0010
0100
1000
0100
0001
1000
,
0010
0100
0010
0100
0010
0100
0001
0010
,
0001
0100
0010
1000
0001
0010
1000
0010
,
0100
0010
0001
0100
0001
1000
0100
1000
,
0001
0010
0001
1000
0010
1000
2100
0000
,
0001
0001
3001
0000
0011
0000
0011
0000
,
0011
0000
0102
0000
1000
1000
1003
0000
,
0010
0010
1000
1000
0001
0001
0021
0000
,
0100
0100
0130
0000
1100
0000
1100
0000
,
1100
0000
1020
0000
0100
0100
0230
0000
,
0301
1000
0001
1000
0001
0000
0100
0000
0010
0000
1000
0000
0100
0000
1000
0000
,
0010
1000
0001
0001
0001
0000
0110
0000
,
1001
0000
0010
0001
0100
0010
1000
1000
,
1000
0000
0110
0000
1001
0000
1000
0010
,
0100
1000
0100
0001
0010
0100
0001
0100
,
0010
0001
1000
0001
1000
0010
0100
1000
,
0100
0100
0100
0100
0100
0100
0001
1000
,
0010
1000
0100
0010
0012
0000
1003
0001
,
0100
0000
0000
0010
0000
0000
1020
0000
0000
0000
0000
0000
0001
0000
0000
0000
0000
0000
1030
0000
0100
0000
0010
0000
,
0002
0000
0100
0100
0103
0010
1000
1000
,
0100
0001
0100
0010
0001
0100
1000
0100
,
0010
0100
0001
0001
0001
0010
0010
0010
,
0100
0100
0100
1000
1000
1000
0010
1000
,
0001
0010
0100
1000
2100
0000
3010
1000
,
0100
0000
0000
0001
0000
0000
0021
0000
0000
0000
0000
0000
1000
0000
0000
0000
0000
0000
0031
0000
0010
0000
0100
0000
,
2000
0000
3010
1000
0001
0100
0001
0010
,
1000
0001
0100
1000
0010
0100
0001
0010
,
0100
1000
2100
0100
0100
3100
1100
0000
,
0201
0001
0001
0301
0101
0000
2010
0010
,
0010
0010
0010
3010
0220
0000
0000
0000
,
0000
0000
0000
0000
,
0000
0000
0000
0000
,
0000
0000
0330
0000
;

//---------------dance-single - ----------------
#NOTES:
     dance-single:
     :
     Medium:
     14:
     0.590575,0.813194,0.387565,0.645941,0.041525,448.000000,406.000000,42.000000,70.000000,0.000000,0.000000,0.590575,0.813194,0.387565,0.645941,0.041525,448.000000,406.000000,42.000000,70.000000,0.000000,0.000000:
0000
0000
0000
0000
,
0000
0000
0000
0000
,
0000
0000
0000
0000
,
0000
0000
0000
0000
,
1000
0001
1000
0002
0000
0000
0000
0000
0000
0103
0010
0100
,
0020
0000
0000
0000
0000
0000
0030
0000
0100
0002
0000
0000
,
1003
0001
1000
0002
0000
0000
0000
0000
0000
0103
0010
0100
,
0010
0000
1100
0000
0011
0000
0100
0010
,
1000
0001
1000
0010
,
0100
0001
0010
0001
,
0100
0010
0100
0010
,
1000
0100
1000
0100
,
0010
0001
0100
0001
,
0010
0001
0100
0010
,
1000
0001
1000
0010
,
0100
0001
0010
0100
,
1000
0001
1000
0100
,
2200
3300
0001
0202
,
0303
0100
0220
0000
,
0000
0330
1000
0001
,
0020
0000
0000
0031
0000
1000
0200
0000
,
0000
0000
1300
0001
2000
0000
0000
0000
,
3010
0100
0020
0000
0000
0000
0000
0000
,
1030
0100
0010
0001
,
1000
0000
0001
0000
0010
0000
0001
1000
,
0001
0100
0010
0100
,
0202
0000
0303
1000
0001
0000
0200
0000
,
0000
0310
0000
1000
0002
0000
0000
0000
,
1003
0010
2000
0000
0000
0000
3100
0010
,
0200
0000
0000
0000
1300
0001
1000
0000
,
0010
1000
0100
0010
,
0001
0100
0001
0010
,
0100
1000
0100
0000
0100
0000
1000
0001
,
1000
0001
2000
0000
0000
0000
0000
0000
,
3000
0000
0001
0010
0001
0010
0001
0000
,
0100
0000
0010
0000
1000
0000
0100
0010
,
0100
0010
0200
0000
0000
0000
0000
0000
,
0300
0000
1000
0010
1000
0010
1000
0000
,
0001
0000
0010
0000
0100
0000
1000
0001
,
1000
0001
1000
0000
0020
0000
0000
0000
,
0130
0000
0001
1000
0001
1000
0001
0000
,
0020
0000
0130
1000
,
0010
1000
0100
0010
,
0001
0100
0010
1000
,
0001
0010
0100
1000
,
0010
0100
0000
0100
0002
0000
0000
0000
,
0013
0100
2000
0000
0000
0000
3001
1000
,
0200
0000
0000
0310
,
0001
1000
0001
0000
0100
0000
0010
0000
,
1000
0000
1010
0000
0000
0101
0000
0000
,
0011
0000
0000
1100
0000
0000
0001
0000
,
0010
0100
0000
0100
2000
0000
0000
0000
,
3010
1000
0002
0000
0000
0000
1003
0100
,
0020
0000
0000
0000
0031
1000
0001
0000
,
0100
0000
0010
0000
1000
0000
0100
1000
,
0001
0022
0033
1000
,
2200
3300
0010
2020
,
0000
3030
2002
0000
,
3003
0110
0000
0000
,
0000
0000
0000
0000
,
0000
0000
0000
0000
,
0000
0000
0000
0000
,
0000
0000
0000
0000
,
0000
0000
0000
0000
,
0000
0000
0000
0000
,
0000
0000
0000
0000
0000
0000
1000
0001
,
0000
0001
0000
0001
1000
0000
0010
0000
,
0100
0001
1000
0110
,
1001
0100
0010
1000
,
0000
1100
0000
0000
0001
0000
0000
0101
,
0000
1000
0010
0100
,
0001
0010
1000
0100
,
0000
1010
0000
0000
0001
0000
0000
0011
,
0000
1000
0001
1000
,
0010
0000
0100
0001
0100
0001
2000
0000
,
0100
3100
0010
0001
,
1000
0010
0100
0001
,
1000
0100
0001
0011
,
0100
0010
1010
1000
,
0001
1100
0010
0100
,
1001
1001
1001
1002
,
0000
2003
0000
0000
3020
0000
0000
0230
,
0000
0000
0302
0000
0000
0023
0000
0000
,
0130
1000
0001
2000
,
0000
3020
0000
0000
0230
0000
0000
0302
,
0000
1003
0001
0000
0010
0001
0100
0000
,
1000
0000
0010
0000
0100
0001
1000
0000
,
0100
0010
0000
0010
0001
0000
0100
0000
,
0001
1000
1000
1000
,
0001
0001
0001
1001
,
0000
0100
0010
0010
,
0010
1010
0000
1000
,
1000
0000
0001
0100
0001
0000
0101
0000
,
0000
0001
1000
1000
,
1000
1100
0000
0001
,
1000
0010
1000
0010
1000
0010
2000
0000
,
0000
0000
3010
0100
0020
0000
0000
0000
,
0000
0000
2030
0000
0000
0000
3001
0010
,
0002
0000
0000
0203
,
0010
0310
2000
0001
,
3001
0000
0010
0000
0001
1000
0100
0000
,
1000
0001
1000
0001
1000
0001
1000
0000
,
0000
1010
0000
0100
0002
0000
0000
0000
,
0013
0001
2000
0000
0000
0000
3100
0010
,
0002
0000
0000
0203
,
0000
0301
1000
0001
1000
0000
0010
0000
,
0100
0000
0101
0000
0000
1100
0000
0000
,
1010
0000
0000
0011
0000
0000
0100
0000
,
0000
0110
0000
1000
0002
0000
0000
0000
,
0013
0001
2000
0000
0000
0000
3100
1000
,
0020
0000
0000
0000
0130
0001
1000
0000
,
0010
1000
0001
0000
0010
0000
0100
1000
,
0001
0022
0033
0100
,
2002
3003
0010
2020
,
0000
3030
0220
0000
,
0000
0000
0000
0000
,
0000
0000
0000
0000
,
0000
0000
0330
0000
;

//---------------dance-single - ----------------
#NOTES:
     dance-single:
     :
     Easy:
     10:
     0.438976,0.596342,0.313743,0.793585,0.000000,333.000000,299.000000,34.000000,86.000000,0.000000,0.000000,0.438976,0.596342,0.313743,0.793585,0.000000,333.000000,299.000000,34.000000,86.000000,0.000000,0.000000:
0000
0000
0000
0000
,
0000
0000
0000
0000
,
0000
0000
0000
0000
,
0000
0000
0000
0000
,
1000
2200
3300
0001
,
0202
0303
0100
0100
,
0010
2020
3030
0001
,
2002
3003
0011
1000
,
0110
0000
0000
0001
,
1000
0001
1000
0000
,
0000
0010
0100
0010
,
0100
0000
0000
0001
,
0010
0100
1000
0000
,
0000
1000
0010
0100
,
0002
0000
1003
2000
,
0000
3010
0020
0000
,
0130
0100
0010
1000
,
2200
3300
0001
0202
,
0303
1000
2002
0000
,
0000
3003
1000
0001
,
0110
0000
0010
2000
,
0000
3100
0020
0000
,
0031
0200
0000
0300
,
0002
0000
1003
0001
,
0010
0100
1000
0010
,
0010
0010
1000
0001
,
0200
0000
0310
0100
,
0000
0001
2000
0000
,
3001
0020
0000
0130
,
2000
0000
3001
1000
,
0010
1000
0001
0010
,
0001
0100
0010
0100
,
0010
1000
0001
0010
,
0001
0100
2000
0000
,
3000
0010
1000
0001
,
0010
0100
1000
0010
,
1000
0100
0002
0000
,
0003
0010
0001
0100
,
0010
1000
0001
0022
,
0000
0033
1000
0010
,
1000
2020
0000
3030
,
1000
0100
1000
2200
,
0000
3300
0022
0000
,
0033
0100
0010
0100
,
0010
1000
0100
1000
,
0000
0001
0020
0000
,
0031
0200
0000
0310
,
2000
0000
3000
0200
,
0000
1300
0001
0100
,
0001
0020
0000
0031
,
2000
0000
3001
0100
,
0000
0010
2000
0000
,
3001
0200
0000
0310
,
0200
0000
0310
1000
,
0001
1000
0100
0010
,
0001
2020
3030
0100
,
0202
0303
0010
0220
,
0000
0330
2002
0000
,
3003
0020
0000
0000
,
0000
0000
0000
0000
,
0000
0000
0000
0000
,
0000
0000
0000
0000
,
0000
0000
0000
0000
,
0000
0000
0000
0000
,
0000
0000
0000
0000
,
0000
0000
0030
1000
,
1000
1000
1000
0001
,
0100
0020
0030
0110
,
2002
0000
3003
1000
,
0000
0001
0000
0000
1000
0000
0000
0001
,
0000
0100
0000
0010
,
1000
0100
0010
0001
,
0000
0010
0000
0000
0100
0000
0000
0000
,
1000
0010
1000
0001
,
0010
0100
1000
2020
,
3030
0100
0001
0010
,
0100
1000
0001
1000
,
0010
0100
0001
0022
,
0000
0033
0202
0000
,
0303
2200
0000
3300
,
0001
0001
0001
0001
,
0000
0010
0000
0000
0100
0000
0000
1000
,
0000
0010
0000
0000
,
1000
0001
1000
0010
,
0000
1000
0000
0000
0100
0000
0000
0000
,
0001
0010
0001
1000
,
0100
0010
0001
0100
,
0000
0010
1000
0100
,
1000
0001
0001
0001
,
1000
1000
1000
1001
,
0000
0000
0100
0000
,
0000
0101
0000
0000
,
1000
0001
1000
1100
,
0000
0000
0010
0000
,
0000
1010
0000
0000
,
1000
0100
0010
0002
,
0000
0103
2000
0000
,
3000
0020
0000
1030
,
0200
0000
0300
2000
,
0001
3001
0020
0100
,
0130
2000
0010
3010
,
0100
0001
1000
0011
,
0000
1000
0020
0000
,
0130
0002
0000
0013
,
2000
0000
3000
0200
,
0000
1300
0010
0100
,
0001
0010
0001
0100
,
0010
1000
0100
0110
,
0000
0001
2000
0000
,
3100
0002
0000
0013
,
0200
0000
1300
0010
,
1000
0001
1000
0100
,
0010
0022
0033
1000
,
2200
3300
0001
2002
,
0000
3003
0220
0000
,
0000
0000
0000
0000
,
0000
0000
0000
0000
,
0000
0000
0330
0000
;

//---------------dance-single - ----------------
#NOTES:
     dance-single:
     :
     Beginner:
     5:
     0.221466,0.369801,0.221466,0.036911,0.000000,168.000000,144.000000,24.000000,4.000000,0.000000,0.000000,0.221466,0.369801,0.221466,0.036911,0.000000,168.000000,144.000000,24.000000,4.000000,0.000000,0.000000:
// measure 0
0000
0000
0000
0000
,  // measure 1
0000
0000
0000
0000
,  // measure 2
0000
0000
0000
0000
,  // measure 3
0000
0000
0000
0000
,  // measure 4
2000
0000
3000
0000
,  // measure 5
0002
0000
0003
0000
,  // measure 6
0100
0000
0100
0000
,  // measure 7
0010
0000
1001
0000
,  // measure 8
0110
0000
0000
0000
,  // measure 9
0000
0000
0000
0000
,  // measure 10
0000
0001
0001
0001
,  // measure 11
0001
0000
0000
0000
,  // measure 12
0000
0000
1000
0000
,  // measure 13
0000
0010
0010
0010
,  // measure 14
0010
0000
0000
0000
,  // measure 15
0000
0000
1000
0000
,  // measure 16
0000
0100
0000
0000
,  // measure 17
1001
0000
0000
0110
,  // measure 18
0000
0000
1001
0000
,  // measure 19
0000
0000
0000
0000
,  // measure 20
0110
0000
0000
0001
,  // measure 21
0000
0000
1000
0000
,  // measure 22
0000
1000
0000
0000
,  // measure 23
0100
0000
0000
1000
,  // measure 24
0000
0000
0010
0000
,  // measure 25
0000
0100
0100
0100
,  // measure 26
0100
0000
0000
0001
,  // measure 27
0000
0000
1000
0000
,  // measure 28
0000
0010
0000
0000
,  // measure 29
0010
0000
0000
1000
,  // measure 30
0000
0000
0001
0000
,  // measure 31
0000
1000
0000
0000
,  // measure 32
0100
0000
0000
0020
,  // measure 33
0000
0000
0030
0000
,  // measure 34
0000
0001
0000
0000
,  // measure 35
0100
0000
0000
2000
,  // measure 36
0000
0000
3000
0000
,  // measure 37
0000
0010
0000
0000
,  // measure 38
1000
0000
0000
0110
,  // measure 39
0000
0000
0001
0000
,  // measure 40
0000
1001
0000
0000
,  // measure 41
1000
0000
0000
0110
,  // measure 42
0000
0000
1001
0000
,  // measure 43
0000
1000
0000
0000
,  // measure 44
0001
0000
0000
0010
,  // measure 45
0000
0000
0001
0000
,  // measure 46
0000
0100
0000
0000
,  // measure 47
0100
0000
0000
0010
,  // measure 48
0000
0000
1000
0000
,  // measure 49
0000
0001
0000
0000
,  // measure 50
0001
0000
0000
1000
,  // measure 51
0000
0000
0100
0000
,  // measure 52
0000
1000
0000
0000
,  // measure 53
0010
0000
0000
0100
,  // measure 54
0000
0000
0001
0000
,  // measure 55
0000
0110
0000
0000
,  // measure 56
1001
0000
0000
0110
,  // measure 57
0000
0000
1001
0000
,  // measure 58
0000
0010
0000
0000
,  // measure 59
0000
0000
0000
0000
,  // measure 60
0000
0000
0000
0000
,  // measure 61
0000
0000
0000
0000
,  // measure 62
0000
0000
0000
0000
,  // measure 63
0000
0000
0000
0000
,  // measure 64
0000
0000
0000
0000
,  // measure 65
0000
0000
0000
1000
,  // measure 66
0000
0000
0001
0000
,  // measure 67
0000
0100
0000
0010
,  // measure 68
0010
0000
0000
1000
,  // measure 69
0000
0000
1000
0000
,  // measure 70
0000
1000
0000
0000
,  // measure 71
0100
0000
0000
0010
,  // measure 72
0000
0000
0001
0000
,  // measure 73
0000
0100
0000
0000
,  // measure 74
0010
0000
0000
0100
,  // measure 75
0000
0000
0001
0000
,  // measure 76
0000
1000
0000
0000
,  // measure 77
0100
0000
0000
1001
,  // measure 78
0000
0000
0110
0000
,  // measure 79
0000
1001
0000
0000
,  // measure 80
0010
0010
0010
0010
,  // measure 81
0000
0000
1000
0000
,  // measure 82
0000
0001
0000
0000
,  // measure 83
0100
0100
0100
0100
,  // measure 84
0000
0000
0010
0000
,  // measure 85
0000
1000
0000
0000
,  // measure 86
0001
0000
0000
0010
,  // measure 87
0000
0000
0010
0000
,  // measure 88
0000
0001
0000
0000
,  // measure 89
0100
0000
0000
0110
,  // measure 90
0000
0000
0000
0000
,  // measure 91
0000
0000
0000
0000
,  // measure 92
0001
0001
0001
0001
,  // measure 93
0000
0000
0000
0000
,  // measure 94
0000
0000
0000
0000
,  // measure 95
1000
1000
1000
1000
,  // measure 96
0000
0000
0110
0000
,  // measure 97
0000
0010
0000
0000
,  // measure 98
1001
0000
0000
0100
,  // measure 99
0000
0000
0001
0000
,  // measure 100
0000
1000
0000
0000
,  // measure 101
0001
0000
0000
0010
,  // measure 102
0000
0000
0010
0000
,  // measure 103
0000
0001
0000
0000
,  // measure 104
0100
0000
0000
1000
,  // measure 105
0000
0000
0010
0000
,  // measure 106
0000
1000
0000
0000
,  // measure 107
0001
0000
0000
0010
,  // measure 108
0000
0000
0001
0000
,  // measure 109
0000
0100
0000
0000
,  // measure 110
1000
0000
0000
0010
,  // measure 111
0000
0000
0100
0000
,  // measure 112
0000
1001
0000
0000
,  // measure 113
0110
0000
0000
1001
,  // measure 114
0000
0000
0110
0000
;
