#TITLE:good 4 u;
#SUBTITLE:;
#ARTIST:Olivia Rodrigo;
#TITLETRANSLIT:;
#SUBTITLETRANSLIT:;
#ARTISTTRANSLIT:;
#GENRE:;
#CREDIT:;
#BANNER:good 4 u-bn.png;
#BACKGROUND:good 4 u-bg.png;
#LYRICSPATH:;
#CDTITLE:;
#MUSIC:good 4 u.ogg;
#OFFSET:1.200000;
#SAMPLESTART:28.768000;
#SAMPLELENGTH:20.000000;
#LASTBEATHINT:0.531200;
#SELECTABLE:YES;
#DISPLAYBPM:163.000000:171.000000;
#BPMS:0.000000=166.000000
,20.000000=169.000000
,28.000000=168.000000
,36.000000=170.000000
,40.000000=169.000000
,44.000000=167.000000
,48.000000=169.000000
,60.000000=170.000000
,68.000000=168.000000
,80.000000=171.000000
,84.000000=166.000000
,116.000000=167.000000
,124.000000=165.000000
,128.000000=169.000000
,136.000000=166.000000
,156.000000=164.000000
,168.000000=168.000000
,180.000000=166.000000
,258.000000=165.000000
,266.000000=168.000000
,273.000000=165.000000
,277.000000=163.000000
,281.000000=166.000000
,297.000000=164.000000
,305.000000=166.000000
;
#STOPS:256.000000=1.085000
;
#BGCHANGES:;
#KEYSOUNDS:;
#ATTACKS:;

//---------------dance-single - ----------------
#NOTES:
     dance-single:
     :
     Beginner:
     4:
     0.184306,0.276585,0.088366,0.000000,0.000000,146.000000,136.000000,10.000000,0.000000,0.000000,0.000000,0.184306,0.276585,0.088366,0.000000,0.000000,146.000000,136.000000,10.000000,0.000000,0.000000,0.000000:
0000
0000
0000
0000
,
0000
0000
0000
0000
,
0000
0000
0000
0000
,
0000
0000
0000
0000
,
0000
0000
0000
0000
,
0000
0000
0001
0000
,
1000
0000
0001
0000
,
0000
0000
0100
0000
,
0010
0000
0100
0000
,
0000
0000
0001
0000
,
0010
0000
0100
0000
,
1001
0000
0000
0000
,
0000
0010
0000
0010
,
0000
0000
1000
0000
,
0100
0000
0010
0000
,
0000
0000
0001
0000
,
0100
0000
1000
0000
,
0000
0000
0010
0000
,
0100
0000
0001
0000
,
1001
0000
0000
0000
,
0110
0000
0000
0000
,
0001
0001
0001
0000
,
1000
0000
0010
0000
,
0100
0000
0100
0000
,
0010
0010
0010
0000
,
1000
1000
1000
0000
,
0100
0000
0010
0000
,
0001
0000
0001
0000
,
0100
0100
0100
0100
,
0000
0110
0000
0000
,
0001
0000
1000
0000
,
0010
0000
0100
0000
,
0010
0000
1000
0000
,
0100
0100
0100
0000
,
1000
0000
0001
0000
,
0010
0000
0001
0000
,
1000
1000
1000
1000
,
1000
0000
0000
0000
,
0000
0000
0000
0000
,
0001
0000
0001
0000
,
1000
0000
1000
0000
,
0010
0000
0010
0000
,
0010
0000
0000
0000
,
0100
0000
0100
0000
,
0100
0000
0000
0000
,
0001
0000
0001
0000
,
0001
0000
0000
0000
,
1000
0000
1000
0000
,
1000
0000
0000
0000
,
0000
0010
0000
0010
,
0000
0010
0000
0010
,
0000
1000
0000
1000
,
0000
1000
0000
1000
,
0000
0100
0000
0100
,
0000
0100
0000
0100
,
0000
0001
0000
0001
,
0000
0001
0000
0001
,
0000
0000
1000
0000
,
0001
0000
1000
0000
,
0010
0000
0010
0000
,
0100
0000
0100
0000
,
0001
0000
0010
0000
,
0001
0000
0100
0000
,
1000
0000
1000
0000
,
1001
0000
0110
0000
,
0000
0001
0000
1000
,
0000
0100
0000
0010
,
0000
0001
0000
0100
,
0000
1000
1000
1000
,
0000
0010
0000
0100
,
0000
0001
0000
1000
,
0000
0010
0010
0010
,
0010
0010
0000
0000
,
0000
0000
0000
0000
,
0000
1000
0000
1000
,
0000
0001
0000
0001
,
0000
1001
0000
0000
,
0000
0110
0000
0110
,
0000
1001
0000
0000
;

//---------------dance-single - ----------------
#NOTES:
     dance-single:
     :
     Easy:
     7:
     0.352201,0.553170,0.282770,0.212078,0.000000,279.000000,247.000000,32.000000,24.000000,0.000000,0.000000,0.352201,0.553170,0.282770,0.212078,0.000000,279.000000,247.000000,32.000000,24.000000,0.000000,0.000000:
0000
0000
0000
0000
,
0000
0000
0000
0000
,
0000
0000
0000
0000
,
0000
0000
0000
0000
,
0000
0000
0000
0000
,
0000
0001
1000
0010
,
1000
0100
0010
0002
,
0000
0103
0010
1000
,
0001
0010
0001
0200
,
0000
0301
1000
0001
,
0100
0010
1000
0001
,
2002
0003
0020
3000
,
0200
0030
0002
0300
,
1003
0001
0010
0100
,
0010
0001
0100
2000
,
0000
3010
1000
0100
,
1000
0001
0010
0200
,
0000
1300
0001
0100
,
0010
1000
0001
0001
,
0120
1000
0001
0130
,
2002
0003
3020
0130
,
1001
1001
0010
0010
,
1000
0100
0010
0001
,
0100
1010
0100
0011
,
1000
1000
0001
0010
,
0110
0110
1000
0010
,
1000
0100
0010
0001
,
1000
0101
1000
0011
,
0100
0010
1000
0001
,
0000
1200
0001
0001
,
1000
0010
0001
0310
,
0000
0021
0100
0001
,
1000
1000
0001
0130
,
0002
0003
1010
0100
,
1000
1000
0010
0100
,
0101
1000
0110
0001
,
1001
1001
1001
1001
,
0120
0100
0100
0000
,
0001
0000
1030
0000
,
0001
0001
1000
1000
,
0010
0010
0100
0100
,
0001
0010
0001
0000
,
0100
0000
0010
0000
,
1000
0100
1000
0000
,
0001
0000
1000
0000
,
0010
1000
0010
0000
,
0100
0000
0001
0000
,
0010
0100
1000
0000
,
0001
0000
0100
0000
,
0001
0001
1000
1000
,
0001
0100
1000
0000
,
0010
0010
1000
1000
,
0100
0010
0001
0000
,
1000
1000
0010
0010
,
0100
0001
0100
0000
,
0001
0001
0010
0010
,
1000
0100
0010
0001
,
0100
0100
0100
0000
,
0010
0010
0010
0000
,
1000
1000
1000
0000
,
0001
0001
0001
0000
,
0010
0010
0010
0000
,
0001
0001
0001
0000
,
0100
0100
0100
0000
,
2020
0030
0001
0001
,
0100
0010
0010
0100
,
3001
0000
0102
0010
,
0100
1000
1000
0010
,
0100
0023
0000
1000
,
0031
1000
0010
0100
,
0001
0011
1000
1010
,
0001
0110
0110
0110
,
0110
2001
0010
0010
,
0000
0100
0000
3001
,
0000
0010
0010
0100
,
0100
0001
0001
1000
,
1000
2020
0000
0000
,
0030
0001
0001
0100
,
3100
1001
0000
0000
;

//---------------dance-single - ----------------
#NOTES:
     dance-single:
     :
     Medium:
     10:
     0.484749,0.554053,0.441829,0.371136,0.004418,384.000000,334.000000,50.000000,42.000000,0.000000,0.000000,0.484749,0.554053,0.441829,0.371136,0.004418,384.000000,334.000000,50.000000,42.000000,0.000000,0.000000:
// measure 0
0000
0000
0000
0000
,  // measure 1
0000
0000
0000
0000
,  // measure 2
0000
0000
0000
0000
,  // measure 3
0000
0000
0000
0000
,  // measure 4
0000
0000
0022
0000
,  // measure 5
0030
0000
1003
0000
0001
0100
0001
0000
,  // measure 6
1000
0100
0010
0000
0001
1000
0002
0000
,  // measure 7
0000
0000
0103
0000
0010
1000
0001
0000
,  // measure 8
0010
0100
1000
0000
0001
1000
0200
0000
,  // measure 9
0000
0000
1300
0000
0001
0100
0001
0000
,  // measure 10
0010
0100
0010
0001
1000
0000
1000
0000
,  // measure 11
2020
0030
0002
3000
,  // measure 12
0013
2001
3100
1002
,  // measure 13
0013
0000
1100
0000
0001
0100
0001
0000
,  // measure 14
0010
0100
1000
0000
0001
1000
0002
0000
,  // measure 15
0000
0000
0103
0000
0010
1000
0001
0000
,  // measure 16
1000
0100
1000
0000
0001
0100
0020
0000
,  // measure 17
0000
0000
0130
0010
1000
0000
0001
0010
,  // measure 18
0100
0000
1000
0001
0100
0000
0110
0000
,  // measure 19
1000
0001
1000
0001
0100
0010
0100
0010
,  // measure 20
2000
0000
0000
0000
3001
0010
0100
0000
,  // measure 21
1001
0000
0101
0000
1000
0001
0000
0020
,  // measure 22
0000
0031
1000
0002
0000
0103
0010
2000
,  // measure 23
0000
3001
2010
3001
,  // measure 24
0010
0001
0010
0001
1000
0100
1000
0100
,  // measure 25
0010
0000
0000
0000
0001
1000
0000
0110
,  // measure 26
0000
1000
0001
0000
0010
0100
1000
0000
,  // measure 27
1100
1100
0101
0101
,  // measure 28
1000
0010
1000
0010
0100
0001
0100
0001
,  // measure 29
0000
1100
0110
0011
,  // measure 30
1001
0000
0101
0000
1100
0000
0010
0100
,  // measure 31
0000
0000
1010
0000
1001
0000
0100
0010
,  // measure 32
2000
0000
3001
0200
0000
1000
0000
0310
,  // measure 33
0100
0000
0000
0001
1000
0001
0010
0200
,  // measure 34
0000
1300
0100
0020
0000
0031
1000
0000
,  // measure 35
0101
0000
1000
0001
0200
0000
0310
0000
,  // measure 36
1010
1010
0011
0011
,  // measure 37
1001
0000
0100
0000
0010
0000
0000
2000
,  // measure 38
0000
0000
0000
3002
0000
1003
0100
0000
,  // measure 39
0001
0000
0001
0000
0001
1000
0000
0020
,  // measure 40
0000
0230
0000
0302
0000
1003
0100
0000
,  // measure 41
1000
1000
0001
0001
,  // measure 42
0010
0001
0100
0010
,  // measure 43
1000
1000
0001
0001
,  // measure 44
1000
0100
0010
0000
,  // measure 45
0001
0001
0100
0100
,  // measure 46
0001
0010
1000
0000
,  // measure 47
0100
0100
0010
0010
,  // measure 48
0001
1000
0001
0000
,  // measure 49
0010
0001
1000
0000
1000
0000
0010
0200
,  // measure 50
0000
0000
0301
1000
0000
0000
0010
0100
,  // measure 51
0001
0100
0010
0000
1000
0000
0100
0020
,  // measure 52
0000
1000
0000
0031
0000
0000
0000
0000
,  // measure 53
1000
0100
0001
0000
0001
0000
0010
0200
,  // measure 54
0000
0000
1300
0001
0000
0000
0000
0000
,  // measure 55
1000
0001
0100
0000
0100
0000
0010
2000
,  // measure 56
0000
0000
3001
0200
0000
0320
0000
0000
,  // measure 57
1030
1000
1000
1000
,  // measure 58
0001
0001
0001
0001
,  // measure 59
0100
0100
0010
0010
,  // measure 60
1000
0100
0010
0001
,  // measure 61
0100
0100
0010
0010
,  // measure 62
1000
0001
0010
0100
,  // measure 63
1000
1000
0001
0001
,  // measure 64
2010
0000
0000
0002
0000
0000
0000
0000
3003
0000
0000
0000
1100
0000
0000
0000
0000
0000
0110
0000
0000
0000
0000
0000
,  // measure 65
0011
0101
0110
1010
,  // measure 66
0001
1000
0000
0000
0011
0000
1001
0000
,  // measure 67
0100
0010
2000
0000
3001
0020
0000
1000
,  // measure 68
0000
0031
0100
0000
0000
0010
1000
0001
,  // measure 69
1000
0020
0000
0130
0001
2000
0000
3100
,  // measure 70
0010
0000
0011
0000
0001
1000
0010
0000
,  // measure 71
0100
0101
0101
1010
,  // measure 72
1010
1001
0010
0100
,  // measure 73
0000
0002
0000
0000
0000
2003
0000
3010
,  // measure 74
1000
1100
1001
0101
,  // measure 75
1001
0000
0010
0000
0010
0000
1000
0001
,  // measure 76
0100
0120
1000
1000
,  // measure 77
1030
0000
0002
0000
0103
0000
0010
1000
,  // measure 78
0001
0000
1001
1001
0000
0000
0000
0000
;

//---------------dance-single - ----------------
#NOTES:
     dance-single:
     :
     Hard:
     13:
     0.597100,0.588682,0.247424,0.353463,0.048601,473.000000,445.000000,28.000000,40.000000,0.000000,0.000000,0.597100,0.588682,0.247424,0.353463,0.048601,473.000000,445.000000,28.000000,40.000000,0.000000,0.000000:
0000
0000
0000
0000
,
0000
0000
0000
0000
,
0000
0000
0000
0000
,
0000
0000
0000
0000
,
0000
0000
0022
0030
,
0013
0000
0001
0100
0001
0010
1000
0010
,
0100
0001
0100
0010
0100
1000
2000
0000
,
0000
0001
3001
1000
0100
0001
0100
0010
,
0001
0100
1000
0100
0001
0010
0020
0000
,
0000
0100
0130
1000
0001
0010
1000
0010
,
0001
0000
0100
0000
0010
0000
0001
0000
0020
0000
0000
2030
0000
0000
3001
0000
,
2001
0010
3002
0010
,
0103
1020
0130
0102
,
1003
0000
0010
0001
0010
0100
0001
1000
,
0010
0001
0010
0100
0010
1000
2000
0000
,
0000
0010
3010
0100
1000
0100
0001
1000
,
0100
0001
0100
1000
0010
0100
0200
0000
,
0000
0010
0310
1000
0001
0100
0010
0001
,
0010
1000
0001
0100
0110
0000
0110
0000
,
1000
0010
0001
0100
0001
0010
1000
0100
,
0002
0000
0000
0000
0100
0100
0103
0010
,
1001
0000
1100
0001
1000
1000
0010
0200
,
0000
0301
0010
2000
0000
3001
0100
0010
,
1000
0000
0000
0001
0100
0000
0000
0000
0001
0000
0000
1000
0100
0000
0000
0000
,
0010
1000
0010
0001
0010
0100
1000
0001
,
1010
0000
0101
0000
0010
0010
1000
0002
,
0000
0100
0103
0001
1000
0010
0001
0010
,
2000
0100
0000
0000
3001
0000
0000
0000
0020
0001
0000
0000
1030
0000
0000
0000
,
0001
0100
0010
0100
1000
0010
1000
0001
,
0100
0000
0010
1000
0010
0001
0010
0100
,
1000
0010
0001
0100
1000
0001
0100
1100
,
0000
0000
0101
0000
0010
1000
0001
0100
,
1000
0100
0010
1000
0100
0010
0001
0100
,
0010
0000
0110
1000
0001
0100
0100
0020
,
0000
1030
0001
0200
0000
0310
1010
0000
,
1000
0020
0000
0000
0130
0000
0000
0000
0002
1000
0000
0000
0013
0000
0000
0000
,
1001
0000
1001
0000
1001
0100
0010
0000
,
0210
0000
0001
0000
1000
1000
0000
0320
,
0000
0230
0000
0320
0000
1000
1030
0000
,
0001
1000
0100
0010
1000
0100
0001
0010
,
0100
0001
1000
0010
0100
1000
0001
0010
,
1000
0100
0001
0000
0001
0000
0010
0200
,
0000
0000
1300
0001
0000
0000
1000
0010
,
0001
0100
1000
0000
1000
0000
0010
2000
,
0000
0001
0000
3100
0000
0000
0000
0000
,
0010
1000
0100
0000
0100
0000
1000
0002
,
0000
0000
0013
0100
0000
0000
0000
0000
,
0001
1000
0010
0000
0010
0000
1000
0200
,
0000
0000
0310
0001
1000
1000
1000
0000
,
0001
0100
0001
0000
0010
0100
1000
0000
,
0010
1000
0001
1000
0100
0010
0001
0000
,
0100
0001
0010
0000
0001
1000
0001
0000
,
1000
0001
0010
1000
0010
0100
1000
0000
,
0010
1000
0010
0000
0100
0001
0100
0000
,
0001
1000
0100
0001
0100
0010
0100
0000
,
1000
0001
0010
0000
0001
0100
1000
0000
,
0010
0000
0100
0000
0010
0000
1000
0000
0100
0000
0010
0000
0001
1000
0001
1000
,
0001
0100
0010
1000
,
0100
0010
0001
0100
,
0001
0001
1000
1000
,
0001
0100
0010
1000
,
0100
0010
0100
1000
,
0010
1000
0001
0100
,
0010
0010
0100
0100
,
2010
0002
3000
0000
0103
0001
0010
0001
,
0100
1000
0001
0100
0010
1000
0001
0010
,
1000
1100
0000
0000
0011
0000
1000
0100
,
0010
0001
0100
0010
0100
0001
1000
0100
,
0010
0001
1000
0000
0110
0001
0100
0100
,
0010
2000
0000
3100
1000
0002
0000
0010
,
0013
0000
0000
0000
0001
2000
0000
0000
3100
0000
0000
0000
0020
1000
0000
0000
,
0130
0000
1001
0000
1001
0000
1001
0100
,
0010
0000
0120
0000
0001
0000
0100
0100
,
0000
2030
0000
3002
0000
2003
0000
0010
,
3010
0000
0001
1000
0010
0100
1000
0001
,
0100
0010
1000
0100
0010
0001
1000
0100
,
0010
0001
0100
0010
0100
0000
0100
0000
,
0100
0000
1000
0001
0010
0000
0001
1000
,
0100
0000
1001
1001
0000
0000
0000
0000
;
