#TITLE:gigadelic;
#SUBTITLE:;
#ARTIST:teranoid feat. MC Natsack;
#TITLETRANSLIT:;
#SUBTITLETRANSLIT:;
#ARTISTTRANSLIT:;
#GENRE:;
#CREDIT:;
#BANNER:gigadelic-bn.png;
#BACKGROUND:gigadelic-bg.png;
#LYRICSPATH:;
#CDTITLE:;
#MUSIC:gigadelic.ogg;
#OFFSET:0.000000;
#SAMPLESTART:11.126000;
#SAMPLELENGTH:20.000000;
#SELECTABLE:YES;
#DISPLAYBPM:173.000000;
#BPMS:0.000000=172.690002
;
#STOPS:
;
#BGCHANGES:;
#KEYSOUNDS:;
#ATTACKS:;

//---------------dance-single - ----------------
#NOTES:
     dance-single:
     :
     Hard:
     17:
     0.815017,0.859359,0.223417,0.398960,1.484129,715.000000,687.000000,28.000000,50.000000,0.000000,0.000000,0.815017,0.859359,0.223417,0.398960,1.484129,715.000000,687.000000,28.000000,50.000000,0.000000,0.000000:
0000
0000
0000
0000
,
0000
0000
0000
0000
,
0000
0000
0000
0000
,
0000
0000
0000
0000
,
1000
0000
0010
1000
0000
0010
1000
0000
0000
0100
0000
0100
,
0001
0000
0010
0001
0000
0010
0001
0000
0000
0100
0000
0100
,
0010
1001
0100
1001
,
1000
0000
1000
0010
0100
0020
0200
0000
0000
0330
0000
0000
,
0101
0000
0000
0101
0000
0000
1000
0001
1000
0200
0000
0000
,
0310
0001
0010
0001
0100
0010
2000
0000
0000
3100
0000
0000
,
1100
0000
0000
1100
0000
0000
0001
0010
0001
0200
0000
0000
,
0301
1000
0001
1000
0100
0010
0001
0000
0000
1001
0000
0000
,
1010
0000
0000
1010
0000
0000
0010
1000
0001
0200
0000
0000
,
0310
1000
0001
1000
0000
0001
0100
0000
0100
0010
0000
0000
,
1010
0000
0000
1010
0000
0000
0001
1000
0100
0020
0000
0000
,
0130
0010
0001
0100
0010
1000
0002
0000
0000
0013
0000
0000
,
0110
0000
0000
0110
0000
0000
0010
0001
0100
0002
0000
0000
,
1003
0100
1000
0100
0010
0001
0100
0000
0010
1000
0100
1000
,
0001
0000
0000
1100
0000
0000
0001
1000
0001
0200
0000
0000
,
0310
1000
0010
0100
0001
1000
0001
0000
0100
0010
1000
0001
,
1000
0000
0001
0200
0000
0000
0301
0010
0100
1000
0000
1000
,
0100
0000
0100
0020
0000
0000
0031
0100
0001
1000
0010
0100
,
0001
0000
0010
0002
0000
0000
1003
0100
0010
0100
1000
0001
,
0100
0000
0010
0100
0000
0010
0200
0000
0000
0301
0000
0000
,
1001
0000
0100
0010
1000
0000
0001
1000
0001
1000
0010
0100
,
0010
0000
1000
0001
0100
0000
0001
0010
0001
0100
0010
1000
,
0100
0000
1000
0010
0100
0000
0001
1000
0001
0010
0001
0100
,
0010
1000
0010
1000
0010
1000
0010
1000
0010
0100
0010
1000
,
0001
0000
0010
0100
1000
0000
0001
0010
0001
1000
0000
0100
,
1000
0000
0010
0100
0001
0000
0010
0001
1000
0001
0000
0100
,
0001
0010
0100
1000
0010
0000
1000
0001
1000
0001
0100
0010
,
1000
0100
1000
0100
1000
0100
1000
0100
1000
0001
0100
0001
,
0010
0001
1000
0010
0000
0010
0100
0001
1000
0200
0000
0000
,
1300
0010
0100
0001
0000
0001
1000
0001
0100
0020
0000
0000
,
1030
0100
0010
0002
0000
0000
1003
0010
0100
0002
0000
0000
,
0013
0000
0000
0101
0000
2000
0000
0000
3001
0200
0000
0000
,
0310
1000
0010
1000
0100
1000
0001
0010
0100
2000
0000
0000
,
3010
0100
0010
1000
0100
1000
0001
0010
0001
0200
0000
0000
,
0301
0000
1000
0001
0010
0100
0010
0001
1000
0100
0000
0000
,
1010
0000
0101
0000
1100
0000
0001
0010
0100
1000
0000
0000
,
0011
0000
0001
1000
0000
0001
0100
0010
1000
0200
0000
0000
,
0310
0000
0001
1000
0000
0001
1000
0100
0010
0200
0000
0000
,
0301
0000
0100
1000
0000
0001
1000
0010
0100
0020
0000
0000
,
2030
0010
0000
3001
1000
0001
0010
0100
0010
0001
0100
0001
,
2000
0100
0100
3100
,
0002
0100
0100
0103
,
1000
0001
1000
0001
1000
0001
1000
0001
1000
0001
1000
0001
,
0100
0010
0100
0010
0100
0010
0100
0010
0100
0010
0000
0000
,
0220
0000
0000
0030
,
0002
0000
0000
0300
,
2000
0000
0000
0003
,
0020
0000
0000
3030
,
2000
0001
0010
3100
,
0020
0100
0001
1030
,
0002
0100
1000
0013
,
0200
0010
1000
0301
,
1001
0000
0000
1000
0010
1000
0000
0001
0000
0001
0000
0100
,
0010
0000
0000
1000
0001
1000
0000
0100
0000
0100
0000
0010
,
0001
0000
0001
1000
0000
1000
0010
0100
0010
0100
0001
1000
,
0100
0000
0000
1000
0010
0100
0000
0001
0000
1000
0000
0001
,
0100
0000
0000
0001
0010
0001
1000
0010
1000
0001
0100
0010
,
1000
0000
0000
0010
0100
0010
1000
0001
1000
0001
0100
0010
,
1000
0100
1000
0001
0100
0001
1000
0010
1000
0001
0010
0001
,
0100
0101
2100
3001
,
0010
0000
0010
1000
0100
1000
0001
0100
0001
1000
0000
0010
,
0100
0000
0001
1000
0001
0010
0100
1000
0100
1000
0000
0010
,
0100
0000
0010
1000
0100
0010
0001
0010
0100
1000
0100
0010
,
0001
0000
0100
0001
1000
0001
1000
0010
0000
0110
0000
0001
,
1000
0000
0010
0100
0001
1000
0001
0010
0100
1000
0000
1000
,
0001
0000
0010
0001
0100
0001
1000
0010
0100
0001
1000
0010
,
1000
0000
1000
0100
0010
0001
0100
0010
0100
0001
1000
0001
,
0010
0000
0010
0000
0010
0000
0022
0000
0000
0003
0000
0000
,
0130
0000
0010
0001
1000
0001
0100
0010
1000
0100
0010
0001
,
1000
0000
0010
0100
0010
1000
0100
0010
0001
1000
0001
0010
,
0001
0000
0001
0010
0100
1000
0100
0010
0001
0010
0100
1000
,
0010
0000
1000
0001
0100
0001
1000
0000
1000
0010
0000
0100
,
0001
0000
1000
0001
0010
0100
0010
0100
1000
0100
0010
0001
,
0100
0000
0010
0100
0001
1000
0001
0010
0001
0100
0010
1000
,
0001
0000
1000
0001
0010
0100
0010
0001
1000
0001
0100
0010
,
2000
0000
3200
0000
0320
0000
0032
0000
0000
0103
0010
0100
,
0010
0000
0010
1000
0001
1000
0100
0010
0001
0100
0010
1000
,
0001
0010
0100
1000
0100
0010
0002
0000
0000
0003
0000
0000
,
0101
0000
0100
0010
0100
0001
1000
0100
0010
0001
0100
0010
,
1000
0000
0000
0101
0000
0020
0000
0000
0130
0002
0000
0000
,
1003
0100
1000
0001
0100
0001
1000
0010
1000
0001
0010
0001
,
0100
0010
0100
0010
0100
0010
1000
0000
1000
0100
0010
0001
,
1000
0100
0001
1000
0010
0001
1000
0100
0001
1000
0010
0001
,
1000
0000
0000
0000
0100
0000
0000
0000
1000
0000
0000
0000
0001
0000
0000
0000
0100
0000
0000
0000
0001
0000
0000
0000
0020
0000
0000
0000
0000
0000
0000
0000
0000
0000
0000
0000
0130
0000
0000
1000
0000
0000
0100
0000
0000
2000
0000
0000
,
0002
0000
0000
0000
,
0000
0000
0000
3003
;

//---------------dance-single - ----------------
#NOTES:
     dance-single:
     :
     Medium:
     13:
     0.616677,0.644519,0.558543,0.510668,0.698179,541.000000,471.000000,70.000000,64.000000,0.000000,0.000000,0.616677,0.644519,0.558543,0.510668,0.698179,541.000000,471.000000,70.000000,64.000000,0.000000,0.000000:
0000
0000
0000
0000
,
0000
0000
0000
0000
,
0000
0000
0000
0000
,
0000
0000
0000
0000
,
1000
0000
0010
1000
0000
0010
1000
0000
0000
1000
0000
0000
,
0001
0000
0010
0001
0000
0010
0001
0000
0000
0001
0000
0000
,
0010
1001
0100
1001
,
1000
0000
1000
0001
0000
0002
2000
0000
0000
3003
0000
0000
,
1001
0000
0000
1001
0000
0000
0100
0010
0100
0010
0000
0000
,
1000
0000
1000
0001
0000
0001
0010
0000
0000
0010
0000
0000
,
0110
0000
0000
0110
0000
0000
0001
0100
0001
0100
0000
0000
,
1000
0010
1000
0010
0000
0000
0100
0000
0000
1001
0000
0000
,
1100
0000
0000
1100
0000
0000
0001
1000
0001
1000
0000
0000
,
0010
0000
0010
1000
0000
1000
0001
0000
0001
0100
0000
0000
,
0101
0000
0000
0101
0000
0000
0010
1000
0010
1000
0000
0000
,
0010
0100
0010
0100
0000
0001
1000
0000
0000
1001
0000
0000
,
1010
0000
0000
1010
0000
0000
0001
0010
0100
1000
0000
0000
,
0101
0000
0000
0101
0000
0000
0010
0100
0001
1000
0000
0000
,
0110
0000
0000
0110
0000
0000
0100
0001
1000
0010
0000
0000
,
1000
0001
0000
0001
0100
0010
0100
0000
0000
0110
0000
0000
,
0101
0000
0000
0101
0000
0000
1000
0010
0100
0001
0000
0000
,
0011
0000
0000
0011
0000
0000
0100
0010
1000
0001
0000
0000
,
1100
1100
0101
0101
,
2000
0000
3002
0000
2003
0000
0002
0000
0000
3003
0000
0000
,
2010
0000
0000
0001
0000
0000
3100
1000
0100
1000
0000
0000
,
0021
0000
0000
1000
0000
0000
0031
0100
0001
0100
0000
0000
,
0201
0000
0000
1000
0000
0000
0310
0100
0010
0100
0000
0000
,
0002
2003
3001
1001
,
2100
0000
0000
0010
0000
0000
3001
0010
0001
0010
0000
0000
,
0210
0000
0000
0001
0000
0000
1300
0001
1000
0001
0000
0000
,
1002
0000
0000
0010
0000
0000
0103
0001
0100
0001
0000
0000
,
1000
0100
0010
0001
0000
0000
0101
0000
0000
1100
0000
0000
,
1020
0000
0000
0001
0000
0000
0130
0001
0100
0001
0000
0000
,
0012
0000
0000
1000
0000
0000
0103
0010
0100
0010
0000
0000
,
0201
0000
0000
1000
0000
0000
0301
0100
0001
0100
0000
0000
,
2001
0000
0000
3001
0000
0200
0000
0000
0301
0100
0000
0000
,
1010
0000
0000
0101
0000
0000
1000
0001
0100
0010
0000
0000
,
1100
0000
0000
0011
0000
0000
0100
0010
1000
0001
0000
0000
,
1001
0000
0000
0110
0000
0000
0001
0010
0100
1000
0000
0000
,
0020
0000
2030
0000
3002
0000
0200
0000
0000
0303
0000
0000
,
0101
0000
0100
0002
0000
0000
1003
0100
1000
0100
0000
0000
,
1010
0000
0010
0200
0000
0000
0301
0010
0001
0010
0000
0000
,
1100
0101
0011
1010
,
0201
0010
1000
0301
,
2000
0100
0100
3100
,
0002
0100
0100
0103
,
2000
0010
0100
3001
,
0200
1000
0001
0310
,
0220
0000
0000
0030
,
0002
0000
0000
0300
,
2000
0000
0000
0003
,
0020
0000
0000
3030
,
2000
0000
0000
0000
0000
0001
0000
0001
0000
3001
0000
0000
,
0200
0000
0000
0000
0000
0010
0000
0010
0000
0310
0000
0000
,
2000
0010
0001
3100
,
0002
0010
1000
0103
,
1001
1000
1000
1000
,
1100
1000
1000
1000
,
1010
0001
0101
1100
,
0101
0010
1000
0100
,
0001
0000
0000
0010
0100
1000
0000
1000
0000
1000
0000
0001
,
0100
0000
0000
0010
1000
0001
0000
0001
0000
0001
0000
0010
,
0100
0000
0100
1000
0000
1000
0001
0000
0001
0010
0000
0010
,
0200
0001
1000
1300
,
0110
0000
0000
0001
0000
0010
0000
0001
0000
1000
0000
0010
,
0100
0000
0000
0001
0000
1000
0000
0010
0000
0100
0000
0001
,
1000
0000
1000
0100
0000
0000
1010
0000
0000
0101
0000
0000
,
1001
0000
0000
0010
0100
0002
0000
2003
0000
3001
0000
0100
,
0010
0000
0000
1000
0100
2000
0000
3002
0000
0103
0000
0010
,
0100
0000
0000
0001
0010
0002
0000
2003
0000
3100
0000
0010
,
0001
0000
0001
1000
0000
1000
0010
0000
0010
0100
0000
0100
,
0002
0000
0023
0000
0230
0000
2000
0000
0000
3300
0000
0000
,
1010
0000
0001
1000
0001
0100
0000
0100
0000
0100
0000
0010
,
1000
0000
0100
0010
0100
0010
0000
0001
0000
0001
0000
1000
,
0100
0000
1000
0001
0000
1000
0010
0000
0010
0100
0000
0001
,
1000
0000
0010
0100
0001
0100
0000
0110
0000
1000
0000
1000
,
0001
0000
0001
0010
0000
0010
0100
0000
0100
1000
0000
1000
,
0010
0000
0010
1000
0000
1000
0001
0000
0001
0100
0000
0100
,
0001
0000
1000
0001
0000
1000
0010
0000
0100
0010
0000
0100
,
0002
0000
2003
0000
3020
0000
0200
0000
0000
0330
0000
0000
,
1001
0000
0000
1000
0001
1000
0000
0010
0000
0100
0000
0100
,
0001
0010
0100
1000
0000
2000
0002
0000
0000
3003
0000
0000
,
0011
0000
0000
0001
0100
0001
0100
0000
0000
0010
1000
0010
,
2000
0000
0000
3001
0000
0200
0000
0000
0301
0100
0000
0000
,
1010
0000
0000
0100
1000
0001
0000
1000
0000
0001
0000
0100
,
0001
1000
0001
1000
0000
1000
0200
0000
0000
0310
0000
0000
,
0011
0000
0001
1000
0000
1000
0010
0000
0010
0100
0000
0100
,
0002
0000
0023
0000
0230
0000
2300
0000
0000
0010
0000
0000
,
0002
0000
0000
0000
,
0000
0000
0000
3003
;

//---------------dance-single - ----------------
#NOTES:
     dance-single:
     :
     Easy:
     8:
     0.435436,0.572906,0.638335,0.335126,0.000000,382.000000,302.000000,80.000000,42.000000,0.000000,0.000000,0.435436,0.572906,0.638335,0.335126,0.000000,382.000000,302.000000,80.000000,42.000000,0.000000,0.000000:
0000
0000
0000
0000
,
0000
0000
0000
0000
,
0000
0000
0000
0000
,
0000
0000
0000
0000
,
1000
0100
1000
0100
,
0001
0100
0001
0100
,
0010
1001
0010
1001
,
0100
0100
0200
0300
,
0110
0110
0001
1000
,
0100
0010
0001
0001
,
1001
1001
0001
1000
,
0010
0010
0020
0130
,
0101
0101
1000
0001
,
1000
0010
0100
0001
,
1100
1100
0010
1000
,
0001
1000
0002
0013
,
1001
1001
0001
0100
,
0110
0110
0010
1000
,
1100
1100
0010
1000
,
0101
0101
0001
0100
,
1010
1010
1000
0001
,
0011
0011
0100
0010
,
0110
0110
0010
1000
,
0002
0100
0200
0303
,
2010
0010
0100
3010
,
0201
1000
0010
0301
,
0021
0001
0100
1030
,
0001
0001
0100
0110
,
1002
0010
1000
0103
,
2010
0001
0100
3010
,
0201
0010
1000
0301
,
1000
1000
2000
3100
,
2001
0010
0100
3010
,
0102
0010
0100
1003
,
0210
0010
1000
0301
,
1000
2100
3001
0101
,
1002
0010
0100
0013
,
0012
1000
0010
0103
,
1020
0100
0001
1030
,
0002
2003
0002
3003
,
2100
0100
0010
3001
,
0201
1000
0001
0310
,
0021
0100
1000
0031
,
0102
0010
0100
1003
,
0020
0100
0100
0100
,
0100
0100
0230
0301
,
2000
0100
0100
3100
,
0002
0100
0100
0103
,
0110
0000
0000
0000
,
0001
0000
0000
0000
,
1000
0000
0000
0000
,
0010
0000
0000
0000
,
1000
0000
0000
0000
,
0100
0000
0000
0000
,
0010
0000
0000
0000
,
0001
0000
0000
0000
,
1001
0100
0001
0001
,
0010
0100
1000
0000
,
1100
0001
1000
0010
,
0100
0010
1000
0000
,
0101
0001
1000
1000
,
0100
0010
0010
0000
,
0110
0100
0001
1000
,
0010
0010
0100
0100
,
0101
1000
0010
0100
,
1000
0010
1000
0001
,
0100
0010
1000
0001
,
0110
1001
0110
0000
,
1000
0010
1000
0100
,
0001
0010
0001
1000
,
0100
0010
0001
0100
,
0020
0001
0200
0330
,
0110
0110
0001
1000
,
1100
1100
0010
0100
,
0101
0101
1000
0001
,
1010
0101
1010
0101
,
1001
0010
1000
0001
,
0011
1000
0001
0100
,
0110
0100
0001
1000
,
1100
0110
0022
0030
,
1000
1000
0100
0103
,
2010
3001
0202
0003
,
0001
0001
0010
0310
,
0100
0102
1003
1100
,
0001
0001
1000
1000
,
0010
1000
0010
0100
,
0101
0101
1100
1100
,
1001
0110
2002
3003
,
0220
0000
0000
0000
,
0000
0000
0000
0330
;

//---------------dance-single - ----------------
#NOTES:
     dance-single:
     :
     Beginner:
     5:
     0.210879,0.315976,0.159584,0.175542,0.000000,185.000000,165.000000,20.000000,22.000000,0.000000,0.000000,0.210879,0.315976,0.159584,0.175542,0.000000,185.000000,165.000000,20.000000,22.000000,0.000000,0.000000:
// measure 0
0000
0000
0000
0000
,  // measure 1
0000
0000
0000
0000
,  // measure 2
0000
0000
0000
0000
,  // measure 3
0000
0000
0000
0000
,  // measure 4
0000
1000
1000
0000
,  // measure 5
0000
0001
0001
0000
,  // measure 6
1001
0000
0110
0000
,  // measure 7
1000
1000
1000
0000
,  // measure 8
0010
0010
0010
0000
,  // measure 9
1000
0000
0001
0000
,  // measure 10
0100
0100
0100
0000
,  // measure 11
0001
0000
1001
0000
,  // measure 12
0010
0010
0010
0000
,  // measure 13
1000
0000
0100
0000
,  // measure 14
1000
1000
1000
0000
,  // measure 15
0001
0000
0110
0000
,  // measure 16
1000
1000
0000
0000
,  // measure 17
0010
0010
0000
0000
,  // measure 18
0100
0100
0000
0000
,  // measure 19
0001
0001
0001
0000
,  // measure 20
0100
0100
0000
0000
,  // measure 21
0010
0010
0000
0000
,  // measure 22
1000
1000
0000
0000
,  // measure 23
1001
0000
0110
0000
,  // measure 24
0002
0000
0003
0000
,  // measure 25
2000
0000
3000
0000
,  // measure 26
0020
0000
0030
0000
,  // measure 27
0100
0100
0100
0000
,  // measure 28
0020
0000
0030
0000
,  // measure 29
0200
0000
0300
0000
,  // measure 30
0002
0000
0003
0000
,  // measure 31
1001
0000
0110
0000
,  // measure 32
0200
0000
0300
0000
,  // measure 33
0020
0000
0030
0000
,  // measure 34
2000
0000
3000
0000
,  // measure 35
0000
0001
0000
1000
,  // measure 36
2000
0000
3000
0000
,  // measure 37
0002
0000
0003
0000
,  // measure 38
0200
0000
0300
0000
,  // measure 39
1001
0000
0110
0000
,  // measure 40
0200
0000
0300
0000
,  // measure 41
0020
0000
0030
0000
,  // measure 42
2000
0000
3000
0000
,  // measure 43
0002
0000
0003
0000
,  // measure 44
0020
0000
0000
0000
,  // measure 45
0030
0000
0001
0000
,  // measure 46
2000
0000
3000
0000
,  // measure 47
0200
0000
0300
0000
,  // measure 48
0110
0000
0000
0000
,  // measure 49
0000
0000
0000
0000
,  // measure 50
0000
0000
0000
0000
,  // measure 51
0000
0000
0000
0000
,  // measure 52
0002
0000
0003
0000
,  // measure 53
2000
0000
3000
0000
,  // measure 54
0010
0000
0010
0000
,  // measure 55
0100
0000
0100
0000
,  // measure 56
1001
0000
0000
0000
,  // measure 57
1000
0000
0000
0000
,  // measure 58
0001
0000
0001
0000
,  // measure 59
0010
0000
0000
0000
,  // measure 60
0100
0000
0000
0000
,  // measure 61
0100
0000
0000
0000
,  // measure 62
1000
0000
0001
0000
,  // measure 63
0200
0000
0300
0000
,  // measure 64
0010
0010
0010
0000
,  // measure 65
1000
1000
1000
0000
,  // measure 66
0001
0000
1000
0000
,  // measure 67
0100
0100
0100
0000
,  // measure 68
0010
0010
0010
0000
,  // measure 69
0100
0100
0100
0000
,  // measure 70
1000
0000
0001
0000
,  // measure 71
1001
0000
0110
0000
,  // measure 72
0010
0010
0010
0010
,  // measure 73
0010
0010
0010
0000
,  // measure 74
1000
1000
1000
1000
,  // measure 75
1000
1000
1000
0000
,  // measure 76
0001
0001
0001
0001
,  // measure 77
0001
0001
0001
0000
,  // measure 78
0100
0100
0100
0000
,  // measure 79
1001
0000
0110
0000
,  // measure 80
1000
1000
1000
1000
,  // measure 81
1000
0000
1001
0000
,  // measure 82
0010
0010
0010
0010
,  // measure 83
0010
0000
0110
0000
,  // measure 84
0100
0100
0100
0100
,  // measure 85
0100
0100
0100
0000
,  // measure 86
0001
0001
0001
0001
,  // measure 87
0001
0000
1001
0000
,  // measure 88
0110
0000
0000
0000
;
