#VERSION:0.83;
#TITLE:gigadelic;
#SUBTITLE:(STARDOM Remix);
#ARTIST:BEMANI Sound Team "Dustup";
#TITLETRANSLIT:;
#SUBTITLETRANSLIT:;
#ARTISTTRANSLIT:;
#GENRE:;
#ORIGIN:;
#TAGS:;
#CREDIT:;
#BANNER:gigadelic (STARDOM Remix)-bn.png;
#BACKGROUND:gigadelic (STARDOM Remix)-bg.png;
#PREVIEWVID:;
#JACKET:gigadelic (STARDOM Remix)-jacket.png;
#CDIMAGE:;
#DISCIMAGE:;
#LYRICSPATH:;
#CDTITLE:;
#MUSIC:gigadelic (STARDOM Remix).ogg;
#OFFSET:0.000000;
#SAMPLESTART:74.322998;
#SAMPLELENGTH:20.000000;
#SELECTABLE:YES;
#DISPLAYBPM:155.000000;
#BPMS:0.000000=155.000000;
#STOPS:;
#DELAYS:;
#WARPS:;
#TIMESIGNATURES:0.000000=4=4;
#TICKCOUNTS:0.000000=4;
#COMBOS:0.000000=1;
#SPEEDS:0.000000=1.000000=0.000000=0;
#SCROLLS:0.000000=1.000000;
#FAKES:;
#LABELS:0.000000=Song Start;
#BGCHANGES:;
#KEYSOUNDS:;
#ATTACKS:
;

//---------------dance-single - ----------------
#NOTEDATA:;
#CHARTNAME:;
#CHARTHASH:698769682:
#STEPSTYPE:dance-single;
#BANNER:;
#DESCRIPTION:;
#CHARTSTYLE:;
#DIFFICULTY:Hard;
#METER:13;
#METERF:0.000000;
#RADARVALUES:0.609146,0.641044,0.672256,0.096037,0.710671,444.000000,374.000000,70.000000,10.000000,0.000000,0.000000,0.000000,0.000000,0.000000,0.609146,0.641044,0.672256,0.096037,0.710671,444.000000,374.000000,70.000000,10.000000,0.000000,0.000000,0.000000,0.000000,0.000000;
#CREDIT:;
#DISPLAYBPM:155.000000;
#NOTES:
0000
0000
0000
0000
,
0000
0000
0000
0000
,
0000
0000
0000
0000
,
0000
0000
0000
0000
,
1001
0000
1000
0100
0000
1000
0100
0000
0000
0100
0000
0000
,
1001
0000
0001
0100
0000
0001
0100
0000
0000
0100
0000
0000
,
0001
0000
0001
1000
0000
1000
0001
0000
0001
1000
0000
1000
,
0010
0000
0010
0100
0000
0100
0001
0000
1000
0100
0000
0000
,
1100
0000
0000
1100
0000
0000
0001
1000
0001
1000
0000
0100
,
0010
0011
1100
0101
,
0011
0000
0000
0011
0000
0000
0100
0010
0100
0010
0000
1000
,
0001
0000
0000
0101
0000
0000
1010
0000
0000
1000
0001
1000
,
0001
0000
0000
0110
0000
0000
1000
0010
1000
0010
0000
0100
,
0001
0011
0110
1100
,
0101
0000
0000
0101
0000
0000
0010
0100
0010
0100
0000
0001
,
1000
0000
0000
1010
0000
0000
1010
0000
0001
0010
0001
0010
,
0001
0000
0000
1001
0000
0000
1000
0010
0100
0001
0000
1000
,
0001
0000
0000
1010
0000
0000
0011
0000
1000
0100
0010
0100
,
1000
0000
0000
0101
0000
0000
0010
0100
0001
1000
0000
0100
,
1000
0000
0000
1010
0000
0000
0101
0000
0000
1100
0000
0001
,
0100
0000
0000
1001
0000
0000
0010
1000
0010
0100
0000
0001
,
1000
0000
0000
0110
0000
0000
0001
0100
0001
1000
0100
1000
,
0010
0000
0000
0101
0000
0000
0010
0000
0010
1000
0001
1000
,
0100
0000
0000
0100
0000
0000
0011
0000
0001
1000
0000
0000
,
1010
0000
0000
1010
0000
0000
0010
0100
0010
0100
0010
0100
,
0001
0000
0000
0011
0000
0000
1000
0001
1000
0100
0000
0000
,
0110
0000
0000
0110
0000
0000
0010
0001
0010
0001
0000
1000
,
0010
0000
0000
1001
0000
0000
1001
0000
0100
1000
0000
0100
,
1000
0000
0000
1100
0000
0000
0001
1000
0001
0010
0000
0010
,
0100
0000
0000
0011
0000
0000
1010
0000
1000
0001
0100
0010
,
0100
0000
0000
1010
0000
0000
0001
1000
0001
1000
0100
0010
,
0001
0000
0100
0001
0000
0100
0001
0000
0100
0001
0000
0100
,
0010
0000
0000
1010
0000
0000
1000
0001
1000
0001
0010
0100
,
1000
0000
0000
1100
0000
0000
0011
0000
0100
0010
0000
0000
,
1001
0000
0000
0110
0000
0000
0010
1000
0010
0100
0000
0001
,
0100
0000
0000
0011
0000
0000
0101
0000
1000
0100
0000
0010
,
0001
0000
0000
1100
0000
0000
0110
0000
0001
1000
0000
0001
,
0100
0000
0100
0010
0000
0000
0101
0000
0000
1100
0000
0000
,
0011
0000
0000
1100
0000
0000
0001
0000
1000
0010
0000
0100
,
0001
0000
0000
0011
0000
0000
1001
0000
0000
0100
0000
0100
,
0020
0000
0000
0000
,
2000
0000
0000
0030
,
0002
0000
0000
3000
,
0200
0000
0000
0303
,
2000
0000
0001
3100
,
0020
0000
0100
0031
,
0200
0000
0001
1300
,
0001
0000
1000
0002
0000
0000
1000
0000
0000
0013
0000
0100
,
0010
0000
0000
0011
0000
0000
0001
0100
0001
1000
0000
1000
,
0100
0000
0000
1000
0010
0100
0001
0000
0000
0001
0010
0100
,
1000
0000
0000
1010
0000
0000
0010
0100
0001
1000
0000
1000
,
0100
0000
0000
0010
0001
0010
0001
0000
0000
1000
0010
1000
,
0100
0000
0000
1001
0000
0000
0010
1000
0001
1000
0000
0010
,
0100
0000
0000
0001
0010
0100
1000
0000
0000
1000
0100
0010
,
0001
0000
0000
0101
0000
0000
0100
0010
0100
0010
1000
0001
,
1000
0000
0001
0100
0000
0000
0110
0000
0000
1001
0000
1000
,
0001
0000
0000
1100
0000
1000
0010
1000
0010
0100
0000
0100
,
0001
0000
0000
0011
0000
0001
0100
0000
0000
0001
1000
0001
,
1000
0000
0000
0110
0000
0010
0001
0100
0001
0100
0010
1000
,
0001
0000
0000
1100
0000
1000
0010
0000
0000
0010
0100
0010
,
0100
0000
0100
0001
1000
0001
1000
0000
0000
0010
0100
0010
,
1000
0000
0000
0100
1000
0001
0100
0000
0000
1010
0000
0010
,
0100
0000
0000
1001
0000
0001
0010
0001
0100
0001
0010
0100
,
1000
0000
0000
0101
0000
0000
1100
0000
0000
0001
0000
2000
,
0002
0000
0000
0000
,
0000
0000
0000
0000
,
0000
0000
0000
3003
;

//---------------dance-single - ----------------
#NOTEDATA:;
#CHARTNAME:;
#CHARTHASH:569223565:
#STEPSTYPE:dance-single;
#BANNER:;
#DESCRIPTION:;
#CHARTSTYLE:;
#DIFFICULTY:Challenge;
#METER:18;
#METERF:0.000000;
#RADARVALUES:0.928811,1.185932,0.268902,0.115244,1.935137,677.000000,649.000000,28.000000,12.000000,0.000000,0.000000,0.000000,0.000000,0.000000,0.928811,1.185932,0.268902,0.115244,1.935137,677.000000,649.000000,28.000000,12.000000,0.000000,0.000000,0.000000,0.000000,0.000000;
#CREDIT:;
#DISPLAYBPM:155.000000;
#NOTES:
0000
0000
0000
0000
,
0000
0000
0000
0000
,
0000
0000
0000
0000
,
0000
0000
0000
0000
,
1000
0100
1000
0001
0100
0001
1000
0100
1000
0001
0100
0001
,
1000
0010
1000
0001
0010
0001
1000
0010
1000
0001
0010
0001
,
1000
0001
1000
0001
1000
0001
1000
0001
1000
0001
1000
0001
0100
0010
0100
0010
0100
0010
0100
0010
0100
0010
0100
0010
,
1000
0100
0010
0001
0010
0100
1000
0000
0001
0100
0000
0000
,
1001
0000
0000
1001
0000
0000
1000
0010
0100
0001
0000
1000
,
0001
0010
0100
1000
0100
0010
0001
0100
0000
0010
1000
0001
,
1000
0000
0000
1100
0000
0000
0001
1000
0001
0010
0100
1000
,
0010
1000
0001
1000
0100
0010
0001
1000
0000
0110
0000
0001
,
0100
0000
0000
0110
0000
0000
1000
0010
0100
0001
0000
0001
,
1000
0100
0010
0001
1000
0001
0100
0000
0010
1000
0001
1000
,
0100
0000
0000
0011
0000
0000
0100
0001
1000
0010
0100
0001
,
1000
0100
1000
0001
0100
0001
1000
0000
0010
0010
0010
0010
,
0110
0100
0001
1000
0000
0001
1000
0100
1000
0010
0000
0100
,
0001
0010
0100
1000
0001
0100
0010
0000
1000
1000
1000
1000
,
1001
0010
0100
0001
0000
0000
0010
0001
0100
0010
1000
0100
,
1000
0010
0100
0001
1000
0100
0010
0001
0100
0001
0010
1000
,
0100
0000
1000
1010
0000
0000
0101
0001
1000
0001
0010
0100
,
1000
0100
0001
0010
0000
0010
0002
0100
0103
2000
0100
3100
,
0010
0001
1000
0010
0000
0100
0001
0010
1000
0001
0100
1000
,
0010
0100
0001
0010
0100
0001
1000
0000
1100
1100
0000
0001
,
0011
0100
1000
0001
0000
0000
1000
0010
1000
0100
0010
0001
,
0100
0000
0010
1000
0001
0010
0001
0000
0100
0010
1000
0001
,
0100
0010
0100
0010
1000
0001
1000
0100
0010
0001
0000
1000
,
0001
0000
0000
1001
0010
1000
0001
0010
0100
0001
1000
0100
,
0010
0001
0010
0001
0100
1000
0010
0100
0010
1000
0100
0001
,
0010
0000
0001
1000
0100
0000
1000
0010
0100
0010
1000
0001
,
0010
0100
1000
0010
1000
0001
0100
0010
1000
0100
0000
0001
,
0011
1000
0001
1100
0001
1000
0110
0000
0010
0100
0000
0100
,
0001
1000
0001
0010
1000
0000
1010
0010
0100
0001
1000
0001
,
0100
0010
0100
0001
0010
0001
0100
0010
0100
0001
1000
0100
,
1000
0001
0010
0100
0010
0100
1000
0010
1000
0001
0010
0001
,
1001
0100
0010
1000
0001
1000
0010
0000
0100
1010
0000
0001
,
1000
0000
0000
0101
0000
0001
1000
0010
1000
0001
0010
0100
,
1000
0001
1000
0010
0000
0010
0100
0001
0100
1000
1000
1000
,
0010
1000
0001
0010
0000
0100
1000
0001
1000
0010
0100
0001
,
0010
0100
0000
0110
0000
1000
0001
0100
1000
0001
0010
1000
,
0200
0000
1300
0001
0010
0001
0010
0001
0100
0010
1000
0010
,
2000
0010
0000
3001
1000
0010
0100
0000
0100
0001
0010
0001
,
0200
0001
0301
1000
0100
0010
0100
1000
0001
0010
0001
0010
,
0200
1000
1300
0010
0100
0001
0010
0000
0001
0010
0100
1000
,
0002
0000
0000
0013
0100
1000
0010
1000
0001
1000
0100
0010
,
0002
0000
0000
0103
0010
1000
0001
0010
0001
0100
0000
0010
,
1000
0100
1000
0001
0100
0001
1000
0010
1000
0001
0010
0001
,
0100
0010
0100
0010
1000
0001
0200
0010
0000
0301
0000
0001
,
2010
0000
0000
3001
1000
0001
0010
0100
1000
0010
1000
0001
,
0100
0010
0000
1000
1000
1000
0001
0100
0001
0010
0001
0100
,
0110
0000
1000
1000
0001
1000
0010
0100
0001
0100
0010
0100
,
0010
0000
1000
0001
0010
0100
1000
0000
0001
0100
0010
0100
,
0010
0000
1000
0100
0010
0001
0010
0001
1000
0010
0100
0001
,
1000
0000
1000
0010
0100
0001
1000
0100
0010
0001
0010
0100
,
1000
0000
0000
0010
0100
0010
1000
0100
0001
0001
0100
1000
,
0010
0010
0010
1000
0001
1000
0001
0100
0010
1000
0100
0001
,
0100
0000
1000
0001
0010
0001
0100
0010
1000
0100
1000
0001
,
0100
0010
0100
0001
0010
1000
0100
0010
0100
1000
0001
0010
,
0001
1000
0000
1000
0100
1000
0010
0100
0001
0010
0100
0010
,
0100
1000
0001
1000
0100
0010
0001
0100
0010
1000
0001
1000
,
0011
0000
0100
0001
1000
0001
1000
0010
0100
0010
0100
0001
,
1000
1100
0000
0010
1000
0001
0100
0010
0100
0001
0010
1000
,
0100
0001
0001
0010
1000
0010
0001
0100
1000
1000
0100
0010
,
0001
0001
0001
1000
1000
1000
0010
0010
0010
0110
1000
0001
,
2010
0002
0000
0000
,
0000
0000
0000
0000
,
0000
0000
0000
3003
;

//---------------dance-single - ----------------
#NOTEDATA:;
#CHARTNAME:;
#CHARTHASH:0:
#STEPSTYPE:dance-single;
#BANNER:;
#DESCRIPTION:;
#CHARTSTYLE:;
#DIFFICULTY:Medium;
#METER:11;
#METERF:0.000000;
#RADARVALUES:0.578963,0.641044,1.114024,0.134451,0.417759,422.000000,306.000000,116.000000,14.000000,0.000000,0.000000,0.000000,0.000000,0.000000,0.578963,0.641044,1.114024,0.134451,0.417759,422.000000,306.000000,116.000000,14.000000,0.000000,0.000000,0.000000,0.000000,0.000000;
#CREDIT:;
#DISPLAYBPM:155.000000;
#NOTES:
0000
0000
0000
0000
,
0000
0000
0000
0000
,
0000
0000
0000
0000
,
0000
0000
0000
0000
,
0000
0000
1000
0100
0000
1000
0100
0000
0000
0000
0000
0000
,
0000
0000
0001
0100
0000
0001
0100
0000
0000
0000
0000
0000
,
0001
0000
0001
1000
0000
1000
0001
0000
0001
1000
0000
1000
,
0010
0000
0000
1000
0000
1000
0001
0000
0001
0100
0000
0000
,
0110
0000
0000
0110
0000
0000
1000
0000
1000
0001
0000
0001
,
0100
0101
1100
0101
,
1010
0000
0000
1010
0000
0000
1010
0000
0001
1000
0001
1000
,
0001
0000
0000
0110
0000
0000
1001
0000
0000
1000
0100
1000
,
0100
0000
0000
1100
0000
0000
1100
0000
0001
0100
0000
0100
,
0010
0110
1001
1001
,
0011
0000
0000
0011
0000
0000
0011
0000
0100
0010
0100
0010
,
0100
0000
0000
0101
0000
0000
1010
0000
0010
1000
0010
1000
,
0010
0000
0000
0101
0000
0000
0101
0000
0100
0010
0000
0100
,
0010
0000
0000
1010
0000
0000
1010
0000
0001
0010
0001
0010
,
0001
0000
0000
1100
0000
0000
0011
0000
1000
0010
1000
0010
,
1000
0000
0000
1100
0000
0000
0110
0000
0000
0011
0000
0100
,
0010
0000
0000
1001
0000
0000
0100
0000
0001
0100
0000
0001
,
1000
0000
0000
1010
0000
0000
0001
1000
0000
0001
1000
0000
,
0101
0000
0000
0101
0000
0000
0101
0000
0010
1000
0010
1000
,
0020
0000
0000
0230
0000
0000
0301
0000
1000
0010
0000
1000
,
0100
0000
0000
1001
0000
0000
0110
0000
0000
1001
0000
0100
,
0010
0000
0000
0101
0000
0000
1010
0000
0001
0100
0001
0100
,
0001
0000
0001
1000
0000
0000
1100
0000
0000
0010
0000
0010
,
0100
0000
0000
0011
0000
0000
1010
0000
0010
0100
0000
0100
,
0010
0000
1000
0001
0000
0000
1001
0000
0001
1000
0000
0100
,
1000
0101
1100
0011
,
0110
0000
0000
0110
0000
0000
0110
0000
1000
0010
0000
1000
,
0001
0000
0100
0001
0000
0100
0002
0000
0000
1003
0001
1000
,
0001
0000
0000
0011
0000
0000
0011
0000
0000
1100
0000
0001
,
0100
0000
0000
1010
0000
0000
1010
0000
1000
0001
0000
1000
,
0001
0000
0000
1001
0000
0000
1001
0000
0010
1000
0000
0010
,
0100
0000
0000
0110
0000
0000
1001
0000
0001
0010
0000
0100
,
1000
0000
0000
1100
0000
0000
0101
0000
0010
0001
0000
0100
,
0001
0000
0000
1010
0000
0000
1100
0000
1000
0100
0000
0000
,
1001
0000
0000
1001
0000
0000
0110
0000
0000
1001
0000
0100
,
0010
0000
0000
1010
0000
0000
1010
0000
0000
1010
0000
0001
,
0200
0000
0000
0300
,
0020
0000
0000
0030
,
2000
0000
0000
3000
,
0002
0000
0000
0003
,
0020
0000
0002
0033
,
2000
0000
0200
3300
,
2000
0000
0020
3030
,
0001
0000
0001
1000
0000
0000
1001
0000
0000
1001
0000
0100
,
0010
0000
0000
1100
0000
0000
0101
0000
0000
1100
0000
0001
,
0100
0000
0000
0011
0000
0000
0110
0000
0000
1100
0000
1000
,
0001
0011
1010
0011
,
1001
0000
0000
0110
0000
0000
1001
0000
0000
1000
0001
1000
,
0001
0101
0101
1010
,
1100
0000
0000
1100
0000
0000
1100
0000
0000
1001
0000
0001
,
0100
0011
1100
0101
,
1001
0000
0000
0110
0000
0000
1001
0000
0000
0010
0000
0010
,
1000
0000
0000
1100
0000
0000
0101
0000
0000
0001
0000
0100
,
0001
0000
0000
0011
0000
0000
1010
0000
0000
0010
0000
1000
,
0010
0000
0000
0100
0000
0100
0001
0000
0000
0110
0000
0000
,
1001
0000
0000
1001
0000
0000
1001
0000
0000
0010
0100
0010
,
0100
0011
0110
1100
,
0101
0000
0000
1001
0000
0000
1010
0000
0000
0100
0000
0001
,
1000
1100
0101
1010
,
0011
0000
0000
0110
0000
0000
1001
0000
0000
0100
0000
0100
,
0002
0000
0000
0000
,
0000
0000
0000
0000
,
0000
0000
0000
0003
;

//---------------dance-single - ----------------
#NOTEDATA:;
#CHARTNAME:;
#CHARTHASH:0:
#STEPSTYPE:dance-single;
#BANNER:;
#DESCRIPTION:;
#CHARTSTYLE:;
#DIFFICULTY:Easy;
#METER:7;
#METERF:0.000000;
#RADARVALUES:0.432165,0.576940,0.902744,0.163262,0.000000,315.000000,221.000000,94.000000,17.000000,0.000000,0.000000,0.000000,0.000000,0.000000,0.432165,0.576940,0.902744,0.163262,0.000000,315.000000,221.000000,94.000000,17.000000,0.000000,0.000000,0.000000,0.000000,0.000000;
#CREDIT:;
#DISPLAYBPM:155.000000;
#NOTES:
0000
0000
0000
0000
,
0000
0000
0000
0000
,
0000
0000
0000
0000
,
0000
0000
0000
0000
,
1001
1000
2000
3000
,
1001
0001
0002
0003
,
0020
0030
0200
0300
,
1000
1000
0001
0001
,
1001
1001
0010
0100
,
0001
0010
1000
0100
,
0110
0110
0010
1000
,
0100
0010
0002
1003
,
1100
1100
0010
1000
,
0001
0010
0100
1000
,
0011
0011
0100
0010
,
1000
0001
1000
1010
,
0001
0001
0001
0011
,
0100
0010
0200
0301
,
1001
1001
1001
0010
,
0101
0101
0101
1000
,
0110
0110
0001
0010
,
1000
1000
1000
1010
,
0101
0101
1100
1100
,
0002
2003
3001
0110
,
1010
1010
0001
0100
,
0110
0110
0010
1000
,
1100
1100
0001
0100
,
0101
0101
0010
0100
,
1001
1001
1000
0010
,
0011
0011
1000
0001
,
1010
1010
0001
0100
,
0002
2003
3200
0300
,
1100
0101
0010
0100
,
1010
0011
0100
0001
,
0110
1001
1000
0001
,
1100
0110
0011
0010
,
1001
0001
0100
0010
,
1010
0010
1000
0100
,
0001
0011
0100
0010
,
1001
0110
1001
0110
,
1001
0000
0000
0000
,
0001
0000
0000
0000
,
1000
0000
0000
0000
,
0010
0000
0000
0000
,
0200
0000
0001
0301
,
2000
0000
0010
3010
,
0002
0000
1000
1003
,
1010
1010
0101
1000
,
1001
0001
0010
0100
,
1100
0010
1000
0001
,
0110
0010
0100
0001
,
0011
1000
0100
0001
,
1001
1001
1001
0010
,
1010
1010
1010
0100
,
0101
0101
1100
1100
,
1001
1001
0200
0310
,
0110
0010
1000
0100
,
0011
0100
0001
1000
,
1010
0001
0010
1000
,
0101
0010
0100
0001
,
0011
0011
0011
0011
,
1100
1100
1100
1100
,
1001
1001
0110
0110
,
1000
1000
1000
1100
,
0202
0000
0000
0000
,
0000
0000
0000
0000
,
0000
0000
0000
0303
;

//---------------dance-single - ----------------
#NOTEDATA:;
#CHARTNAME:;
#CHARTHASH:0:
#STEPSTYPE:dance-single;
#BANNER:;
#DESCRIPTION:;
#CHARTSTYLE:;
#DIFFICULTY:Beginner;
#METER:5;
#METERF:0.000000;
#RADARVALUES:0.220884,0.276585,0.076829,0.000000,0.000000,161.000000,153.000000,8.000000,0.000000,0.000000,0.000000,0.000000,0.000000,0.000000,0.220884,0.276585,0.076829,0.000000,0.000000,161.000000,153.000000,8.000000,0.000000,0.000000,0.000000,0.000000,0.000000,0.000000;
#CREDIT:;
#DISPLAYBPM:155.000000;
#NOTES:
// measure 0
0000
0000
0000
0000
,  // measure 1
0000
0000
0000
0000
,  // measure 2
0000
0000
0000
0000
,  // measure 3
0000
0000
0000
0000
,  // measure 4
0000
1000
1000
0000
,  // measure 5
0000
0001
0001
0000
,  // measure 6
1001
0000
0110
0000
,  // measure 7
1000
1000
1000
0000
,  // measure 8
0001
0001
0001
0000
,  // measure 9
0100
0100
0100
0000
,  // measure 10
0010
0010
0010
0000
,  // measure 11
1000
1000
1000
0000
,  // measure 12
0010
0000
0010
0000
,  // measure 13
1000
0000
1000
0000
,  // measure 14
0001
0000
0001
0000
,  // measure 15
0100
0000
0100
0000
,  // measure 16
0001
0001
0001
0000
,  // measure 17
1000
1000
1000
0000
,  // measure 18
0010
0010
0010
0000
,  // measure 19
0100
0100
0100
0000
,  // measure 20
0001
0000
1000
0000
,  // measure 21
0001
0000
1000
0000
,  // measure 22
0010
0000
0100
0000
,  // measure 23
0010
0000
0100
0000
,  // measure 24
0001
0001
0001
0001
,  // measure 25
0001
0001
0001
0000
,  // measure 26
0100
0100
0100
0100
,  // measure 27
0100
0100
0100
0000
,  // measure 28
1000
1000
1000
0000
,  // measure 29
0001
0001
0001
0000
,  // measure 30
1000
1000
1000
0000
,  // measure 31
0010
0010
0010
0000
,  // measure 32
0100
0000
0100
0000
,  // measure 33
0001
0001
0001
0000
,  // measure 34
0010
0000
0010
0000
,  // measure 35
0100
0100
0100
0000
,  // measure 36
1000
1000
1000
1000
,  // measure 37
1000
1000
1000
0000
,  // measure 38
0001
0001
0001
0001
,  // measure 39
0001
0001
0001
0000
,  // measure 40
1001
0000
0000
0000
,  // measure 41
0000
0000
0000
0000
,  // measure 42
0000
0000
0000
0000
,  // measure 43
0000
0000
0000
0000
,  // measure 44
0110
0000
0000
0000
,  // measure 45
1001
0000
0000
0000
,  // measure 46
0110
0000
0000
0000
,  // measure 47
1000
1000
1000
0000
,  // measure 48
1001
0000
0001
0000
,  // measure 49
0100
0100
0100
0000
,  // measure 50
0010
0000
1000
0000
,  // measure 51
0001
0001
0001
0000
,  // measure 52
0100
0000
0001
0000
,  // measure 53
1000
1000
1000
0000
,  // measure 54
1000
0000
0100
0000
,  // measure 55
0010
0010
0010
0000
,  // measure 56
0001
0001
0001
0001
,  // measure 57
0001
0001
0001
0000
,  // measure 58
0010
0010
0010
0010
,  // measure 59
0010
0010
0010
0000
,  // measure 60
1000
1000
1000
1000
,  // measure 61
1000
1000
1000
0000
,  // measure 62
0010
0000
0100
0000
,  // measure 63
0001
0001
0001
0000
,  // measure 64
0110
0000
0000
0000
;
