#TITLE:fun;
#ARTIST:Mr. T;
#BANNER:fun-bn.png;
#BACKGROUND:fun-bg.png;
#JACKET:fun-jacket.png;
#MUSIC:fun.ogg;
#OFFSET:2.1;
#SAMPLESTART:56.7;
#SAMPLELENGTH:20;
#LASTBEATHINT:1.82;
#DISPLAYBPM:100:200;
#BPMS:0=100,96=200,168=100,184=200,192=100;
#BGCHANGES:;

//---------------dance-single - ----------------
#NOTES:
     dance-single:
     :
     Beginner:
     5:
     :
0000
0000
0000
0000
,
0000
0000
0000
0000
,
0000
0000
0000
0000
,
0000
0000
0000
0000
,
0000
0000
0000
0000
,
0000
0000
0000
0000
,
1000
1000
1000
0000
,
0001
0001
0001
0000
,
1001
0000
0110
0000
,
1001
0000
0000
0000
,
0000
1000
1000
1000
,
0001
1000
0100
0000
,
0110
0000
0001
0000
,
1000
0020
0000
0030
,
0000
1000
1000
1000
,
0001
1000
0100
0000
,
0010
0010
0010
0001
,
1001
0000
0000
0000
,
0100
0100
0100
0000
,
0010
0010
0010
0000
,
0110
0000
1001
0000
,
0110
0000
0001
0000
,
1000
0000
0100
0000
,
1000
0000
0010
0000
,
1001
0000
0000
0000
,
0010
0010
0010
0010
,
0000
0220
0330
0000
,
0001
0001
0001
0000
,
1000
0000
0100
0000
,
1000
0000
0010
0000
,
0100
0100
0100
0100
,
0100
0100
0100
0100
,
0100
0000
0010
0000
,
0100
0000
0010
0000
,
1001
0000
0100
0000
,
0110
0000
0001
0000
,
0010
0010
0010
0010
,
0010
0010
0010
0000
,
0001
0000
1000
0000
,
0010
0000
1000
0000
,
0001
0001
0001
0001
,
0001
0000
1001
0000
,
1000
0001
1000
0000
,
0010
0100
0010
0000
,
0110
0000
1001
0000
,
0110
0000
1001
0000
,
0001
0000
1000
0000
,
0010
0000
0100
0000
,
0110
0001
1000
0001
,
1000
0000
0000
0020
0000
0200
0000
0000
0000
0000
0000
0000
,
0000
0000
0000
0000
,
0000
0000
0000
0000
0000
0330
0000
0000
0000
0000
0000
0000
;

//---------------dance-single - ----------------
#NOTES:
     dance-single:
     :
     Easy:
     9:
     :
0000
0000
0000
0000
,
0000
0000
0000
0000
,
0000
0000
0000
0000
,
0000
0000
0000
0000
,
0000
0000
0000
0000
,
0000
0000
0000
0000
,
1000
0100
1000
0100
1000
0000
1100
0000
,
0001
0100
0001
0100
0001
0000
0101
0000
,
2001
3100
1002
0103
,
0110
0000
0001
1000
0001
1000
0100
0000
,
1000
0010
0200
0000
0302
0000
2003
0000
,
3001
0100
0010
0100
0002
0000
0003
1000
,
1001
0000
0010
1000
0010
0100
0001
1000
,
0100
2100
0001
0001
0001
0001
3001
1000
,
0010
0100
0002
0000
2003
0000
3020
0000
,
0130
0001
1000
0001
0200
0000
0310
1000
,
1002
0023
0032
2003
,
3020
0100
0130
0000
0001
1000
0001
0000
,
0001
0010
0001
0010
0001
0000
0011
0000
,
1000
0010
1000
0010
1000
0000
1010
0000
,
1002
0103
2001
3100
,
0110
0000
0001
1000
0010
1000
0100
0010
,
0011
0000
0001
0100
0001
0010
0100
1000
,
1001
0000
0010
1000
0100
0010
0001
0000
,
0102
0200
0000
0303
,
1001
0110
1001
0110
,
0002
2000
3000
0103
,
0010
1000
0010
0100
,
0001
0010
0001
0100
,
1000
0010
0200
0300
,
0001
0001
0001
0001
,
1000
1000
0010
0100
,
0101
0101
1100
1100
,
0101
1100
0101
1100
,
0002
0103
2000
3100
,
0010
0001
1000
0010
,
0100
0110
1001
0110
,
0001
0001
2000
3000
,
1010
0010
1000
0100
,
0010
0001
1000
1000
,
1100
0110
0011
0110
,
1100
0000
1001
0000
,
1000
0001
1000
0001
1000
0000
1001
0000
,
0010
0100
0010
0100
0010
0000
0110
0000
,
1020
0130
0102
0013
,
1200
1300
0021
0031
,
1000
0010
1000
0001
,
0010
0100
1100
0101
,
1100
0002
0023
0230
,
1300
0000
0000
1001
0000
2002
0000
0000
3000
0000
0000
2000
,
0000
0000
0000
0000
,
0000
0000
3003
0000
0000
0110
0000
0000
0000
0000
0000
0000
;

//---------------dance-single - ----------------
#NOTES:
     dance-single:
     :
     Medium:
     13:
     :
0000
0000
0000
0000
,
0000
0000
0000
0000
,
0000
0000
0000
0000
,
0000
0000
0000
0000
,
0000
0000
0000
0000
,
1000
0000
1000
0100
0000
0000
1100
0000
0000
0101
0000
0000
1100
0000
0000
0000
0000
0000
1001
0000
0000
0000
0000
0011
,
0000
0000
0001
1000
0000
0000
1010
0000
0000
0101
0000
0000
1010
0000
0000
0000
0000
0010
1000
0000
0100
0000
0000
0110
,
0000
0000
0010
0001
0000
0000
0011
0000
0000
1100
0000
0000
0011
0000
0000
1000
0000
0000
1000
0000
0001
0000
0000
1002
,
0000
0000
0000
0000
0000
0000
0103
0000
0010
0100
0000
0020
0000
0000
0000
1000
0000
0000
1030
0000
0010
0100
0000
0001
,
0010
0000
0200
0000
0000
0000
1300
0000
0001
1000
0000
0000
0010
0000
0010
1000
0000
0000
0001
0000
0100
0000
0000
0101
,
0000
0000
1000
0001
0000
0000
0020
0000
0000
0000
0000
0000
0230
0000
0000
0000
0000
0000
2300
0000
0000
0000
0000
3010
,
1000
0000
0010
0100
0000
0000
0110
0000
0000
1001
0000
0000
0110
0000
0000
0001
0000
0000
0001
0000
1000
0000
0000
1010
,
0000
0000
0010
1000
0000
0000
0100
0000
0100
0010
0000
0000
0001
0000
0100
0001
0000
1000
0000
0000
0000
0010
0000
0100
,
0000
0000
0001
0000
1000
0000
0001
0000
1000
0000
0001
0000
1000
0000
0010
0100
0000
0000
0100
0000
0100
0001
0000
0010
,
0000
0000
0001
1000
0000
0000
0020
0000
0000
0000
0000
0000
0230
0000
0000
0000
0000
0000
0302
0000
0000
0000
0000
1003
,
0001
0000
1000
0100
0000
0000
1100
0000
0000
0110
0000
0000
0012
0000
0000
0000
0000
0000
0103
0000
0010
0000
0000
1001
,
0000
0000
1000
0010
0000
0000
0200
0000
0000
0000
0000
0000
0302
0000
0000
0010
0000
0000
0013
0000
0001
1000
0000
0001
,
0100
0000
0000
0010
0000
1000
0010
0000
1000
0000
0000
1000
0100
0000
0100
0010
0000
0010
0001
0000
1000
0000
0000
1010
,
0000
0000
0010
0100
0000
0000
0101
0000
0000
1001
0000
0000
1100
0000
0000
0000
0000
1000
0001
0000
1000
0000
0000
1001
,
0000
0000
0001
0100
0000
0000
0110
0000
0000
1001
0000
0000
0110
0000
0000
0001
0000
1000
0001
0000
0100
0000
0000
0102
,
0000
0000
0000
0000
0000
0000
1003
0000
0100
1000
0000
0200
0000
0000
0000
0010
0000
0000
0310
0000
0001
0100
0000
0001
,
0000
0000
0000
1000
0000
0100
0000
0000
1000
0100
0000
0000
1000
0000
1000
0001
0000
0001
0100
0000
0010
0100
0000
0010
,
0000
0000
0000
0100
0000
0001
0000
0000
0100
0001
0000
0000
0010
0000
0010
0001
0000
0001
1000
0000
0010
1000
0000
0100
,
0000
0000
0000
1000
0000
0001
0000
0000
1000
0001
0000
0000
1000
0000
0010
1000
0000
0010
1000
0000
0001
0000
0000
0000
,
1002
0100
0100
0103
,
0101
0000
0000
1100
0000
0000
1000
0000
0010
0100
0000
0001
,
0000
0000
0000
0022
0000
0000
0003
0000
0000
0031
0000
0001
,
0100
0000
0100
0010
0000
0010
1000
0000
0100
1000
0000
0002
,
0000
0000
0000
0103
0000
0020
0000
0000
0000
1030
0000
0200
,
0000
0000
1300
0001
0000
2000
0000
0000
0000
0000
0000
0000
,
3010
0000
0010
1000
0000
1000
0010
0000
0010
0100
0000
0100
,
0001
0000
0001
1000
0000
1000
0100
0000
0100
0010
0000
0000
,
0010
0001
0000
1000
0000
0001
1000
0001
0000
0010
0000
0100
,
1000
0100
0000
0010
0000
0001
0100
0000
0001
0100
0000
0020
,
0000
0000
1030
0100
0000
0100
1000
0000
1000
0001
0000
0001
,
1000
0000
0010
0100
0000
0010
0100
0000
0001
0010
0000
0200
,
0000
0000
1300
0002
0000
0000
0203
0000
0000
0302
0000
0000
,
1003
0000
0010
1000
0000
0010
1000
0000
0100
0000
0000
2100
,
0000
0000
0000
3001
0000
1000
0010
0000
0100
0000
0000
0120
,
0000
0000
0000
0130
0000
0010
1000
0000
1000
0001
0000
0001
,
0010
0011
1100
0011
,
1100
0000
0000
0000
0000
0000
1001
0000
0000
0000
0000
0110
,
0000
0000
0010
1000
0000
0000
1010
0000
0000
0011
0000
0000
1010
0000
0000
0000
0000
0010
1000
0000
0001
0000
0000
0101
,
0000
0000
0100
0010
0000
0000
1010
0000
0000
1100
0000
0000
1010
0000
0000
0001
0000
0000
0001
0000
0010
0001
0000
0200
,
0000
0000
0000
0000
0000
0000
0301
0000
0010
0001
0000
2000
0000
0000
0000
0100
0000
0000
3100
0000
1000
0001
0000
0200
,
0000
0000
0000
0301
0000
0001
1000
0000
0010
1000
0000
0100
0000
0000
1000
0001
0000
0000
1000
0000
0100
0010
0000
0002
,
0000
0000
1003
0100
0000
0100
0010
0000
0010
0001
0000
2000
,
0000
0000
3010
1000
0000
0001
1000
0000
1000
0100
0000
0000
,
1100
0000
0000
1000
0100
1000
0001
0100
0001
1000
0100
0010
,
0001
0000
0000
1010
0000
0202
0000
0000
0300
0000
0000
1000
,
0000
1000
0000
0000
0000
0000
0000
1000
0000
0000
0000
0000
1000
0000
0000
0000
0000
0000
1000
0000
0000
0000
0000
0000
1000
0000
0000
0000
0000
0000
1000
0000
0000
0000
0000
0000
2000
0000
0000
0000
0000
0000
0000
0000
0000
0000
0000
0000
,
0000
0000
0000
3003
0000
1001
0000
0000
0000
0000
0000
0000
;

//---------------dance-single - ----------------
#NOTES:
     dance-single:
     :
     Hard:
     15:
     :
0000
0000
0000
0000
,
0000
0000
0000
0000
,
0000
0000
0000
0000
,
0000
0000
0000
0000
,
0000
0000
0000
0000
,
1000
0000
1000
0100
0000
0000
1100
0000
0000
0101
0000
0000
1100
0000
0001
1000
0000
0000
1000
0000
0100
0000
0000
0011
,
0000
0000
0001
0010
0000
0010
0001
0000
0000
1001
0000
0000
1010
0000
0010
0000
0000
0010
1000
0000
0100
0000
0000
1000
,
0010
0000
0010
1000
0000
0000
1100
0000
0000
0110
0000
0000
0011
0000
0100
0001
0000
0100
0001
0000
1000
0010
0000
0210
,
0000
0000
0000
0001
0000
0000
0301
0000
0000
1000
0000
0200
0000
0000
0000
0010
0000
0000
0310
0001
0010
0001
0010
0100
,
1000
0000
0002
0000
0000
0103
0001
0000
1000
0100
0000
1000
0100
0000
0100
0010
0000
0010
0001
0000
1000
0000
0000
0010
,
1000
0000
0100
1000
0000
0000
2001
0000
0000
3001
0000
0000
0102
0000
0000
0103
0000
0000
0210
0000
0000
0310
0000
1000
,
0000
0000
1000
0100
0000
0000
0011
0000
0000
0011
0000
0000
0011
0000
0001
1000
0000
0000
1000
0000
0010
0000
0000
1010
,
0000
0000
0001
1000
0000
1000
0100
0000
0100
1000
0000
1000
0010
0000
0100
0010
0000
0100
0000
0000
0010
1000
0000
0100
,
0000
0000
1000
0000
0001
0000
1000
0000
0001
0000
1000
0000
0001
0000
0100
0010
0000
0100
0010
0000
0100
0010
0000
1010
,
0000
0000
1000
0001
0000
0000
0021
0000
0000
0130
0000
0000
2100
0000
0000
3010
0000
0000
1020
0000
0000
0130
0000
0010
,
0000
0000
0010
1000
0000
0000
0110
0000
0000
0110
0000
0000
0110
0000
0000
0001
0000
0000
0001
0000
0010
0100
0000
1000
,
0002
0000
0000
0103
0000
0000
2001
0000
0000
3010
0000
0000
1100
0000
0100
1000
0000
0100
1000
0001
1000
0001
0100
0010
,
1000
0000
0000
0001
0100
0001
0100
0000
0010
0000
0000
1000
0100
0000
0100
0010
0000
0010
0001
0000
1000
0001
0000
0011
,
0000
0000
0010
0100
0000
0010
0100
0000
0100
1000
0000
0000
1001
0000
0010
0000
0000
0010
1000
0000
0001
0000
0000
0100
,
0001
0000
0010
0001
0000
0001
1000
0000
1000
0010
0000
0000
1100
0000
0001
0100
0000
0001
1000
0000
0100
0010
0000
0012
,
0000
0000
0000
0103
0000
0010
0100
0000
0010
1000
0000
2100
0000
0000
0000
0001
0000
0000
3001
0000
1000
0010
0100
0001
,
0010
0000
0000
0100
0000
1000
0000
0000
0100
1000
0000
0000
0001
0000
0001
1000
0000
1000
0001
0100
0010
0100
0000
0201
,
0000
0000
0000
0310
0000
1000
0000
0000
0010
1000
0000
0000
0100
0000
0100
0010
0001
1000
0001
0100
0010
1000
0000
1001
,
0000
0000
0010
0000
0010
0000
0010
0000
0010
0000
0010
0000
1000
0000
0100
1000
0000
0001
1000
0010
0100
0001
0000
0000
,
2010
0100
0100
3100
,
1000
0001
1000
0001
1000
0001
1000
0001
1000
0001
0000
0011
,
0000
0000
0001
2000
0000
0000
0010
0000
0000
3001
0000
1000
,
0100
0000
0100
0010
0000
0010
0001
0100
0001
1000
0000
2000
,
0000
0000
3010
1000
0000
0200
0000
0000
0310
0001
0000
0200
,
0000
0000
0301
1000
0000
0020
0000
0000
0130
0010
0000
1000
,
0001
0010
0001
0010
0100
0010
0100
1000
0100
1000
0001
1000
,
0001
0100
0010
1000
0100
0010
0001
0100
0010
1000
0000
0000
,
0110
0000
0001
1000
0100
1000
0001
0000
1000
0010
0100
0010
,
1000
0100
1000
0100
1000
0100
0010
0001
0010
0100
0000
1000
,
0000
0001
1000
0010
1000
0010
0100
0001
0100
0001
1000
0001
,
0010
0100
0010
0100
0010
0100
1000
0010
0100
0001
0000
0012
,
0000
0000
1003
0010
0000
1000
0010
0000
1000
0010
0000
0100
,
0001
0000
0001
1000
0000
1000
0001
0000
1000
0100
0000
2100
,
0000
0000
3010
1000
0100
1000
0100
1000
0001
0100
0000
0101
,
0000
0000
0010
1000
0000
1000
0100
0000
0100
0010
0001
0010
,
0100
1100
0101
1100
,
0101
0000
0000
0000
0000
0000
1001
0000
0000
0000
0000
0120
,
0000
0000
1030
0010
0000
1000
0010
0000
1000
0001
0000
0000
0101
0000
0010
0000
0000
0010
1000
0000
0001
0000
0000
0010
,
0001
0000
1000
0100
0000
0100
1000
0000
1000
0001
0000
0000
0011
0000
0100
1000
0000
0010
1000
0000
0100
0010
0000
0012
,
0000
0000
0000
1003
0000
0010
1000
0000
0010
0100
0000
0002
0000
0000
0013
0001
0000
1000
0001
0000
1000
0100
0000
0010
,
0001
0000
0000
0001
0010
0100
1000
0000
0000
0010
0000
0200
0000
0000
0301
1000
0000
0000
0010
0100
0010
0100
0010
0200
,
0000
0000
1300
0010
0000
1000
0001
0010
0001
0010
0100
2000
,
0000
0000
3010
1000
0100
1000
0001
0100
0001
0010
0100
1000
,
0001
0000
0000
0000
0000
0000
0000
0000
0000
0000
0000
0000
0000
0000
0000
0000
0000
0000
0000
0000
0000
0000
0000
0000
0000
0000
0000
0000
0000
0000
0000
0000
0000
0000
0000
0000
0000
0000
0000
0000
0000
0000
0000
0000
0000
0000
0000
0000
1000
0000
0000
0000
0000
0000
0000
0000
0000
0000
0000
0000
0000
0000
0000
0000
1000
0000
0000
0000
0000
0000
0000
0000
0000
0000
0000
0000
0000
0000
0000
0000
1000
0000
0000
0000
0000
0000
0000
0000
0000
0000
0000
0000
0000
0000
0000
0000
0010
0000
0000
0000
0000
0000
0000
0000
0000
0000
0000
0000
0000
0000
0000
0000
0010
0000
0000
0000
0000
0000
0000
0000
0000
0000
0000
0000
0000
0000
0000
0000
0010
0000
0000
0000
0000
0000
0000
0000
0000
0000
0000
0000
0000
0000
0000
0000
1000
0000
0000
0000
0000
0000
0000
0000
0000
0000
0000
0000
0000
0000
0000
0000
0100
0000
0000
0000
0000
0000
0000
0000
0000
0000
0000
0000
0000
0000
0000
0000
0010
0000
0000
0000
0000
0000
0000
0000
0000
0000
0000
0001
0000
0000
0000
0000
,
1000
0000
0000
0000
1000
0000
0000
0000
1000
0000
0000
0000
1100
0000
0000
0000
0000
0000
0000
0000
0202
0000
0000
0000
0000
0000
0000
0000
0000
0000
0000
0000
0300
0000
0000
0000
0000
0000
0000
0000
1003
0000
0000
0000
0100
0000
0000
1000
,
0000
0000
0000
0000
0100
0000
0000
0000
0000
0000
0000
0000
1000
0000
0000
0000
0000
0000
0000
0000
0000
0000
0000
0000
0100
0000
0000
0000
0000
0000
0000
0000
0000
0000
0000
0000
1000
0000
0000
0000
0000
0000
0000
0000
0100
0000
0000
0000
0000
0000
0000
0000
0000
0000
0000
0000
1000
0000
0000
0000
0000
0000
0000
0000
0000
0000
0000
0000
0100
0000
0000
0000
0000
0000
0000
0000
0000
0000
0000
0000
1000
0000
0000
0000
0000
0000
0000
0000
0000
0000
0000
0000
0100
0000
0000
0000
0000
0000
0000
0000
0000
0000
0000
0000
1000
0000
0000
0000
0000
0000
0000
0000
0000
0000
0000
0000
0000
0100
0000
0000
0000
0000
0000
0000
0000
0000
0000
0000
0000
0000
0000
0000
1000
0000
0000
0000
0000
0000
0000
0000
0000
0000
0000
0000
0200
0000
0000
0000
0000
0000
0000
0000
0000
0000
0000
0000
0000
0000
0000
0000
0000
0000
0000
0000
0000
0000
0000
0000
0000
0000
0000
0000
0000
0000
0000
0000
0000
0000
0000
0000
0000
0000
0000
0000
0000
0000
0000
0000
0000
0000
0000
0000
,
0000
0000
0000
0000
0000
0000
0000
0000
0000
0000
0000
0000
0000
0000
0000
0000
0000
0000
0000
0000
0000
0000
0000
0000
0000
0000
0000
0000
0000
0000
0000
0000
0000
0000
0000
0000
0000
0000
0000
0000
0000
0000
0000
0000
0000
0000
0000
0000
0300
0000
0000
0000
0000
0000
0000
0000
0000
0000
0000
0000
0000
0000
0000
0000
0000
0000
0000
0000
0000
1000
0000
0000
0000
0000
0000
0000
0001
0000
0000
0000
0000
0000
0100
0000
0000
0000
0000
0000
0020
0000
0000
0000
0000
0000
0000
0000
0000
0000
0000
0000
0000
0000
0000
0000
0000
0000
0000
0000
0000
0000
0000
0000
0000
0000
0000
0000
0000
0000
0000
0000
0000
0000
0000
0000
0000
0000
0000
0000
0000
0000
0000
0000
0000
0000
0000
0000
0000
0000
0000
0000
0000
0000
0000
0000
0030
0000
0000
0000
0000
0000
0000
0000
0000
0000
0000
0000
0000
0000
0000
0000
0000
0000
0000
0000
0000
0000
0000
0000
0000
0000
0000
0000
0000
0000
0000
0000
0000
0000
0000
0000
0000
0000
0000
0000
0000
0000
0000
0000
0000
0000
0000
0000
;
