#VERSION:0.83;
#TITLE:flutter;
#SUBTITLE:;
#ARTIST:Yukiko + V.C.O.;
#TITLETRANSLIT:;
#SUBTITLETRANSLIT:;
#ARTISTTRANSLIT:;
#GENRE:;
#ORIGIN:;
#TAGS:;
#CREDIT:;
#BANNER:flutter-bn.png;
#BACKGROUND:flutter-bg.png;
#PREVIEWVID:;
#JACKET:flutter-jacket.png;
#CDIMAGE:;
#DISCIMAGE:;
#LYRICSPATH:;
#CDTITLE:;
#MUSIC:flutter.ogg;
#OFFSET:0.000000;
#SAMPLESTART:10.841000;
#SAMPLELENGTH:20.000000;
#SELECTABLE:YES;
#DISPLAYBPM:101.000000:236.000000;
#BPMS:0.000000=224.000000,
12.000000=236.000000,
188.000000=220.000000,
189.000000=202.000000,
190.000000=175.000000,
191.000000=152.000000,
192.000000=126.999992,
193.000000=101.000000,
194.000000=236.000000,
296.000000=214.000000,
302.000000=202.000000,
308.000000=190.000000,
309.000000=186.000000,
310.000000=180.000000,
311.000000=172.000000,
312.000000=169.000000,
313.000000=164.000000,
314.000000=154.000000,
315.000000=148.000000,
316.000000=144.000000,
317.000000=136.000000,
318.000000=134.000000,
319.000000=126.999992,
325.500000=140.000000,
326.500000=178.000000,
335.500000=193.000000;
#STOPS:;
#DELAYS:;
#WARPS:;
#TIMESIGNATURES:0.000000=4=4;
#TICKCOUNTS:0.000000=4;
#COMBOS:0.000000=1;
#SPEEDS:0.000000=1.000000=0.000000=0;
#SCROLLS:0.000000=1.000000;
#FAKES:;
#LABELS:0.000000=Song Start;
#BGCHANGES:;
#KEYSOUNDS:;
#ATTACKS:
;

//---------------dance-single - ----------------
#NOTEDATA:;
#CHARTNAME:;
#CHARTHASH:2147483647:
#STEPSTYPE:dance-single;
#BANNER:;
#DESCRIPTION:;
#CHARTSTYLE:;
#DIFFICULTY:Hard;
#METER:13;
#METERF:0.000000;
#RADARVALUES:0.782136,0.824401,0.779128,0.326391,0.036851,520.000000,446.000000,74.000000,31.000000,0.000000,0.000000,0.000000,0.000000,0.000000,0.782136,0.824401,0.779128,0.326391,0.036851,520.000000,446.000000,74.000000,31.000000,0.000000,0.000000,0.000000,0.000000,0.000000;
#CREDIT:;
#DISPLAYBPM:101.000000:236.000000;
#NOTES:
0000
0000
0000
0000
,
0000
0000
0000
0000
,
0000
0000
0000
0000
1000
0001
1000
0001
,
0020
0001
0100
1000
,
0100
0001
0100
0001
,
1000
0001
1000
0100
,
0001
0100
1000
0100
,
1000
0000
0031
0000
1001
0000
0001
0010
,
0100
1000
1100
1100
,
0010
0000
0100
0001
1000
0000
0001
0000
,
0011
0000
0011
0000
2001
0000
3010
1000
,
0100
1100
1001
0011
,
1002
0000
0103
0010
1000
0000
2010
0000
,
0001
0000
3100
0000
1200
0000
1300
0010
,
0100
0001
0010
0000
0011
0000
1100
0000
,
0001
0100
1000
0100
0001
0000
1000
0100
,
0001
0100
1000
0000
0120
0000
1030
0001
,
0010
0101
0110
1001
,
2100
0000
3010
1000
0100
0000
0012
0000
,
1000
0000
0013
0001
0200
0000
0310
0100
,
0010
1000
0200
0000
0010
0000
0310
0000
,
0002
0000
1003
0001
0010
0100
2000
0000
,
0100
0000
3100
0000
2000
0000
3001
1000
,
0100
0010
0002
0000
0100
0000
1003
0000
,
0102
0000
1003
0100
1000
0000
2002
0000
,
0000
0000
3003
0000
0010
0001
0010
1000
,
0010
0000
0101
0000
0101
0000
0100
0001
,
0100
1000
0100
0000
0011
0000
0011
0000
,
0001
0010
1000
0010
0001
0000
1000
0100
,
0010
0001
0100
0000
0001
0010
0100
0010
,
0100
1000
0010
1000
0001
1000
0100
0000
,
0010
0100
0001
0100
0010
0000
1100
0000
,
1100
0000
0100
1000
0010
1000
0100
0000
,
1001
0000
1001
0000
0010
1000
0100
0001
,
0100
0000
1000
0010
0001
0010
0100
0000
,
1000
0001
0010
0001
0100
0010
1000
0100
,
0010
0100
0010
0001
0100
0001
0010
0100
,
1000
1010
0101
0011
,
0010
0001
0100
0010
1000
0000
1100
0000
,
1001
0000
0110
0000
0100
0001
1000
0100
,
0010
0110
0011
0101
,
0100
0010
1000
0100
0001
0000
0011
0000
,
1100
0000
0101
0000
1000
0001
0010
0001
,
1000
1100
0110
0011
,
0100
0010
1000
0100
1000
0000
0101
0000
,
1100
0000
0011
0000
0100
0010
0001
0010
,
1000
0101
0110
1001
,
1000
0100
0010
0001
0100
0000
0110
0000
,
1010
0000
1100
0000
1002
0000
0103
0010
,
1000
0100
0010
0001
0100
0010
1000
0000
,
0010
1000
0100
1000
0010
0000
0100
0001
,
0010
0001
0100
0000
0201
0000
0301
1000
,
0100
0010
0200
0000
1300
0010
0001
0010
,
1000
0100
1000
0100
0010
0000
0001
0100
,
0001
0100
0010
0000
1000
0100
1000
0100
,
0010
0001
0100
0001
0100
0001
1000
0010
,
1000
0100
0010
0001
0010
0100
2000
0000
,
0010
0000
3010
0000
1000
0001
0010
0100
,
0010
0100
1000
0010
0001
0010
0100
0001
,
0100
1000
0010
0100
0010
1000
0200
0000
,
0010
0000
1300
0000
0001
0010
0100
1000
,
0010
0100
0001
1000
0001
0000
1001
0000
,
1000
0010
1000
0100
0010
0001
0100
0010
,
0100
0000
0110
0000
0001
1000
0001
0100
,
0010
0000
1000
0100
0010
0100
1000
0000
,
0001
0100
0010
1000
0100
0010
0002
0000
,
1000
0000
0103
0010
1000
0100
0001
0100
,
1000
0100
0010
0100
1000
0010
0100
0001
,
0100
1000
0100
0001
0010
0100
2000
0000
,
0001
3100
2010
0001
,
3100
0012
1000
0103
,
0000
0000
0000
0020
0000
0000
0000
0000
,
0000
0000
0000
0000
,
0000
0000
0000
0000
0000
0030
0000
0000
,
0010
0000
0000
1000
0001
1000
0001
0000
0000
0000
0000
0000
,
0000
0000
0000
0000
0000
0000
1000
0000
0000
0010
0100
0010
,
0100
0000
0000
0000
,
0001
0000
0000
1000
0100
1000
0100
0000
0000
1100
0000
0000
,
0011
0101
1010
0110
,
1001
1100
0101
0110
,
2002
0000
0000
0000
,
3003
0000
0000
0000
0000
0000
0000
0000
1000
0001
1000
0000
1000
0000
0100
0000
,
0100
0010
0010
0001
0001
0100
0100
0010
,
0010
1000
1000
0001
0001
1000
0010
1010
,
0000
0000
0101
0000
,
0000
0000
1001
2002
0000
0000
0000
0000
,
0000
0000
0000
0000
,
3003
0000
0000
0000
;

//---------------dance-single - ----------------
#NOTEDATA:;
#CHARTNAME:;
#CHARTHASH:0:
#STEPSTYPE:dance-single;
#BANNER:;
#DESCRIPTION:;
#CHARTSTYLE:;
#DIFFICULTY:Medium;
#METER:10;
#METERF:0.000000;
#RADARVALUES:0.559528,0.732801,0.589610,0.515909,0.000000,372.000000,316.000000,56.000000,49.000000,0.000000,0.000000,0.000000,0.000000,0.000000,0.559528,0.732801,0.589610,0.515909,0.000000,372.000000,316.000000,56.000000,49.000000,0.000000,0.000000,0.000000,0.000000,0.000000;
#CREDIT:;
#DISPLAYBPM:101.000000:236.000000;
#NOTES:
0000
0000
0000
0000
,
0000
0000
0000
0000
,
0000
0000
0000
0000
1000
0001
1000
0001
,
0010
0010
0010
0001
,
0001
0001
1000
1000
,
1000
0100
0100
0100
,
1000
0001
0100
0001
,
1000
0000
0100
0000
1000
0000
0010
0100
,
0010
0000
0101
0101
,
0000
0000
0001
1000
0001
0000
0000
0000
,
1100
1100
2002
3003
,
0010
1000
0001
0010
,
0200
0000
1300
0002
,
0000
1003
0220
0330
,
0001
1000
0001
0000
0010
0000
0100
0000
,
1000
0001
1000
0010
,
0100
0001
0022
0033
,
1000
0010
0100
0001
,
0020
0000
0031
0200
,
0000
0310
2020
3030
,
1000
0100
2000
0000
0000
0000
3001
0000
,
0202
0000
0303
0000
0010
1000
0020
0000
,
0000
0000
0130
0000
0220
0000
0330
0001
,
0100
0001
0200
0000
0000
0000
0310
0000
,
1000
0000
0001
0010
0001
0000
2002
0000
,
0000
0000
3003
0000
1000
0010
0000
0010
,
0000
0000
1010
0000
1010
0000
0001
0010
,
0000
0010
0000
0000
0011
0000
0011
0000
,
1000
0001
0000
1000
0001
0000
0000
0000
,
0100
0010
1000
0001
,
1000
0100
0010
0001
,
1000
0100
0000
0100
0000
0000
1100
0000
,
1100
0000
0001
0100
0000
0100
0000
0000
,
0101
0000
0101
0000
0100
0010
0000
0100
,
0010
0000
1000
0100
,
1000
0010
0100
0001
,
0010
0000
0100
0000
1000
0001
0000
1000
,
0000
0010
0100
0001
,
0010
0100
0000
0010
0000
0000
0001
0000
,
1000
0000
0100
0000
1000
0001
0000
0001
,
0100
0110
0110
0110
,
0001
0010
0000
0010
0100
0000
1100
0000
,
1100
0000
1100
0000
1000
0100
0000
0100
,
0010
0011
0011
0011
,
0001
1000
0000
1000
0010
0000
1010
0000
,
1010
0000
1010
0000
1000
0001
0000
0010
,
0100
1100
0110
0011
,
0100
0001
0000
1000
0010
0000
1001
0000
,
1010
1100
1001
0010
,
0100
0001
0010
1000
,
0100
0010
0001
0202
,
0303
1000
2010
0001
,
3100
0012
1000
0103
,
2001
0010
3100
2000
,
3020
0000
0130
0001
0100
0000
0010
1000
,
0001
0000
0010
0000
0001
0100
0001
0000
,
1000
0000
0100
0010
0001
0000
1000
0000
,
0001
1000
0100
0000
0010
0000
0001
0000
,
0100
0010
1000
0100
,
1000
0000
0010
0000
0100
0001
0020
0000
,
0000
0030
0101
0100
,
1000
0010
0100
0001
,
0010
0001
0100
0000
0010
1000
0002
0000
,
0000
0103
0210
0010
,
0301
2100
0001
3100
,
1010
0000
1000
0001
0010
0001
2000
0000
,
0000
0000
3100
0010
0001
0000
1000
0010
,
1000
0000
0100
0000
0010
0001
0010
0000
,
0001
0000
0100
0000
0010
1000
0002
0000
,
0000
0000
0013
0001
2000
0000
0100
0000
,
3100
0002
0010
0013
,
0000
0000
0000
0200
0000
0000
0000
0000
,
0000
0000
0000
0000
,
0000
0000
0000
0000
,
0310
0101
1100
0000
,
0000
0000
1000
0011
,
1010
0000
0000
0000
,
0010
0110
1001
2000
,
3200
0320
0032
2003
,
3002
0203
0320
2030
,
3002
0000
0000
0000
,
0003
0000
0000
0000
0000
1001
0000
0010
,
0000
1000
0000
0100
0000
0010
0000
0001
,
0000
1000
0100
0010
0001
0100
0010
0110
,
0000
0000
0101
0000
,
0000
2002
0000
0000
,
0000
0000
0000
0000
,
3003
0000
0000
0000
;

//---------------dance-single - ----------------
#NOTEDATA:;
#CHARTNAME:;
#CHARTHASH:0:
#STEPSTYPE:dance-single;
#BANNER:;
#DESCRIPTION:;
#CHARTSTYLE:;
#DIFFICULTY:Easy;
#METER:7;
#METERF:0.000000;
#RADARVALUES:0.383547,0.458001,0.115816,0.136874,0.000000,255.000000,244.000000,11.000000,13.000000,0.000000,0.000000,0.000000,0.000000,0.000000,0.383547,0.458001,0.115816,0.136874,0.000000,255.000000,244.000000,11.000000,13.000000,0.000000,0.000000,0.000000,0.000000,0.000000;
#CREDIT:;
#DISPLAYBPM:101.000000:236.000000;
#NOTES:
0000
0000
0000
0000
,
0000
0000
0000
0000
,
0000
0000
1000
0001
,
1001
0000
0000
0100
,
0000
0000
0010
0000
,
0000
1000
0000
0000
,
0001
0000
0000
0100
,
0000
0000
0010
1000
,
0001
0000
0100
0010
,
0000
1000
0100
0000
,
0010
0001
1001
0000
,
0010
1000
0000
0100
,
0010
0000
0001
1000
,
0000
0100
1000
0000
,
0010
0100
0000
0001
,
0010
0001
0100
0010
,
1000
0100
0110
0000
,
0001
0010
0000
0001
,
1000
0000
0100
0010
,
0000
0001
1000
0000
,
0010
1000
0000
0001
,
0010
0000
0001
0100
,
0000
1000
0001
0000
,
0010
0001
0000
0100
,
0001
0010
0100
0220
,
0000
0330
2000
0000
,
3000
0010
0100
0002
,
0000
0003
0010
0100
,
1000
0001
0100
0000
,
0010
0010
1000
0100
,
0001
1000
0010
0001
,
0200
0000
0300
0001
,
1000
0020
0000
0030
,
1000
0001
0010
0001
,
0100
0000
0001
0001
,
1000
0010
0001
1000
,
0100
0001
0010
0000
,
0001
1000
1000
1000
,
0010
0000
0100
0001
,
0000
0000
1000
0000
,
0100
0010
0010
0010
,
0001
0000
1000
0001
,
0000
0000
1000
0000
,
0010
0100
0100
0100
,
0001
0000
0010
0100
,
0100
0100
0010
0000
,
0001
1000
1000
1000
,
0010
0000
1000
0001
,
0001
0001
1001
0000
,
0100
0001
0010
0001
,
1000
0010
1000
0100
,
0000
1000
0001
0100
,
0001
1000
0100
0010
,
0001
1000
0010
0100
,
0001
1000
0100
0010
,
0001
0010
0001
0100
,
0010
1000
0001
1000
,
0100
0010
0010
0001
,
0010
0001
0100
0010
,
1000
0001
1000
2002
,
0000
3003
0110
0000
,
0001
1000
0010
0100
,
0010
1000
0100
0001
,
0000
1000
0001
0100
,
0010
1000
0100
0010
,
0001
1000
0001
0010
,
0000
0100
1000
0010
,
0100
0010
1000
0100
,
1000
0001
0010
0100
,
1000
0001
1000
0010
,
0100
0001
0010
0100
,
0000
0000
0000
2000
0000
0000
0000
0000
,
0000
0000
0000
0000
,
0000
0000
0000
0000
,
3001
0001
0001
0000
,
0000
0000
1000
1000
,
1000
0000
0000
0000
,
0010
0010
0010
0100
,
0100
0100
0001
0010
,
1000
0001
0100
1000
,
0220
0000
0000
0000
,
0330
0000
0000
0000
0000
1000
0000
0001
,
0000
1000
0000
0010
0000
0100
0000
0001
,
0000
0010
0000
0001
0000
0100
0000
1001
,
0000
0000
0110
0000
,
0000
2002
0000
0000
,
0000
0000
0000
0000
,
3003
0000
0000
0000
;

//---------------dance-single - ----------------
#NOTEDATA:;
#CHARTNAME:;
#CHARTHASH:0:
#STEPSTYPE:dance-single;
#BANNER:;
#DESCRIPTION:;
#CHARTSTYLE:;
#DIFFICULTY:Beginner;
#METER:5;
#METERF:0.000000;
#RADARVALUES:0.201550,0.320601,0.084230,0.136874,0.000000,134.000000,126.000000,8.000000,13.000000,0.000000,0.000000,0.000000,0.000000,0.000000,0.201550,0.320601,0.084230,0.136874,0.000000,134.000000,126.000000,8.000000,13.000000,0.000000,0.000000,0.000000,0.000000,0.000000;
#CREDIT:;
#DISPLAYBPM:101.000000:236.000000;
#NOTES:
// measure 0
0000
0000
0000
0000
,  // measure 1
0000
0000
0000
0000
,  // measure 2
0000
0000
1000
1000
,  // measure 3
2000
0000
0000
0000
,  // measure 4
0000
0000
0000
0000
,  // measure 5
0000
0000
0000
0000
,  // measure 6
3000
0000
0000
0000
,  // measure 7
0000
0000
0000
0001
,  // measure 8
0000
0000
0100
0000
,  // measure 9
0000
0010
0000
0000
,  // measure 10
1000
0000
1001
0000
,  // measure 11
0000
0001
0000
0000
,  // measure 12
1000
0000
0000
0100
,  // measure 13
0000
0000
1000
0000
,  // measure 14
0000
0010
0000
0000
,  // measure 15
0100
0000
0000
0001
,  // measure 16
0000
0000
0010
0000
,  // measure 17
0000
0001
0000
0000
,  // measure 18
0100
0000
0000
0010
,  // measure 19
0000
0000
1000
0000
,  // measure 20
0000
0100
0000
0000
,  // measure 21
0010
0000
0000
0100
,  // measure 22
0000
0000
0010
0000
,  // measure 23
0000
0001
0000
0000
,  // measure 24
2002
0000
0000
3003
,  // measure 25
0000
0000
0010
0000
,  // measure 26
0000
0100
0100
0100
,  // measure 27
0000
0000
0001
0001
,  // measure 28
0001
0000
1000
0000
,  // measure 29
0010
0000
1000
0000
,  // measure 30
0000
0001
0000
0000
,  // measure 31
0100
0000
0000
0010
,  // measure 32
0010
0010
0000
0000
,  // measure 33
1000
1000
1000
0000
,  // measure 34
0100
0000
0010
0000
,  // measure 35
0001
0000
0000
1000
,  // measure 36
0000
0000
0010
0000
,  // measure 37
0000
1000
1000
1000
,  // measure 38
2000
0000
0000
3000
,  // measure 39
0000
0000
0001
0000
,  // measure 40
0000
0010
0010
0010
,  // measure 41
0020
0000
0000
0030
,  // measure 42
0000
0000
0100
0000
,  // measure 43
0000
0010
0000
0000
,  // measure 44
0001
0000
0000
1000
,  // measure 45
0000
0000
0001
0000
,  // measure 46
0000
0100
0000
0000
,  // measure 47
0010
0000
0000
1000
,  // measure 48
0000
0000
1001
0000
,  // measure 49
0000
0001
0001
0001
,  // measure 50
0001
0000
0000
1000
,  // measure 51
0000
0000
0010
0000
,  // measure 52
0000
0010
0000
0000
,  // measure 53
1000
0000
0000
0001
,  // measure 54
0000
0000
0100
0000
,  // measure 55
0000
0010
0000
0000
,  // measure 56
0100
0100
0100
0100
,  // measure 57
0100
0100
0100
0000
,  // measure 58
0000
0001
0000
0000
,  // measure 59
1000
1000
1000
1000
,  // measure 60
0000
0000
1001
0000
,  // measure 61
0000
0010
0000
0000
,  // measure 62
0001
0001
0001
0001
,  // measure 63
0000
0000
0100
0000
,  // measure 64
0000
0010
0000
0000
,  // measure 65
1000
0000
0000
0100
,  // measure 66
0000
0000
1000
1000
,  // measure 67
1000
1000
1000
1000
,  // measure 68
1000
0000
0000
0010
,  // measure 69
0000
0000
0100
0000
,  // measure 70
0000
0001
0000
0000
,  // measure 71
0000
0000
0000
0220
0000
0000
0000
0000
,  // measure 72
0000
0000
0000
0000
,  // measure 73
0330
0000
0000
0000
,  // measure 74
2000
0000
3000
0000
,  // measure 75
0000
0000
0002
0000
,  // measure 76
0003
0000
0000
0000
,  // measure 77
1000
0000
0000
0010
,  // measure 78
0000
0000
0100
0000
,  // measure 79
0000
0001
0000
0000
,  // measure 80
2002
0000
0000
0000
,  // measure 81
3003
0000
0000
0000
0000
0010
0000
0000
,  // measure 82
0000
0000
0000
1000
0000
0000
0000
0000
,  // measure 83
0000
0001
0000
0001
0000
0001
0000
0001
,  // measure 84
0000
0000
0110
0000
,  // measure 85
0000
2002
0000
0000
,  // measure 86
0000
0000
0000
0000
,  // measure 87
3003
0000
0000
0000
;
