#TITLE:fffff;
#SUBTITLE:;
#ARTIST:Five Hammer;
#TITLETRANSLIT:;
#SUBTITLETRANSLIT:;
#ARTISTTRANSLIT:;
#GENRE:;
#CREDIT:;
#BANNER:fffff-bn.png;
#BACKGROUND:fffff-bg.png;
#LYRICSPATH:;
#CDTITLE:;
#MUSIC:fffff.ogg;
#OFFSET:0.000000;
#SAMPLESTART:33.912998;
#SAMPLELENGTH:20.000000;
#SELECTABLE:YES;
#DISPLAYBPM:138.000000;
#BPMS:0.000000=138.000000
;
#STOPS:
;
#BGCHANGES:;
#KEYSOUNDS:;
#ATTACKS:;

//---------------dance-single - ----------------
#NOTES:
     dance-single:
     :
     Hard:
     13:
     0.689068,0.714332,0.352446,0.040280,0.805591,479.000000,444.000000,35.000000,4.000000,0.000000,0.000000,0.689068,0.714332,0.352446,0.040280,0.805591,479.000000,444.000000,35.000000,4.000000,0.000000,0.000000:
0000
0000
0000
0000
,
0000
0000
0000
0000
,
0000
0000
0000
0000
,
0000
0000
0000
0000
,
1000
0100
0010
0001
0100
0010
1000
0001
,
0010
0001
0100
0001
1000
0100
0010
0100
,
0010
0100
1000
0010
1000
0001
1000
0100
,
0010
0001
0100
0010
1000
0100
1000
0001
,
0010
0100
1000
0010
1000
0100
0010
0001
,
0100
0001
0010
0001
1000
0100
1000
0010
,
0100
0001
1000
0100
1000
0010
0100
0001
,
1000
1000
1000
0100
0010
0010
0010
0000
,
0010
0001
0000
0000
0001
0100
0000
0000
0100
0010
0000
0000
0010
1000
0000
0000
,
1000
0001
0000
0000
0001
0100
0000
0000
0100
0010
0000
0000
0010
1000
0000
0000
,
1000
0001
0000
0000
0001
0010
0000
0000
0010
0001
0000
0000
0001
0100
0000
0000
,
0100
0010
0000
0000
0010
1000
0000
0000
1000
0100
0000
0000
0100
0010
0000
0000
,
0010
0100
0000
0000
0001
1000
0000
0000
0100
0010
0000
0000
0001
1000
0000
0000
,
0010
1000
0000
0000
0100
0010
0000
0000
0100
0010
0000
0000
0001
1000
0000
0000
,
0010
1000
0000
0000
0100
1000
0000
0000
0001
0010
0000
0000
0001
0100
0000
0000
,
0010
0000
0100
0000
0010
0000
0100
0000
0110
0000
0000
0101
0000
0000
1001
0000
,
1100
0000
1000
0000
0001
0000
0000
0000
0100
0010
0000
1000
0000
0010
0100
0000
,
0001
0000
0101
0000
1000
0000
1100
0000
0010
0100
0010
0100
0000
0000
0000
0000
,
0000
0000
0100
0000
0100
0000
0100
0000
0101
0000
0000
1010
0000
0000
1100
0000
,
1000
0000
0000
0000
0001
0000
0000
0000
1000
0000
0000
0000
0001
0000
0000
0000
1000
0000
0000
0000
0001
0000
0000
0000
0010
0000
0000
0000
0000
0000
0000
0000
0000
0011
0000
0000
0000
0000
0000
0000
0000
0000
1100
0000
0000
0000
0000
0000
,
0000
0000
1001
0000
1001
0000
0001
0000
0100
0010
0000
1000
0000
0100
0010
0000
,
0001
0000
0011
0000
1000
0000
1010
0000
0010
0100
0010
0100
0000
0000
0000
0000
,
0000
0000
0001
0000
0001
0000
0001
0000
0011
0000
0000
0101
0000
0000
1010
0000
,
0010
0000
0000
0000
0100
0000
0000
0000
0010
0000
0000
0000
0100
0000
0000
0000
0010
0000
0000
0000
0100
0000
0000
0000
0000
0000
0000
0000
0000
0000
0101
0000
0000
0000
0000
0000
0000
0000
0000
1100
0000
0000
0000
0000
0000
0000
0000
0000
,
0001
0000
0001
0000
1000
0000
1000
0000
0010
0000
1000
0100
0000
1000
0100
0000
,
0010
0000
0001
0100
0000
0001
0100
0000
0010
0000
0100
0010
0000
0100
0010
0000
,
1000
0000
1000
0000
0100
0000
0100
0000
0010
0000
0001
1000
0000
0001
1000
0000
,
0100
0000
1000
0010
0000
1000
0010
0000
0100
0000
0001
0010
0000
0001
0010
0000
,
0001
0000
0001
0000
0010
0000
0010
0000
0001
0000
1000
0100
0000
1000
0100
0000
,
1000
0000
0010
0100
0000
0010
0100
0000
0001
0000
1000
0010
0000
1000
0010
0000
,
0100
0000
0100
0000
0010
0000
0010
0000
0100
0000
0001
1000
0000
0001
1000
0000
,
0010
0000
1000
0100
0000
1000
0100
0000
0010
0000
0000
0000
0102
0000
0000
0000
,
1003
0000
1001
0000
0010
0000
0100
0000
0001
1000
0000
0001
0000
0000
0000
0000
,
0000
0000
0100
0010
0100
0010
0000
1000
0000
0001
0000
0101
0000
0110
0000
0000
,
0000
0000
0010
1000
0010
1000
0000
0001
0000
0100
0000
0110
0000
1010
0000
0010
,
1000
0100
0000
0010
0000
0001
0000
2000
0000
0000
0000
0000
3000
0000
0000
0000
,
0010
0100
0010
0100
0010
0100
0010
0100
0010
0100
0010
0100
,
0001
0100
0001
0100
0001
0100
0001
0100
0001
0100
0001
0100
,
0001
0000
1000
0000
0001
0000
1000
0000
0001
0000
1000
0000
0001
0000
1000
0000
0001
0000
0100
0000
0000
0100
0000
0000
,
0110
1010
0101
1100
,
0010
1000
0000
0010
0100
0000
0010
1000
0000
0010
0100
0000
0001
1000
0001
0000
,
0010
0001
0000
0100
0001
0000
0010
0001
0000
0100
0001
0000
1000
0100
0010
0000
,
0001
0100
0001
1000
0100
1000
0001
0010
0001
1000
0010
1000
,
0001
0010
0100
1000
0100
0010
0001
1000
0100
0000
0000
0000
,
1000
0100
0000
1000
0001
0000
1000
0100
0000
1000
0001
0000
0100
0010
0100
0000
,
0001
0100
0000
0010
0100
0000
0001
0100
0000
0010
0100
0000
0001
1000
0001
0000
,
0000
0000
0000
0000
1000
0001
0100
0000
0000
0000
0000
0000
0010
0000
0010
0000
,
1010
1001
0110
0101
,
0010
1000
0010
1000
0001
0100
0001
0100
,
0001
0010
0001
0010
0100
1000
0100
1000
,
0010
1000
0000
0010
1000
0000
0100
0000
0010
0001
0000
0100
0001
0000
1000
0000
,
0010
0100
0010
0000
1000
0001
1000
0000
0001
1000
0001
1000
0010
0100
0010
0100
,
0000
0000
0000
0000
0000
0000
0220
0000
0000
0300
0000
0000
1030
0000
0000
0000
;

//---------------dance-single - ----------------
#NOTES:
     dance-single:
     :
     Medium:
     10:
     0.522195,0.514319,0.402795,0.040280,0.146013,363.000000,323.000000,40.000000,4.000000,0.000000,0.000000,0.522195,0.514319,0.402795,0.040280,0.146013,363.000000,323.000000,40.000000,4.000000,0.000000,0.000000:
0000
0000
0000
0000
,
0000
0000
0000
0000
,
0000
0000
0000
0000
,
0000
0000
0000
0000
,
1000
0001
0010
0000
0001
0100
0010
0000
,
1000
0100
0010
0000
0001
1000
0100
0000
,
1000
0010
0100
0000
0010
1000
0001
0000
,
0010
0001
0100
0010
1000
0001
0100
0000
,
0010
1000
0001
0000
1000
0100
0010
0000
,
0100
1000
0001
0000
0010
0001
0100
0000
,
0001
0010
1000
0000
0100
0010
0001
0000
,
1000
0001
1000
0010
0100
0001
1000
0000
,
0100
1000
0000
0000
1100
0000
0000
0000
0001
0010
0000
0000
0011
0000
0000
0000
,
0100
0010
0000
0000
0110
0000
0000
0000
1000
0001
0000
0000
1001
0000
0000
0000
,
0001
0100
0000
0000
0101
0000
0000
0000
0010
1000
0000
0000
1010
0000
0000
0000
,
1000
0001
1000
0100
0010
0001
0100
0000
,
0001
1000
0000
0000
0110
0000
0000
0000
0100
0010
0000
0000
1001
0000
0000
0000
,
1000
0100
0000
0000
0011
0000
0000
0000
0010
0001
0000
0000
1100
0000
0000
0000
,
0010
1000
0000
0000
0101
0000
0000
0000
0001
0100
0000
0000
1010
0000
0000
0000
,
1000
0000
0001
0000
1000
0000
0001
0000
0100
0000
0000
0100
0000
0000
0100
0000
,
0110
0000
0000
0000
1001
0000
0000
0000
1000
0000
0000
0100
0000
0000
0010
0000
,
0001
0100
0001
1000
0010
0100
0001
0000
,
0000
0000
0010
0000
0001
0000
0100
0000
1000
0000
0000
0001
0000
0000
1000
0000
,
0010
0000
0100
0000
0010
0000
0100
0000
0001
0000
0000
1000
0000
0000
0001
0000
,
0000
0000
1000
0000
1000
0000
0010
0000
0100
0000
0000
0001
0000
0000
0010
0000
,
0001
0000
0100
0000
0001
0000
1000
0000
0010
0000
0000
0010
0000
0000
0000
0000
,
0000
0000
1000
0000
0001
0000
0010
0000
0001
0000
0000
1000
0000
0000
0100
0000
,
1000
0000
0001
0000
1000
0000
0001
0000
0000
0000
0010
0000
0000
0010
0000
0000
,
0001
0000
0100
0000
0001
0000
0100
0000
0010
0000
0000
0010
0000
0000
0010
0000
,
0000
1100
0000
0101
0000
1100
0000
0101
,
1000
0000
0001
0000
1000
0000
0001
0000
0100
0000
0000
0100
0000
0000
0100
0000
,
0000
1010
0000
0011
0000
1010
0000
0011
,
0010
0000
0100
0000
0010
0000
0100
0000
1000
0000
0000
1000
0000
0000
1000
0000
,
0000
1001
0000
0110
0000
1001
0000
0110
,
0100
0000
0001
0000
0100
0000
0001
0000
1000
0000
0000
1000
0000
0000
1000
0000
,
0010
0000
0000
1000
0000
0000
0001
0000
0100
0000
0000
0000
0220
0000
0000
0000
,
0330
0010
0010
1000
0001
0100
1000
0000
,
0000
0001
0010
0001
0100
0010
1000
0001
,
0000
1000
0100
1000
0010
0100
0001
1000
,
0010
0100
0010
1000
0001
0100
0000
0000
,
0001
0010
0001
0010
0001
0010
0001
0000
,
1000
0010
1000
0010
1000
0010
1000
0000
,
0100
0010
0100
0010
0100
0010
0100
0100
,
1100
0011
0101
1010
,
0000
1000
0001
1000
0010
0100
0001
0010
,
0100
0000
0000
1000
0000
0000
1001
0000
0000
0000
0000
0000
0001
0100
0001
0000
,
0010
0100
0010
0100
0010
0001
1000
0001
,
1000
0010
1000
0100
0010
0001
0100
0000
,
1010
0000
0000
0001
1000
0010
1000
0100
,
0010
0001
0100
0001
1000
1100
0000
0000
,
0000
0000
0000
0000
0001
1000
0001
0000
0000
0000
0000
0000
0010
0000
0010
0000
,
0011
0101
1010
1100
,
1000
0001
0100
0000
0001
0010
0100
0000
,
1000
0010
0001
0000
1000
0100
0010
0000
,
0001
0100
0010
0000
1000
0001
1000
0000
,
0100
0010
0001
0100
0001
1000
0010
0100
,
0000
0000
0000
0000
0000
0000
0000
0000
0000
0000
0000
0000
0220
0000
0000
0000
0000
0000
0000
0330
0000
0000
0000
0000
1001
0000
0000
0000
0000
0000
0000
0000
;

//---------------dance-single - ----------------
#NOTES:
     dance-single:
     :
     Easy:
     7:
     0.343815,0.400026,0.362516,0.080559,0.000000,239.000000,203.000000,36.000000,8.000000,0.000000,0.000000,0.343815,0.400026,0.362516,0.080559,0.000000,239.000000,203.000000,36.000000,8.000000,0.000000,0.000000:
0000
0000
0000
0000
,
0000
0000
0000
0000
,
0000
0000
0000
0000
,
0000
0000
0000
0000
,
1000
0010
1000
0001
,
0010
0100
0010
0001
,
0100
0010
1000
0001
,
1000
0100
0010
0001
,
0100
0001
0010
0100
,
1000
0010
1000
0100
,
0001
0010
0100
1000
,
0010
0100
0010
1000
,
0001
0011
1000
1010
,
0010
0110
0100
0101
,
0001
1001
1000
1010
,
1000
1100
0010
0100
,
0010
1001
1000
1100
,
0010
0101
0001
0011
,
0100
0110
0001
0011
,
1000
1010
0010
0010
,
1001
0110
1000
0100
,
0010
0001
0100
0010
,
0000
1000
0100
0001
,
0020
0230
1000
0310
,
0001
1100
0010
0100
,
0101
1010
0001
1000
,
0000
0110
0010
1000
,
0002
0203
1000
0310
,
0100
0010
0100
0100
,
0001
0001
1000
1000
,
0010
1000
0100
0100
,
0010
0010
0001
0001
,
1000
0001
0010
0010
,
0001
0001
0100
0100
,
1000
0010
1000
1000
,
0100
0010
0001
0110
,
0100
0010
1000
0001
,
0000
0010
0100
1000
,
0000
0001
1000
0010
,
1000
0100
0001
0000
,
2000
0010
0100
3001
,
0020
0001
1000
0130
,
0002
0010
1000
0103
,
0101
0101
1100
1100
,
1000
0001
1000
0010
,
0100
0001
0010
0100
,
1000
0010
1000
0001
,
0010
0100
1000
0000
,
0011
0000
0001
0100
,
1000
0010
1000
0001
,
0100
1010
0010
1000
,
1100
1100
0101
0101
,
1000
0010
1000
0100
,
0010
0001
1000
0001
,
0010
0011
0100
0110
,
0001
1001
1000
1010
,
0000
0000
0000
0102
0000
0000
0103
0000
;

//---------------dance-single - ----------------
#NOTES:
     dance-single:
     :
     Beginner:
     3:
     0.176942,0.285733,0.231607,0.070489,0.000000,123.000000,100.000000,23.000000,7.000000,0.000000,0.000000,0.176942,0.285733,0.231607,0.070489,0.000000,123.000000,100.000000,23.000000,7.000000,0.000000,0.000000:
// measure 0
0000
0000
0000
0000
,  // measure 1
0000
0000
0000
0000
,  // measure 2
0000
0000
0000
0000
,  // measure 3
0000
0000
0000
0000
,  // measure 4
1000
0000
0001
0000
,  // measure 5
0010
0000
0001
0000
,  // measure 6
0100
0000
0010
0000
,  // measure 7
1000
0000
0001
0000
,  // measure 8
0010
0000
0100
0000
,  // measure 9
1000
0000
0010
0000
,  // measure 10
1000
0000
0001
0000
,  // measure 11
0100
0000
0010
0000
,  // measure 12
0000
1001
0000
1001
,  // measure 13
0000
0110
0000
0110
,  // measure 14
0000
1001
0000
0110
,  // measure 15
0000
1001
0000
0000
,  // measure 16
0000
0110
0000
0110
,  // measure 17
0000
1001
0000
1001
,  // measure 18
0000
0110
0000
1001
,  // measure 19
0000
0000
0110
0000
,  // measure 20
1001
0000
0001
0000
,  // measure 21
0100
0000
0010
0000
,  // measure 22
0000
0000
1000
0000
,  // measure 23
0220
0000
0330
0000
,  // measure 24
0001
0000
0010
0000
,  // measure 25
0001
0000
0100
0000
,  // measure 26
0000
0000
1000
0000
,  // measure 27
2002
0000
3003
0000
,  // measure 28
0010
0010
0010
0000
,  // measure 29
1000
0000
0001
0000
,  // measure 30
0100
0100
0100
0000
,  // measure 31
0001
0000
1000
0000
,  // measure 32
0001
0001
0001
0000
,  // measure 33
0010
0000
0100
0000
,  // measure 34
1000
1000
1000
0000
,  // measure 35
0010
0000
0000
0110
,  // measure 36
0000
0001
0001
0000
,  // measure 37
0000
0100
0100
0000
,  // measure 38
0000
0010
0010
0000
,  // measure 39
1000
0000
0001
0000
,  // measure 40
0020
0000
0030
0000
,  // measure 41
0200
0000
0300
0000
,  // measure 42
2000
0000
3000
0000
,  // measure 43
1001
0000
1001
0000
,  // measure 44
0010
0000
0010
0000
,  // measure 45
1000
0000
0001
0000
,  // measure 46
0010
0000
0100
0000
,  // measure 47
1000
1000
1000
0000
,  // measure 48
0000
0000
0001
0000
,  // measure 49
0100
0100
0100
0000
,  // measure 50
0000
0010
0000
0000
,  // measure 51
0110
0000
0110
0000
,  // measure 52
1000
0000
1000
0000
,  // measure 53
0001
0000
0001
0000
,  // measure 54
0010
0000
0001
0000
,  // measure 55
0100
0000
1000
0000
,  // measure 56
0000
0000
0000
0110
;
