#TITLE:examination leave;
#ARTIST:dj razzle dazzle;
#BANNER:examination leave-bn.png;
#BACKGROUND:examination leave-bg.png;
#JACKET:examination leave-jacket.png;
#MUSIC:examination leave.ogg;
#SAMPLESTART:0;
#SAMPLELENGTH:20;
#DISPLAYBPM:180;
#BPMS:0=180;
#BGCHANGES:;

//---------------dance-single - ----------------
#NOTES:
     dance-single:
     :
     Beginner:
     7:
     :
0000
0000
0000
0000
,
0000
0000
0000
0000
,
0000
0000
0000
0000
,
0000
0000
0000
0000
,
1000
0000
1000
0000
0000
1000
0000
0000
,
0001
0000
0001
0000
0000
0001
0000
0000
,
0100
0010
0100
0010
,
1000
0001
0100
0100
,
0001
0000
0010
0000
,
0100
0000
1000
0000
,
0010
0010
0010
0010
,
0010
1000
0001
0000
,
0100
0000
0100
0000
0000
0100
0000
0000
,
0010
0000
0010
0000
0000
0010
0000
0000
,
1000
0001
1000
0001
,
0100
0010
1000
1000
,
0010
0000
0010
0000
0000
0100
0000
0000
,
0001
0000
0001
0000
0000
1000
0000
0000
,
0001
0010
0001
0010
,
0100
1000
0010
0010
,
0220
0000
0330
0001
,
2002
0000
3003
0100
,
0220
0000
0330
0010
,
1000
1000
0001
1000
,
2002
0000
3003
0010
,
0220
0000
0330
1000
,
2002
0000
3003
0100
,
0001
0001
1000
0001
,
0010
0010
0010
0001
,
0000
0100
0000
1000
,
0000
0010
1000
0001
,
0000
0010
0100
0100
,
1000
1000
1000
0010
,
0000
0100
0000
0001
,
0000
0010
0001
0100
,
0000
1000
1000
0010
,
1001
0000
0010
0010
,
0110
0000
0100
0100
,
0001
0000
0000
1000
0000
0000
0001
0000
,
1000
1000
1000
1000
,
0010
0000
0100
0000
,
0001
0000
1000
0000
,
0010
0000
0000
0100
0000
0000
0010
0000
,
2000
0000
0000
3000
,
0010
0001
0100
1000
,
1001
0000
0010
0100
,
0001
0010
1000
0100
,
0010
0010
0001
0100
,
0110
0000
0001
0000
,
1000
0001
1000
0100
,
0000
0010
0010
0010
,
0000
0001
1000
0001
,
1000
0000
1000
0000
0000
1000
0000
0000
,
0010
0000
0010
0000
0000
0010
0000
0000
,
1000
0100
1000
0001
,
1000
0010
0100
0001
,
0100
0000
0100
0000
0000
0100
0000
0000
,
0001
0000
0001
0000
0000
0001
0000
0000
,
1000
0001
0010
0001
,
0100
0010
1000
1000
,
0001
0000
1000
0000
0000
0010
0000
0000
,
1000
0000
0001
0000
0000
0100
0000
0000
,
0010
0100
0010
1000
,
0100
0010
0001
0001
,
0010
0000
0100
0000
0000
1000
0000
0000
,
0010
0000
0100
0000
0000
0001
0000
0000
,
0010
0001
1000
0001
,
1000
0010
0100
0100
,
0220
0000
0330
0010
,
2002
0000
3003
1000
,
0220
0000
0330
0100
,
0001
0010
0100
0100
,
2002
0000
3003
1000
,
0220
0000
0330
0001
,
2002
0000
3003
0010
,
1000
0001
0100
0100
,
0001
1000
0100
0100
,
1000
0010
0100
0001
,
2002
0000
0000
3003
,
0000
0220
0000
0000
0000
0000
0000
0000
0000
0000
0000
0000
0000
0330
0000
0000
,
0000
0002
0000
0000
0000
0000
0000
0000
,
0000
0000
0000
0000
0000
0000
0000
0003
;

//---------------dance-single - ----------------
#NOTES:
     dance-single:
     :
     Easy:
     10:
     :
0000
0000
0000
0000
,
0000
0000
0000
0000
,
0000
0000
0000
0000
,
0000
0000
0000
0000
,
1000
1000
1000
0000
0000
0202
0303
0000
,
0001
0001
0001
0000
0000
2200
3300
0000
,
0010
0000
0010
0000
0010
0000
1000
0001
,
0000
0001
0100
0000
0020
0000
2030
0000
,
3002
0000
0000
0000
0003
0000
0000
1000
0020
0000
0000
0000
0030
0000
0000
0100
,
0002
0000
0000
0000
0003
0000
0000
0010
0200
0000
0000
0000
0300
0000
0000
1000
,
0001
0001
1000
0001
,
0100
0000
0002
0000
2003
0002
3003
0000
,
0100
0100
0100
0000
0000
0022
0033
0000
,
0010
0010
0010
0000
0000
2002
3003
0000
,
0100
0000
0100
0000
0100
0000
0001
1000
,
0000
1000
0100
0000
0020
0000
0032
0000
,
0103
0100
0100
0000
0000
2020
3030
0000
,
0001
0001
0001
0000
0000
0220
0330
0000
,
0001
0000
0001
0000
0001
0000
1000
0100
,
0000
0100
0020
0000
0032
0000
1003
0000
,
2100
0001
3100
1001
,
1002
0000
0010
0000
0103
0000
0001
1000
,
0200
0001
1300
0110
,
0001
1000
0100
0000
1100
0000
0101
0000
,
2100
0001
3100
0110
,
0210
0000
1000
0000
0310
0000
0001
1000
,
0200
0001
0310
0011
,
1000
0001
0100
0000
0101
0000
1100
0000
,
0002
0000
2003
0000
3020
0000
1030
0200
,
0000
0310
0000
0001
0000
0100
0000
0001
,
0000
1000
0001
0000
0100
0000
0100
0000
,
0000
0001
1000
0000
0010
0010
0010
0000
,
2000
0000
3002
0000
0023
0000
0031
0200
,
0000
0310
0000
1000
0000
0100
0000
1000
,
0000
0001
0010
0000
0001
0000
0100
0010
,
0000
0010
1000
0000
0001
0100
0001
0000
,
0011
0000
1100
0000
0001
0100
1000
0000
,
1010
0000
0101
0000
1000
0010
0001
0000
,
0100
0010
0000
0100
0010
0000
1001
0000
,
0002
0203
2300
3200
,
0301
0010
0100
0000
1100
0000
0101
0000
,
1000
0001
0100
0000
0010
1000
0100
0000
,
2002
3003
0000
0220
0330
0000
1001
0000
,
0002
2000
0000
0000
0000
0000
3003
0000
,
0010
0000
1010
0000
0001
0100
1000
0100
,
0002
0000
2003
0000
3010
1000
0010
0000
,
0100
0000
0101
0000
1000
0010
0001
0010
,
1000
1100
0001
0101
,
0020
0000
0030
0000
0001
1000
0100
0000
,
1000
0010
0100
0001
,
0000
2000
0001
0000
0100
0000
3100
0000
,
0000
0001
1000
0001
0100
0000
0100
0000
,
0010
0010
0010
0000
0000
2020
3030
0000
,
0100
0100
0100
0000
0000
2002
3003
0000
,
0001
0000
1000
0000
0001
0000
0100
0010
,
0000
0010
2000
0000
3200
0000
0320
0000
,
0031
0001
0001
0000
0000
2200
3300
0000
,
1000
1000
1000
0000
0000
0220
0330
0000
,
0010
0000
0100
0000
0010
0000
1000
0001
,
0000
0001
2000
0000
3200
0000
0310
0000
,
0011
0011
0011
0000
0000
2200
3300
0000
,
1010
1010
1010
0000
0000
0202
0303
0000
,
0010
0000
1000
0000
0100
0000
0010
0001
,
0000
1000
0002
0000
0203
0000
0310
0000
,
1010
1010
1010
0000
0000
2200
3300
0000
,
0011
0011
0011
0000
0000
0202
0303
0000
,
0001
0000
0010
0000
0100
0000
1000
0001
,
0000
1000
0020
0000
0230
0000
0301
0000
,
0021
1000
0130
0110
,
0120
0000
0001
0000
0130
0000
1000
0010
,
0200
1000
0310
0101
,
1000
0100
0001
0000
0011
0000
1100
0000
,
0012
1000
0103
1001
,
2001
0000
0001
0000
3010
0000
1000
0001
,
0020
1000
0031
0101
,
1000
0010
0100
0000
0110
0000
0110
0000
,
0001
0010
0100
0000
1001
0000
1001
0000
,
1000
0100
0001
0000
0001
0100
1000
0000
,
2020
0000
0000
0000
0000
0000
0000
0000
0000
0000
0000
0000
0000
0030
0000
0000
,
0000
0002
0000
0000
0000
0000
0000
0000
0000
0000
0000
0000
0000
0000
3003
0000
,
0000
0022
0000
0000
0000
0000
0000
0000
,
0000
0000
0000
0000
0000
0000
0000
0033
;

//---------------dance-single - ----------------
#NOTES:
     dance-single:
     :
     Medium:
     13:
     :
0000
0000
0000
0000
,
0000
0000
0000
0000
,
0000
0000
0000
0000
,
0000
0000
0000
0000
,
1100
1100
1100
0000
0001
0202
0303
0000
,
0011
0011
0011
0000
1000
2020
3030
0000
,
0001
0100
1000
0100
0001
0010
0100
2000
,
0000
0001
3002
0000
0023
0000
0230
0000
,
2300
0000
0000
0000
3000
0000
0000
0010
0200
0000
0000
0000
0300
0000
0000
0001
,
0020
0000
0000
0000
0030
0000
0000
0001
2000
0000
0000
0000
3000
0000
0000
0010
,
1000
0000
0000
1000
0001
0000
0000
0001
1000
0000
0010
0000
0100
0000
0001
0000
,
0010
0000
1002
0000
0103
0220
0330
0000
,
1010
1010
1010
0000
0100
2200
3300
0000
,
0101
0101
0101
0000
0001
0022
0033
0000
,
0010
0001
0010
1000
0010
0001
0010
0200
,
0000
0001
0302
0000
0203
0000
1300
0000
,
1001
1001
1001
0000
0010
2020
3030
0000
,
0110
0110
0110
0000
0001
2002
3003
0000
,
0010
0001
0010
0100
1000
0100
0001
2000
,
0000
0010
3020
0000
0230
0000
0301
0000
,
0012
0000
1003
0001
0100
0000
0110
0000
,
1020
0000
0130
0001
1000
0000
0010
0100
,
0210
0000
0000
0000
1300
0000
0100
0000
0001
0000
0000
0010
0001
0000
1000
0000
,
0010
0100
0010
0100
1001
0000
1001
0000
,
2100
0000
3010
0100
0001
0000
0011
0000
,
1020
0000
0031
0010
0100
0000
0010
1000
,
1200
0000
0000
0000
0310
0000
0001
0000
0100
0000
0000
0001
1000
0000
0100
0000
,
1000
0001
1000
0001
0020
0000
0230
0000
,
1300
0001
0020
0000
1030
0010
0001
0200
,
0000
0310
1000
2000
0000
3001
0100
0010
,
0000
1000
1000
0001
1000
0010
0100
0001
,
0000
0000
0001
0000
0010
0000
0001
0000
1000
0000
1000
0000
1000
0000
0000
0010
,
0100
0001
2000
0000
3001
1000
0010
0200
,
0000
1300
0100
0002
0000
0013
0010
0100
,
0000
1000
1000
0001
0010
1000
0010
0100
,
1000
1000
1000
0001
0100
0010
0010
1000
,
1020
0000
0031
0010
1000
0001
0100
1000
,
0201
0000
1300
0100
0001
1000
0010
0001
,
0100
0010
0000
0010
1000
0100
1000
0001
,
0011
0000
1100
0000
0001
0100
0110
0000
,
1000
0010
0001
0010
1000
0100
0001
0100
,
1000
0010
0001
0010
1000
0100
0010
0001
,
0202
0000
0300
2003
0000
0001
3100
0000
,
1100
1100
0001
1000
0010
0001
0010
1000
,
0100
0010
0001
0100
0001
0010
0100
1000
,
0020
0100
0230
0000
0301
1000
0001
0100
,
0010
0100
1000
0100
0001
1000
0001
0100
,
0001
0000
0000
0001
1000
0000
0000
1000
0001
0000
0100
0000
0010
0000
1000
0000
,
2020
0000
3030
0001
1000
0010
1000
0001
,
0100
1000
0100
0001
0100
1000
0100
0001
,
0010
0001
0001
0001
0001
0100
1001
0000
,
1000
0001
0001
0100
1010
0000
0101
0000
,
0011
0011
0011
0000
0100
0220
0330
0000
,
1010
1010
1010
0000
1000
2200
3300
0000
,
0010
0100
0010
0001
0010
1000
0100
0020
,
0000
1000
2030
0000
3020
0000
0130
0000
,
0011
0011
0011
0000
1000
2200
3300
0000
,
1001
1001
1001
0000
0010
2020
3030
0000
,
0100
0001
0010
1000
0010
0001
0100
0020
,
0000
0100
0230
0000
0320
0000
1030
0000
,
1100
1100
1100
0000
1000
0202
0303
0000
,
1001
1001
1001
0000
1000
0022
0033
0000
,
0100
0010
0001
0010
0100
1000
0100
0002
,
0000
1000
2003
0000
3200
0000
0310
0000
,
0110
0110
0110
0000
0001
2200
3300
0000
,
0101
0101
0101
0000
0010
2002
3003
0000
,
0100
1000
0100
0010
1000
0010
0001
0200
,
0000
1000
2300
0000
3200
0000
0301
0000
,
2001
0000
0000
0000
3100
0000
0010
0000
0001
0000
0000
0100
0010
0000
0000
0000
,
2010
0000
0000
0000
3001
0000
0100
0000
1000
0000
0000
0010
1000
0000
0100
0000
,
0210
0000
0000
0000
0301
0000
0100
0000
0010
0000
0000
0001
1000
0000
0000
1000
,
0010
0100
0010
0100
1001
0000
1001
0000
,
0012
0000
0000
0000
1003
0000
0001
0000
0010
0000
0000
0001
0100
0000
0000
0000
,
2010
0000
0000
0000
3100
0000
1000
0000
0001
0000
0000
1000
0001
0000
0100
0000
,
0210
0000
0000
0000
0310
0000
1000
0000
0001
0000
0000
0010
0001
0000
0000
1000
,
0100
0010
0100
0010
1001
0000
1001
0000
,
0010
0100
0010
0100
1001
0000
1001
0000
,
0001
1000
0001
1000
0010
0100
0010
0100
,
2020
0000
0000
0030
,
0000
0002
0000
0000
0000
0000
0000
0000
0000
0000
0000
0000
0000
3003
0000
0000
,
0000
0022
0000
0000
0000
0000
0000
0000
,
0000
0000
0000
0033
;

//---------------dance-single - ----------------
#NOTES:
     dance-single:
     :
     Hard:
     17:
     :
0000
0000
0000
0000
,
0000
0000
0000
0000
,
0000
0000
0000
0000
,
0000
0000
0000
0000
,
1100
0000
1100
0000
1100
0000
0001
0100
0001
0000
0022
0000
0033
0000
0000
0000
,
0101
0000
0101
0000
0101
0000
0010
1000
0010
0000
2020
0000
3030
0000
0000
0000
,
1001
0001
0011
0010
0110
0100
1000
2200
,
0300
0001
3002
0000
0023
0000
0230
0000
,
1300
0000
0010
0000
0100
0000
0001
0010
0200
0000
0000
0000
1300
0000
0010
0100
,
0002
0000
0000
0000
0013
0000
0100
1000
0002
0000
0000
0000
0103
0000
0010
1000
,
0100
0000
0010
0001
0010
0100
0010
0001
0100
1000
0100
0010
0100
1000
0100
0001
,
0010
0000
1001
0000
1010
0202
0303
0000
,
0011
0000
0011
0000
0011
0000
0100
0001
1000
0000
2020
0000
3030
0000
0000
0000
,
1100
0000
1100
0000
1100
0000
0010
0100
0001
0000
0202
0000
0303
0000
0000
0000
,
0011
0010
0110
0100
1100
1000
0001
0202
,
0300
1000
2003
0000
3020
0000
0130
0000
,
0110
0000
0110
0000
0110
0000
0001
0010
1000
0000
2200
0000
3300
0000
0000
0000
,
0101
0000
0101
0000
0101
0000
0010
1000
0100
0000
0220
0000
0330
0000
0000
0000
,
0011
1000
1010
0010
0110
0100
0001
2002
,
3000
0010
0023
0000
0230
0000
1300
0000
,
2010
0000
0000
0000
0010
0000
0100
0000
3001
0000
0010
0100
1000
0000
0000
0000
,
0102
0000
0000
0000
0010
0000
1000
0000
0103
0000
0010
1000
0001
0000
1000
0000
,
1200
0000
0000
0000
0001
0000
1000
0000
0310
0000
0100
1000
0010
0000
0100
0001
,
0010
0100
0010
0100
1000
0010
1000
0010
0100
1000
0100
1000
0100
0001
0010
0100
,
2000
0000
0000
0000
0001
0000
0010
0000
3100
0000
0010
0001
1000
0000
0000
0000
,
0120
0000
0000
0000
1000
0000
0100
0000
0031
0000
0010
1000
0001
0000
0100
0000
,
1002
0000
0000
0000
0100
0000
0010
0000
1003
0000
0100
0010
0001
0000
1000
0100
,
0010
1000
0010
1000
0010
0100
0010
0100
1000
0001
1000
0001
0010
0001
0010
0100
,
1000
0010
0001
0010
0100
0010
0001
0020
,
0000
1000
1030
0100
0010
1000
0010
0001
,
0000
0100
0100
0010
0010
1000
0001
0010
,
0000
0000
0100
0000
0100
0000
1000
0000
0001
0000
0001
0000
0001
0000
0100
0010
,
1000
0100
0001
0100
0010
0100
1000
0002
,
0000
0103
0101
0101
0000
1000
1100
1100
,
0000
0010
0010
0010
1010
1000
0001
0021
,
0000
0000
0100
0000
0130
0000
0001
0000
0100
0000
1000
0010
1000
0000
0001
0000
,
1002
0000
0000
0000
0013
1000
0100
1000
0010
0000
0100
0000
0001
0000
1000
0000
,
2100
0000
0000
0000
3010
0001
0100
0001
0010
0000
0100
0000
1000
0000
0001
0000
,
0200
0001
0310
0200
1000
0310
0110
1001
,
0010
0010
0100
0100
1000
0001
1000
0001
,
0011
0001
0100
1000
0100
0001
1010
1000
,
0100
0000
0001
0000
0100
0000
1000
0000
0010
0000
0100
0001
1000
0000
0100
0000
,
1000
0000
0010
0000
0100
0000
1000
0000
0100
0000
0001
0010
0100
0000
1000
0000
,
0010
0000
0100
0000
0001
0000
1000
0000
0010
0100
0001
1000
0010
0100
0001
1000
,
0100
0000
1000
0010
1000
0000
0100
0000
0001
0010
0001
0000
0100
0000
1000
0010
,
2000
0000
0100
0000
3100
0000
1000
0001
0010
0100
0010
0100
0010
0001
1000
0010
,
0100
0000
0001
0010
0001
0000
0100
0000
1000
0010
1000
0000
0001
0010
0100
1000
,
0010
0100
0010
0100
0001
0010
0001
0010
0100
1000
0100
1000
0001
1000
0001
1000
,
0020
0000
0000
0000
0030
0000
1000
0001
1000
0100
0010
0100
0001
0100
1000
0010
,
0100
0001
0010
0001
0100
0001
0010
0001
1000
0100
1000
0010
1000
0100
1000
0010
,
0000
0000
1010
0000
1010
0000
0001
0100
0001
0000
1000
0100
2000
0000
0000
0000
,
3000
0000
0101
0000
0101
0000
1000
0100
1000
0000
0001
0100
0001
0000
0000
0000
,
0011
0000
0011
0000
0011
0000
1000
0001
0100
0000
2020
0000
3030
0000
0000
0000
,
1100
0000
1100
0000
1100
0000
0010
1000
0001
0000
0202
0000
0303
0000
0000
0000
,
1001
0100
1010
0001
0011
1000
0010
0220
,
0030
0001
0302
0000
2003
0000
3100
0000
,
1001
0000
1001
0000
1001
0000
0100
1000
0001
0000
0022
0000
0033
0000
0000
0000
,
0110
0000
0110
0000
0110
0000
1000
0001
0100
0000
0220
0000
0330
0000
0000
0000
,
1010
1000
1100
0100
0110
0010
0001
2002
,
0003
0100
3200
0000
0320
0000
0031
0000
,
0011
0000
0110
0000
1100
0000
1000
0001
0100
0000
0202
0000
0303
0000
0000
0000
,
1100
0000
1001
0000
0101
0000
0010
1000
0100
0000
0220
0000
0330
0000
0000
0000
,
0011
0010
1001
1000
1100
0001
0100
0220
,
0300
0100
0230
0000
0302
0000
1003
0000
,
1010
0000
0110
0000
0101
0000
0010
0001
1000
0000
2200
0000
3300
0000
0000
0000
,
0011
0000
1001
0000
1010
0000
0100
0010
1000
0000
2200
0000
3300
0000
0000
0000
,
0011
0010
1001
0100
0110
0001
1000
2200
,
0300
0010
3020
0000
2030
0000
3100
0000
,
0021
0000
0000
0000
0100
0000
0001
0000
1030
0000
0010
0001
0100
0000
0000
0000
,
2010
0000
0000
0000
0001
0000
0100
0000
3010
0000
0100
1000
0001
0000
1000
0000
,
0210
0000
0000
0000
0010
0000
1000
0000
0301
0000
1000
0100
0010
0000
0001
0000
,
0100
0010
0100
0010
1000
0100
0010
0001
2000
0000
0000
0000
3001
0000
0000
0000
,
0102
0000
0000
0000
1000
0000
0100
0000
0013
0000
0001
0100
1000
0000
0000
0000
,
1020
0000
0000
0000
0001
0000
0100
0000
1030
0000
0100
1000
0010
0000
0100
0000
,
0102
0000
0000
0000
0010
0000
1000
0000
0103
0000
0001
0010
0100
0000
1000
0000
,
0010
0100
0010
1000
0100
0010
0100
1000
0002
0000
0000
0000
0203
0000
0000
0000
,
0301
0010
0100
0010
0001
0100
0010
0100
2000
0000
0000
0000
3200
0000
0000
0000
,
0301
0001
1000
1000
0010
0010
0100
0100
,
2020
0000
0000
0000
0000
0000
0000
0030
,
0000
0002
0000
0000
0000
0000
0000
0000
0000
0000
0000
0000
0000
0000
3003
0000
,
0000
0022
0000
0000
0000
0000
0000
0000
,
0000
0000
0000
0033
;
