#TITLE:ever snow;
#SUBTITLE:;
#ARTIST:TЁЯRA;
#TITLETRANSLIT:;
#SUBTITLETRANSLIT:;
#ARTISTTRANSLIT:;
#GENRE:;
#CREDIT:;
#BANNER:ever snow.png;
#BACKGROUND:ever snow-bg.png;
#LYRICSPATH:;
#CDTITLE:;
#MUSIC:ever snow.ogg;
#OFFSET:0.000000;
#SAMPLESTART:55.660000;
#SAMPLELENGTH:20.000000;
#SELECTABLE:YES;
#DISPLAYBPM:145.000000;
#BPMS:0.000000=144.399994
,4.000000=145.000000
;
#STOPS:
;
#BGCHANGES:;
#KEYSOUNDS:;
#ATTACKS:;

//---------------dance-single - ----------------
#NOTES:
     dance-single:
     :
     Beginner:
     2:
     0.126424,0.175730,0.000000,0.000000,0.000000,105.000000,105.000000,0.000000,0.000000,0.000000,0.000000,0.126424,0.175730,0.000000,0.000000,0.000000,105.000000,105.000000,0.000000,0.000000,0.000000,0.000000:
0000
0000
0000
0000
,
0000
0000
0000
0000
,
0000
0000
0000
0000
,
0010
0000
0010
0000
,
0010
0000
0000
0000
,
1000
0000
0000
0000
,
1000
0000
0000
0000
,
0001
0000
0000
0000
,
0001
0000
0000
0000
,
0100
0100
0100
0000
,
0010
0000
0000
0000
,
1000
0000
0000
0000
,
0100
0000
0000
0000
,
0001
0000
0000
0000
,
0001
0000
0000
0000
,
1000
0000
0000
0000
,
0010
0000
0000
0000
,
0100
0000
0000
0000
,
0100
0000
0000
0000
,
0010
0000
0000
0000
,
0001
0000
0000
0000
,
1000
0000
0000
0000
,
0001
0000
0000
0000
,
1000
0000
0000
0000
,
0100
0000
0000
0000
,
0010
0000
0000
0000
,
0000
0001
0000
1000
,
0000
0100
0000
0010
,
0000
0001
0000
0100
,
0000
1000
0000
0010
,
0010
0000
0000
0000
,
0100
0000
0000
0000
,
0001
0000
0001
0000
,
1000
0000
0000
0000
,
0100
0000
0000
0000
,
0000
0000
0000
0000
,
0001
0000
0000
0000
,
1000
0000
0000
0000
,
0000
0001
0000
1000
,
0000
0001
0000
0100
,
0000
0010
0000
0100
,
0000
0100
0000
0100
,
0000
0010
0000
0010
,
0000
0010
0000
0010
,
0000
0100
0000
0100
,
0000
1000
1000
1000
,
0000
0010
0000
0010
,
0000
0100
0000
0100
,
0000
0001
0000
1000
,
0000
0001
0000
1000
,
0000
0001
0000
0001
,
0000
1000
0000
1000
,
0000
0010
0000
0100
,
0000
0001
0000
1000
,
0000
1000
0000
0001
,
0000
1000
0000
0100
,
0000
0010
0000
0100
,
0000
0100
0000
0100
,
0000
0010
0000
0010
,
0000
0010
0000
0010
,
0000
0100
0000
0100
,
0000
0001
0001
0001
,
0000
0010
0000
0010
,
0000
0100
0000
0100
,
0000
1000
0000
0001
,
0000
1000
0000
0001
,
0000
0000
0000
0000
,
1000
0000
0001
0001
,
0000
0000
0000
0000
,
0001
0000
1000
0000
,
0000
0000
0000
0000
;

//---------------dance-single - ----------------
#NOTES:
     dance-single:
     :
     Easy:
     4:
     0.184218,0.264543,0.101140,0.058998,0.000000,153.000000,141.000000,12.000000,7.000000,0.000000,0.000000,0.184218,0.264543,0.101140,0.058998,0.000000,153.000000,141.000000,12.000000,7.000000,0.000000,0.000000:
0000
0000
0000
0000
,
0000
0000
0000
0000
,
0000
0000
0000
0000
,
0020
0000
0000
0000
,
0000
0000
0000
0030
,
1000
0000
0001
0000
,
1000
0001
0100
0000
,
0001
0000
1000
0000
,
0001
1000
0100
0000
,
0000
0000
0000
0000
,
1000
0100
0010
0001
,
0000
1000
0000
0001
,
0000
0110
0000
1001
,
0000
0100
0010
0000
,
0001
0010
0100
1000
,
0000
0001
0000
1000
,
0000
0110
0000
1001
,
0000
0001
1000
0000
,
0100
0000
0000
0000
,
0010
0000
0000
0000
,
0001
0000
0000
0000
,
1000
0001
0100
0000
,
0001
0000
0000
0000
,
1000
0000
0000
0000
,
0100
0000
0000
0000
,
0010
0100
1000
0000
,
0000
0001
0000
1000
,
0000
0100
0000
0010
,
0000
0001
1000
0100
,
0000
1000
0001
0010
,
0000
0010
0000
0010
,
0000
0100
0000
0100
,
0000
1000
0001
1000
,
0020
0000
0000
0030
,
0200
0000
0000
0000
,
0000
0000
0000
0300
,
0002
0000
0000
0003
,
2000
0000
0000
3000
,
0000
0001
0000
1000
,
0000
0001
1000
0100
,
0000
0010
0000
0100
,
0000
0100
1001
0100
,
1001
0000
0000
0010
,
1001
0000
0000
0010
,
1001
0000
0001
1000
,
0001
0000
0000
1000
,
1000
0000
0000
0001
,
0001
0000
0000
0010
,
0010
0000
0000
0100
,
0100
0000
1000
1000
,
0001
0010
0000
0100
,
1000
0010
0000
0100
,
0001
0001
1000
1000
,
0001
1000
0001
0000
,
0000
1000
0000
0001
,
0000
1000
0001
0100
,
0000
0010
0000
0100
,
0000
0100
1001
0100
,
1001
0000
0000
0010
,
1001
0000
0000
0010
,
1001
0000
1000
0001
,
1000
0000
0000
0001
,
0001
0000
0000
1000
,
1000
0000
0000
0010
,
0010
0000
0000
0100
,
0100
0000
0001
0001
,
0002
0000
0000
0003
,
1000
0000
0001
0001
,
2000
0000
0000
3000
,
0001
0000
1000
0100
,
0000
0000
0000
0000
;

//---------------dance-single - ----------------
#NOTES:
     dance-single:
     :
     Medium:
     8:
     0.387701,0.471142,0.269705,0.058998,0.105354,322.000000,290.000000,32.000000,7.000000,0.000000,0.000000,0.387701,0.471142,0.269705,0.058998,0.105354,322.000000,290.000000,32.000000,7.000000,0.000000,0.000000:
0000
0000
0000
0000
,
0000
0000
0000
0000
,
0000
0000
0000
0000
,
0020
0000
0000
0000
,
0000
0000
0000
0130
,
1000
0100
0001
0100
,
1000
0100
0001
0100
,
1000
0000
0100
0000
1000
0001
0100
0000
,
0001
0000
0100
0000
0001
1000
0100
0000
,
2002
0000
0000
3003
,
1000
0000
0000
0001
0000
0000
0100
0000
0000
0000
0000
0000
0100
0000
0000
0000
,
0001
0010
0100
1000
,
0110
0001
0110
1000
,
0001
0000
0100
0000
0001
1000
0100
0000
,
0001
0000
0000
1000
0000
0000
0100
0000
0000
0000
0000
0000
0100
0000
0000
0000
,
1000
0010
0100
0001
,
0110
1000
0110
0001
,
1000
0000
0100
0000
1000
0100
0001
0000
,
1000
0000
0000
1000
0000
0000
1000
0000
0000
0000
0000
0000
0100
0000
0000
0000
,
0001
0000
0000
0001
0000
0000
0001
0000
0000
0000
0000
0000
0100
0000
0000
0000
,
0010
0000
0000
0010
0000
0000
0010
0000
0000
0000
0000
0000
1000
0000
0000
0000
,
0100
0000
0000
0100
0000
0000
0100
0000
0000
0000
0000
0000
0010
0000
0000
0000
,
0001
0000
0000
1000
0000
0000
0001
0000
0000
0000
0000
0000
0001
0000
0000
0000
,
0001
0000
0000
1000
0000
0000
0001
0000
0000
0000
0000
0000
0001
0000
0000
0000
,
1000
0000
0000
0001
0000
0000
1000
0000
0000
0000
0000
0000
1000
0000
0000
0000
,
1000
0000
0000
0001
0000
0000
1000
0000
0100
0000
0000
0000
0010
0000
0000
0000
,
0010
0000
0100
0000
0010
0001
0100
0000
,
0010
0000
0100
0000
0001
1000
0100
0000
,
0001
0010
1000
0100
,
0110
1001
0110
1001
,
0100
0000
0010
0000
0100
0001
0010
0000
,
0010
0000
0100
0000
0010
0001
0100
0000
,
0010
0000
0100
0000
0100
0010
1000
0000
,
0010
0000
0000
0100
0000
0000
0001
0000
0000
0000
0000
0000
0000
0000
0000
0000
,
2002
0000
0000
0000
,
0000
0000
0000
3003
,
0020
0000
0200
0030
,
0000
0000
0300
0000
1000
0100
0010
0001
,
1000
0000
0001
0000
1000
0001
0100
0000
,
0010
0000
0100
0000
0010
1000
0100
0000
,
1000
0010
0001
0100
,
1000
0110
1001
0110
,
1001
0000
0100
0000
0001
1000
0100
0000
,
1001
0000
0100
0000
1000
0001
0100
0000
,
1000
0100
0001
0100
,
0100
0000
0000
0001
0000
0000
1000
0000
0010
0000
0000
0000
0101
0000
0000
0000
,
0010
0000
0000
1000
0000
0000
0010
0000
0100
0000
0000
0000
1001
0000
0000
0000
,
0100
0000
0000
0010
0000
0000
0100
0000
1000
0000
0000
0000
1001
0000
0000
0000
,
0010
0000
0000
1000
0000
0000
0100
0000
0010
0000
0001
0000
0100
0000
1000
0000
,
0100
1001
0110
1001
,
0010
0000
0000
0001
0000
0000
0100
0000
0010
0000
0000
0000
1000
0000
0000
0000
,
0100
0000
0000
1000
0000
0000
0010
0000
0100
0000
0000
0000
0001
0000
0000
0000
,
1000
0001
0100
0000
0010
1000
0001
0000
,
0010
0001
0100
0010
1000
0100
1000
0000
,
0001
0000
1000
0000
0001
1000
0100
0000
,
0010
0000
0100
0000
0010
0001
0100
0000
,
0001
0010
1000
0100
,
0001
0110
1001
0110
,
1001
0000
0100
0000
1000
0001
0100
0000
,
1001
0000
0100
0000
0001
1000
0100
0000
,
0001
0100
1000
0100
,
0100
0000
0000
1000
0000
0000
0001
0000
0010
0000
0000
0000
1100
0000
0000
0000
,
0010
0000
0000
0001
0000
0000
0010
0000
0100
0000
0000
0000
1001
0000
0000
0000
,
0100
0000
0000
0010
0000
0000
0100
0000
0001
0000
0000
0000
1001
0000
0000
0000
,
0010
0000
0000
0001
0000
0000
0100
0000
0010
0000
1000
0000
0100
0000
0001
0000
,
0100
1001
0110
1001
,
0100
0000
0000
0100
0000
0000
0100
0000
0000
0000
0000
0000
0010
0000
0000
0000
,
0100
0000
0000
0100
0000
0000
0100
0000
1000
0000
0000
0000
0100
0000
0000
0000
,
0010
0000
0000
0010
0000
0000
0010
0000
0000
0000
0000
0000
0100
0000
0000
0000
,
0010
0000
0000
0100
0000
0000
1000
0000
0001
0000
0100
0000
1000
0000
0001
0000
,
0000
0000
0000
0000
;

//---------------dance-single - ----------------
#NOTES:
     dance-single:
     :
     Hard:
     12:
     0.585164,0.559481,0.328703,0.058998,0.227564,486.000000,447.000000,39.000000,7.000000,0.000000,0.000000,0.585164,0.559481,0.328703,0.058998,0.227564,486.000000,447.000000,39.000000,7.000000,0.000000,0.000000:
0000
0000
0000
0000
,
0000
0000
0000
0000
,
0000
0000
0000
0000
,
0020
1000
0000
1000
,
0100
0000
0100
0000
0030
1000
0001
0000
,
1000
0000
0000
0001
0000
0000
0100
0000
0010
0000
0000
1000
0000
0000
0001
0000
,
0010
0000
0000
0100
0000
0000
1000
0000
0001
0000
0000
0100
0000
0000
0010
0000
,
0100
0000
0000
0100
0000
0000
1000
0000
0100
0000
0000
0100
0000
0000
0001
0000
,
0100
0000
0000
0010
0000
0000
0100
0000
0001
0000
1000
0000
0100
0000
0010
0000
,
0001
0000
1000
0000
0100
0000
1000
0010
1000
0010
0000
0100
0000
0001
1000
0000
,
0001
0000
0000
0100
0000
0000
0010
0000
0000
0000
1000
0000
0100
0000
0010
0000
,
0001
1000
0001
0100
0010
0100
0010
1000
,
0100
0010
0001
0100
0010
1000
0001
0010
,
1000
0010
0001
0100
1000
0100
0001
1000
,
0010
0000
0000
1000
0000
0000
0001
0000
0000
0000
1000
0000
0001
0000
1000
0000
,
0010
1000
0010
0100
0010
0100
0001
0100
,
0001
1000
0001
1000
0100
0010
0001
1000
,
0100
0010
0001
0100
0010
1000
0001
1000
,
0010
0000
0000
1000
0000
0000
0100
0000
0000
0010
0000
0000
0001
0000
0100
0000
,
0010
0000
0000
0100
0000
0000
1000
0000
0000
0100
0000
0000
0010
0000
1000
0000
,
0100
0000
0000
0010
0000
0000
0001
0000
0000
1000
0000
0000
0001
0000
0100
0000
,
0010
0000
0000
1000
0000
0000
0001
0000
0000
1000
0000
0000
0010
0000
0100
0000
,
1000
0000
0000
0100
0000
0000
0010
0000
0000
1000
0000
0000
0100
0000
0001
0000
,
0100
0000
0000
0010
0000
0000
0001
0000
0000
1000
0000
0000
0100
0000
0001
0000
,
0100
0000
0000
0010
0000
0000
0100
0000
0000
1000
0000
0000
0001
0000
0100
0000
,
0010
0000
0000
1000
0000
0000
0100
0000
0010
0000
0001
0000
1000
0000
0100
0000
,
0010
0001
1100
0000
0010
0001
1100
0000
,
0010
1000
0101
0000
0010
1000
0101
0000
,
0010
1000
0100
0001
0100
1000
0010
0001
,
0010
1000
0100
0010
0001
0100
0010
0100
,
0010
0000
0000
1000
0000
0000
0100
0000
0001
0000
0100
0000
1000
0000
0100
0000
,
0010
0000
0000
0001
0000
0000
0100
0000
1000
0000
0100
0000
0001
0000
0100
0000
,
0010
0000
0000
0100
0000
0000
0001
0000
1000
0000
0010
0000
0100
0000
0001
0000
,
0110
0000
0000
1010
0000
0000
0101
0000
0000
0000
0000
0000
0000
0000
0000
0000
,
1002
0000
0000
1000
0000
0000
1000
0000
0000
0000
0000
0000
0003
0000
0000
0000
,
0120
0000
0000
0100
0000
0000
0100
0000
0000
0000
0000
0000
0030
0000
0000
0000
,
2001
0000
0000
0001
0000
0000
3001
0000
0210
0000
0000
0010
0000
0000
0310
0000
,
1000
0000
0001
0000
0100
0000
0001
0000
1000
0100
1000
0100
1000
0000
0001
0000
,
1000
0001
0100
0001
1000
0100
1000
0001
,
0100
0010
0100
0010
1000
0010
1000
0001
,
0010
0001
0010
0100
1000
0001
1000
0010
,
0100
1010
0110
1001
,
1001
0100
0010
0100
0001
1000
0100
0000
,
1001
0100
0010
1000
0001
1000
0100
0000
,
0110
1000
0101
0000
0110
0001
1100
0000
,
0010
0001
0100
0010
1000
0100
0001
0100
,
0010
0000
0000
0001
0000
0000
0100
0000
0010
0000
0100
0000
0001
0000
1000
0000
,
0010
0000
0000
1000
0000
0000
0100
0000
0010
0000
0100
0000
1000
0000
0001
0000
,
0010
0000
0000
0100
0000
0000
0010
0000
0001
0000
1000
0000
0001
0000
1000
0000
,
0001
0010
0100
1000
0001
0100
0010
1000
,
0001
0000
0000
0101
0000
0000
0010
0000
0000
0000
0001
0000
1000
0000
0010
0000
,
1000
0000
0000
1100
0000
0000
0010
0000
0000
0000
1000
0000
0001
0000
0010
0000
,
0120
0000
0000
0100
0000
0000
0130
0000
1002
0000
0000
1000
0000
0000
1003
0000
,
0001
0000
1000
0000
0100
0000
1000
0000
0001
0100
0001
0100
0001
0000
1000
0000
,
0001
1000
0100
1000
0001
0100
0001
1000
,
0100
0010
0100
0010
0001
0010
0001
1000
,
0010
1000
0010
0100
0001
1000
0001
0010
,
0100
0011
0110
1001
,
1001
0100
0010
0100
1000
0001
0100
0000
,
1001
0100
0010
0001
1000
0001
0100
0000
,
0110
0001
1100
0000
0110
1000
0101
0000
,
0010
1000
0100
0010
0001
0100
1000
0100
,
0010
0000
0000
1000
0000
0000
0100
0000
0010
0000
0100
0000
1000
0000
0001
0000
,
0010
0000
0000
0001
0000
0000
0100
0000
0010
0000
0100
0000
0001
0000
1000
0000
,
0010
0000
0000
0100
0000
0000
0010
0000
1000
0000
0001
0000
1000
0000
0001
0000
,
1000
0010
0100
0001
0000
0010
0100
0000
,
1001
0000
0000
1010
0000
0000
0101
0000
0000
0000
0010
0000
1000
0000
0100
0000
,
0010
0000
0000
0001
0000
0000
0100
0000
0001
0000
1000
0000
0001
0000
1000
0000
,
0110
0000
0000
0011
0000
0000
1100
0000
0000
0000
0001
0000
0010
0000
0100
0000
,
1000
0000
0000
0001
0000
0000
1000
0000
0010
0000
0100
0000
1000
0000
0001
0000
,
0000
0000
0000
0000
;

//---------------dance-double - ----------------
#NOTES:
     dance-double:
     :
     Easy:
     4:
     0.169770,0.205756,0.000000,0.050570,0.000000,141.000000,141.000000,0.000000,6.000000,0.000000,0.000000,0.169770,0.205756,0.000000,0.050570,0.000000,141.000000,141.000000,0.000000,6.000000,0.000000,0.000000:
00000000
00000000
00000000
00000000
,
00000000
00000000
00000000
00000000
,
00000000
00000000
00000000
00000000
,
00002000
00000000
00000000
00000000
,
00000000
00000000
00000000
00003000
,
00100000
00000000
01000000
00000000
,
10000000
00010000
01000000
00000000
,
00001000
00000000
00010000
00000000
,
00000010
00000100
00000001
00000000
,
00002000
00000000
00000000
00003000
,
00000000
00000001
00000000
00001000
,
00000000
00000010
00000000
00000100
,
00000000
00001000
00000000
00010000
,
00000000
01000000
00100000
00010000
,
00000000
10000000
00000000
00010000
,
00000000
00100000
00000000
01000000
,
00000000
00010000
00000000
00001000
,
00000000
00000100
00000010
00001000
,
00000001
00000001
00000000
00000000
,
00001000
00001000
00000000
00000000
,
00010000
00010000
00000000
00000000
,
10000000
10000000
00000000
00000000
,
00100000
01000000
00000000
00000000
,
00001000
00010000
00000000
00000000
,
00000010
00000100
00000000
00000000
,
00001000
00010000
00000000
00010000
,
00000000
00100000
00000000
10000000
,
00000000
00010000
01000000
00000000
,
00000000
00001000
00000000
00010000
,
00000000
00000010
00000100
00000000
,
00000000
00000001
00000000
00000100
,
00000000
00000010
00000000
00001000
,
00000000
00000100
00000000
00010000
,
00002000
00000000
00000000
00003000
,
00200000
00000000
00000000
00000000
,
00000000
00000000
00000000
00300000
,
02000000
00000000
00000000
03000000
,
00020000
00000000
00000000
00031000
,
00000000
00100000
00000000
01000000
,
00000000
00010000
00001000
00000000
,
00000000
00000010
00000000
00000100
,
00000000
00001000
00010000
00000000
,
00000000
00100000
00000000
01000000
,
00000000
10000000
00010000
00000000
,
00000000
00001000
00000000
00000001
,
00000010
00000100
00001000
00000000
,
00000000
00000010
00000000
00000100
,
00000000
00001000
00000000
00010000
,
00000000
01000000
00000000
00100000
,
00010000
10000000
01000000
00000000
,
00000000
00010000
00010000
00010000
,
00000000
00001000
00001000
00001000
,
00000000
00000010
00000001
00001000
,
00000000
00001000
00000001
00000100
,
00000000
00000010
00000000
00000100
,
00000000
00001000
00010000
00000000
,
00000000
00100000
00000000
01000000
,
00000000
00010000
00001000
00000000
,
00000000
00000010
00000000
00000100
,
00000000
00000001
00001000
00000000
,
00000000
00010000
00000000
10000000
,
00100000
01000000
00010000
00000000
,
00000000
00100000
00000000
01000000
,
00000000
00010000
00000000
00001000
,
00000000
00000100
00000000
00000010
,
00001000
00000001
00000100
00000000
,
00000000
00010000
00001000
00000100
,
00000000
00000010
00000000
00000100
,
00000000
00001000
00010000
00100000
,
00000000
01000000
00100000
01000000
,
00000000
00000000
00000000
00000000
;

//---------------dance-double - ----------------
#NOTES:
     dance-double:
     :
     Medium:
     8:
     0.338336,0.411511,0.084283,0.075855,0.084283,281.000000,271.000000,10.000000,9.000000,0.000000,0.000000,0.338336,0.411511,0.084283,0.075855,0.084283,281.000000,271.000000,10.000000,9.000000,0.000000,0.000000:
00000000
00000000
00000000
00000000
,
00000000
00000000
00000000
00000000
,
00000000
00000000
00000000
00000000
,
00000020
00000000
00000000
00000000
,
00000000
00000000
00000000
00010030
,
00000100
00001000
01000000
00010000
,
00000010
00001000
00100000
00010000
,
00000100
00000010
00000010
00001000
,
00010000
01000000
10000000
01010000
,
00202000
00000000
00000000
00303000
,
00010000
00000000
00000000
00000100
00000000
00000000
00000010
00000000
00000000
00000000
00000000
00000000
00000100
00000000
00000000
00000000
,
00000010
00000100
00000010
00001000
,
00010000
01000000
00100000
00010000
,
10000000
00000000
01000000
00000000
00010000
00001000
00000100
00000000
,
00000001
00000000
00000000
00001000
00000000
00000000
00000100
00000000
00000000
00000000
00000000
00000000
00000100
00000000
00000000
00000000
,
00000010
00000100
00000001
00000100
,
00000010
00001000
00000100
00001000
,
00010000
01000000
10000000
00010000
,
00100000
00000000
00000000
00010000
00000000
00000000
01000000
00000000
00000000
00000000
00000000
00000000
01000000
00000000
00000000
00000000
,
00100000
00000000
00000000
10000000
00000000
00000000
01000000
00000000
00000000
00000000
00000000
00000000
01000000
00000000
00000000
00000000
,
00010000
00000000
00000000
00001000
00000000
00000000
00000100
00000000
00000000
00000000
00000000
00000000
00000100
00000000
00000000
00000000
,
00000001
00001000
00000010
00000100
,
00000010
00000000
00000000
00001000
00000000
00000000
00000100
00000000
00000000
00000000
00000000
00000000
00000100
00000000
00000000
00000000
,
00000010
00000000
00000000
00000001
00000000
00000000
00000100
00000000
00000000
00000000
00000000
00000000
00000100
00000000
00000000
00000000
,
00000010
00000000
00000000
00000001
00000000
00000000
00000100
00000000
00000000
00000000
00000000
00000000
00000100
00000000
00000000
00000000
,
00001000
00000000
00000000
00010000
00000000
00000000
01000000
00000000
10000000
00000000
00000000
00000000
00100000
00000000
00000000
00000000
,
00100000
00000000
00010000
00000000
10000000
01000000
00010000
00000000
,
00001000
00000000
00000100
00000000
00000010
00001000
00000100
00000000
,
00000010
00000001
00001000
00000100
,
00010100
00011000
00101000
00110000
,
10000000
00000000
01000000
00000000
00100000
00010000
01000000
00000000
,
00100000
00000000
01000000
00000000
00100000
10000000
01000000
00000000
,
00010000
00000100
00001000
01000000
,
00100000
00000000
00000000
10000000
00000000
00000000
00010000
00000000
00000000
00000000
00000000
00000000
00000000
00000000
00000000
00000000
,
00200000
00000000
00000000
00000000
,
00000000
00000000
00000000
00000000
,
00320000
00000000
00000020
00030000
,
00002030
00000000
00003000
00001001
,
00000010
00000000
00000100
00000000
00000010
00000001
00000100
00000000
,
00000010
00000000
00000100
00000000
00001000
00010000
01000000
00000000
,
00100000
00000000
00010000
00000000
01000000
00010000
01000000
00000000
,
00001000
00000100
00000010
00000100
,
00000001
00000000
00001000
00000000
00000010
00000001
00000100
00000000
,
00000010
00000000
00000100
00000000
00001000
00010000
01000000
00000000
,
00100000
00000000
00010000
00000000
10000000
00000000
01000000
00010000
,
00001000
00000000
00000000
00000100
00000000
00000000
00000010
00000000
00001000
00000000
00000000
00000000
00000100
00000000
00000000
00000000
,
00000010
00000000
00000000
00000001
00000000
00000000
00000100
00000000
00001000
00000000
00000000
00000000
00010000
00000000
00000000
00000000
,
00100000
00000000
00000000
10000000
00000000
00000000
01000000
00000000
00010000
00000000
00000000
00000000
00001000
00000000
00000000
00000000
,
00100000
00000000
00000000
00010000
00000000
00000000
01000000
00000000
00100000
00000000
00000000
10000000
00000000
00000000
01000000
00000000
,
00010000
00001000
00000100
00000010
,
00001000
00000000
00000001
00000000
00000010
00000100
00001000
00000000
,
00000010
00000000
00010000
00000000
00001000
01000000
00010000
00000000
,
00100000
00010000
01000000
00000000
00100000
01000000
00010000
00000000
,
10000000
01000000
00100000
10010000
,
00100000
00000000
01000000
00000000
00100000
10000000
01000000
00000000
,
00100000
00000000
01000000
00000000
00010000
00001000
00000100
00000000
,
00000010
00000000
00001000
00000000
00000100
00001000
00000100
00000000
,
00010000
01000000
00100000
01000000
,
10000000
00000000
00010000
00000000
00100000
10000000
01000000
00000000
,
00100000
00000000
01000000
00000000
00010000
00001000
00000100
00000000
,
00000010
00000000
00001000
00000000
00000001
00000000
00000100
00001000
,
00010000
00000000
00000000
01000000
00000000
00000000
00100000
00000000
00010000
00000000
00000000
00000000
01000000
00000000
00000000
00000000
,
00100000
00000000
00000000
10000000
00000000
00000000
01000000
00000000
00010000
00000000
00000000
00000000
00001000
00000000
00000000
00000000
,
00000010
00000000
00000000
00000001
00000000
00000000
00000100
00000000
00001000
00000000
00000000
00000000
00010000
00000000
00000000
00000000
,
00000010
00000000
00000000
00001000
00000000
00000000
00000100
00000000
00000010
00000000
00000000
00000001
00000000
00000000
00000100
00000000
,
00001000
00010000
01000000
00100000
,
00200000
00000000
00000000
01000000
,
00000000
00010000
00300000
00011000
,
00000020
00000000
00000000
00000100
,
00000000
00001000
00000030
00011000
,
00000000
00000000
00000000
00000000
;

//---------------dance-double - ----------------
#NOTES:
     dance-double:
     :
     Hard:
     11:
     0.465964,0.500588,0.134853,0.067426,0.235992,387.000000,371.000000,16.000000,8.000000,0.000000,0.000000,0.465964,0.500588,0.134853,0.067426,0.235992,387.000000,371.000000,16.000000,8.000000,0.000000,0.000000:
00000000
00000000
00000000
00000000
,
00000000
00000000
00000000
00000000
,
00000000
00000000
00000000
00000000
,
00000200
00000000
00000000
00000000
,
00020300
00000000
00002000
00033000
,
00100000
00000000
00000000
01000000
00000000
00000000
10000000
00000000
00010000
00000000
00000000
00000000
01000000
00000000
00000000
00000000
,
00001000
00000000
00000000
00010000
00000000
00000000
00000100
00000000
00000010
00000000
00000001
00000000
00000100
00000000
00000000
00000000
,
00001000
00000000
00000000
00010000
00000000
00000000
00100000
00000000
00010000
00000000
00000000
00001000
00000000
00000000
00000010
00000000
,
00001000
00000000
00000000
00010000
00000000
00000000
01000000
00000000
10000000
00000000
00100000
00000000
00010000
00000000
00000000
00000000
,
00001000
00000000
00000010
00000000
00000100
00000000
00010000
00000100
00001000
00000100
00000000
00001000
00000000
00000010
00000100
00000000
,
00000001
00000000
00000000
00000100
00000000
00000000
00001000
00000000
00000000
00000000
00010000
00000000
01000000
00000000
10000000
00000000
,
00100000
00000000
00000000
10000000
00000000
00000000
01000000
00000000
00000000
00000000
00100000
00000000
00010000
00000000
10000000
00000000
,
00100000
00000000
00000000
10000000
00000000
00000000
01000000
00000000
00000000
00000000
00010000
00000000
00001000
00000000
00000100
00000000
,
00000001
00000000
00000000
00001000
00000000
00000000
00000100
00000000
00000010
00000000
00000100
00000000
00000010
00000000
00000001
00000000
,
00000100
00000000
00000000
00001000
00000000
00000000
00010000
00000000
00000000
00000000
00100000
00000000
10000000
00000000
01000000
00000000
,
00100000
00000000
00000000
01000000
00000000
00000000
00010000
00000000
00000000
00000000
00001000
00000000
00100000
00000000
01000000
00000000
,
00010000
00000000
00000000
00001000
00000000
00000000
00000100
00000000
00000000
00000000
00000010
00000000
00001000
00000000
00000100
00000000
,
00000010
00000000
00000000
00000001
00000000
00000000
00000100
00000000
00001000
00000000
00000100
00000000
00001000
00000000
00010000
00000000
,
00100000
00000000
00000000
00010000
00000000
00000000
00100000
00000000
00000000
10000000
00000000
00000000
00010000
00000000
00000000
00000000
,
00100000
00000000
00000000
10000000
00000000
00000000
00100000
00000000
00000000
00010000
00000000
00000000
10000000
00000000
00000000
00000000
,
01000000
00000000
00000000
00010000
00000000
00000000
01000000
00000000
00000000
00010000
00000000
00000000
00001000
00000000
00000000
00000000
,
00000100
00000000
00000000
00001000
00000000
00000000
00000100
00000000
00000001
00000000
00001000
00000000
00000001
00000000
00001000
00000000
,
00000010
00000000
00000000
00000100
00000000
00000000
00000010
00000000
00000000
00001000
00000000
00000000
00000001
00000000
00000000
00000000
,
00000010
00000000
00000000
00000100
00000000
00000000
00000010
00000000
00000000
00000001
00000000
00000000
00001000
00000000
00000000
00000000
,
00000010
00000000
00000000
00000100
00000000
00000000
00001000
00000000
00000000
00010000
00000000
00000000
01000000
00000000
00000000
00000000
,
00100000
00000000
00000000
01000000
00000000
00000000
00010000
00000000
00001000
00000000
00000100
00000000
00001000
00000000
00000100
00000000
,
00000001
00001000
00000100
00000000
00001000
00000001
00000100
00000000
,
00001000
00010000
01000000
00000000
00010000
00001000
00000100
00000000
,
00001000
00010000
00100000
10000000
01000000
00000000
01000000
00000000
,
10000000
00100000
00010000
00001000
00000100
00000000
00000100
00000001
,
00001000
00000000
00000000
00000010
00000000
00000000
00000100
00000000
00000001
00000000
00001000
00000000
00000100
00000000
00000000
00000000
,
00000010
00000000
00000000
00001000
00000000
00000000
00010000
00000000
00100000
00000000
10000000
00000000
01000000
00000000
00000000
00000000
,
10000000
00000000
00000000
00100000
00000000
00000000
00010000
00000000
00001000
00000000
00000000
00000100
00000000
00000000
00000001
00000000
,
00001000
00000000
00000000
00000001
00000000
00000000
00000100
00000000
00000000
00000000
00000000
00000000
00000000
00000000
00000000
00000000
,
00002000
00000000
00000000
00000000
,
00000000
00000000
00000000
00000000
,
00203000
00000000
02000000
03300000
,
10010000
00000000
01100000
00000000
10000000
01000000
00010000
00001000
,
00000100
00000000
00000000
00000001
00000000
00000000
00000100
00000000
00000010
00000000
00000000
00001000
00000000
00000000
00000100
00000000
,
00000010
00000000
00000000
00000001
00000000
00000000
00001000
00000000
00000100
00000000
00000000
00010000
00000000
00000000
00100000
00000000
,
10000000
00000000
00000000
00010000
00000000
00000000
10000000
00000000
01000000
00000000
00010000
00000000
00001000
00000000
00000100
00000000
,
00000001
00010010
00101000
11000000
,
00100000
00010000
10000000
00000000
00100000
10000000
01000000
00000000
,
00010000
00001000
00000100
00000000
00000010
00000100
00000001
00000000
,
00001000
00000010
00000100
00000000
00000001
00000100
00001000
00010000
,
01000000
00000000
00000000
00100000
00000000
00000000
01000000
00000000
10000000
00000000
00000000
00000000
01001000
00000000
00000000
00000000
,
00100000
00000000
00000000
10000000
00000000
00000000
01000000
00000000
00010000
00000000
00001000
00000000
00000100
00000000
00000000
00000000
,
00000001
00000000
00000000
00000010
00000000
00000000
00000100
00000000
00000010
00000000
00001000
00000000
00010000
00000000
01000000
00000000
,
00100000
00000000
00000000
01000000
00000000
00000000
00010000
00000000
00000010
00000000
00000100
00000000
00001000
00000000
00010000
00000000
,
01000000
10000000
00100000
01010000
,
00100000
10000000
01000000
00100000
01000000
00010000
01000000
00010000
,
00001000
00000010
00000001
00001000
00000010
00000100
00000010
00000100
,
00000010
00001000
00000001
00000000
00000010
00000100
00001000
00000000
,
00001001
00000000
00000110
00000000
00000001
00000100
00001000
00010000
,
01000000
00000000
00000000
10000000
00000000
00000000
01000000
00000000
00100000
00000000
00000000
00010000
00000000
00000000
01000000
00000000
,
00100000
00000000
00000000
10000000
00000000
00000000
00010000
00000000
01000000
00000000
00000000
00001000
00000000
00000000
00000010
00000000
,
00000001
00000000
00000000
00001000
00000000
00000000
00000001
00000000
00000100
00000000
00001000
00000000
00010000
00000000
01000000
00000000
,
10000000
00101000
00010010
00000101
,
00000010
00001000
00000001
00000000
00000010
00000001
00000100
00000000
,
00001000
00010000
01000000
00000000
00100000
01000000
10000000
00000000
,
00010000
00100000
01000000
00000000
10000000
01000000
00010000
00001000
,
00000100
00000000
00000000
00000010
00000000
00000000
00000100
00000000
00000001
00000000
00000000
00000000
00010100
00000000
00000000
00000000
,
00000010
00000000
00000000
00000001
00000000
00000000
00000100
00000000
00001000
00000000
00010000
00000000
01000000
00000000
00000000
00000000
,
10000000
00000000
00000000
00100000
00000000
00000000
01000000
00000000
00100000
00000000
00010000
00000000
00001000
00000000
00000100
00000000
,
00000010
00000000
00000000
00000100
00000000
00000000
00001000
00000000
00100000
00000000
01000000
00000000
00010000
00000000
00001000
00000000
,
00000100
00000001
00000010
00001100
,
00020100
00000000
00000000
00000100
00000000
00000000
00000100
00000000
00000000
00000000
00000000
00000000
00000000
00000000
00000000
00000000
,
00000010
00000010
00100000
00130000
,
01002000
00000000
00000000
01000000
00000000
00000000
01000000
00000000
00000000
00000000
00000000
00000000
00000000
00000000
00000000
00000000
,
00100000
00000000
00103000
00000000
00010000
00000100
00001000
00000010
,
00000000
00000000
00000000
00000000
;

//---------------dance-single - ----------------
#NOTES:
     dance-single:
     :
     Challenge:
     16:
     0.917480,0.942283,0.455128,0.101140,1.133605,762.000000,708.000000,54.000000,12.000000,0.000000,0.000000,0.917480,0.942283,0.455128,0.101140,1.133605,762.000000,708.000000,54.000000,12.000000,0.000000,0.000000:
// measure 0
0000
0000
0000
0000
,  // measure 1
0000
0000
0000
0000
,  // measure 2
0000
0000
0000
0000
,  // measure 3
1001
0000
0000
0000
0000
0000
0000
0000
0001
0000
0000
0010
0000
0000
1000
0000
,  // measure 4
0002
0000
0000
0000
0000
0000
0000
0000
1003
0000
0010
0100
0010
0000
0000
0000
,  // measure 5
1001
0000
1000
0100
0000
1000
0100
0000
0010
0000
0001
1000
0000
0001
1000
0000
,  // measure 6
0010
0000
0100
0000
0010
1000
0000
1000
0100
0000
0100
0010
0000
0010
0001
0000
,  // measure 7
0100
0000
0010
0000
1000
0001
0010
0000
0100
0000
1000
0010
0000
0100
0001
0000
,  // measure 8
0010
0001
0010
0001
1000
0010
1000
0010
0100
0000
0001
1000
0000
0001
0100
0000
,  // measure 9
1010
0000
0000
0010
0100
0000
0001
1000
0100
0010
0001
0100
0000
0001
1000
0000
,  // measure 10
1100
0000
0100
0010
0000
0010
0002
0000
0000
0000
0103
0010
0000
0010
1000
0000
,  // measure 11
0001
0000
1000
0100
0000
0100
0010
0000
0001
0000
1000
0001
0000
0001
0100
0000
,  // measure 12
0010
0000
1000
0000
0001
1000
0000
1000
0100
0000
0100
0010
0000
0010
0001
0000
,  // measure 13
0100
0000
0001
0000
0010
0001
0000
1000
0010
0000
0100
0000
0110
0000
0110
0000
,  // measure 14
0101
0000
0001
1000
0000
1000
0100
0000
1000
0100
0010
0001
0010
0100
1000
0100
,  // measure 15
0010
0001
0010
0100
1000
0100
0010
0001
0010
0100
1000
0100
0010
0001
0010
0100
,  // measure 16
1000
0000
0001
0100
0000
0100
0020
0000
0000
0000
1030
0001
0000
0001
0100
0000
,  // measure 17
0010
0000
1000
0100
0000
0100
0010
0000
0001
1000
0001
0100
0001
0010
0001
0000
,  // measure 18
1001
0000
0100
0000
0100
0000
0010
0000
2000
0000
0000
3001
0000
0000
0012
0000
,  // measure 19
0000
0000
0100
0000
0103
0000
0010
0000
2000
0000
0000
3001
0000
0000
1010
0000
,  // measure 20
0000
0000
0010
1000
0000
0010
1000
0000
0001
0100
0000
0001
0100
0000
0010
0000
,  // measure 21
2000
0000
3001
0010
0000
0010
0001
0000
0100
0010
0000
1000
0100
0000
0000
0001
,  // measure 22
0010
0001
1000
0000
0010
1000
0100
0000
0010
0000
0001
0100
0000
0010
2000
0000
,  // measure 23
0000
3010
0100
0000
0001
1000
0100
0000
0010
0000
0001
0100
0000
0010
1000
0000
,  // measure 24
0001
0000
0010
0100
0000
0010
0100
0000
1000
0001
0000
1000
0010
0000
0100
0000
,  // measure 25
0001
0000
0010
0000
0100
0000
1000
0010
0000
0100
0000
0001
1000
0000
0102
0000
,  // measure 26
0000
1003
0001
0000
0010
0100
1000
0000
0001
0100
0001
0000
0010
0000
0100
1000
,  // measure 27
0100
0010
0001
0000
0100
0010
1000
0000
0001
0000
0010
0000
0001
0000
1000
0000
,  // measure 28
0010
1000
0001
0000
1000
0100
0010
0001
0100
0010
1000
0000
0011
0000
0100
0000
,  // measure 29
0010
0001
0010
0100
0010
1000
0010
0100
0001
1000
0100
0000
0100
0000
0010
0000
,  // measure 30
1001
0000
1000
0001
0010
0000
1000
0001
0100
0010
1000
0000
0001
0000
0010
0100
,  // measure 31
1000
0001
0010
0001
1000
0001
0100
0001
0010
0100
1000
0000
1100
0000
0101
0000
,  // measure 32
1000
0100
0010
0001
1000
0100
0010
0001
1000
0100
0010
0001
1000
0100
0010
0001
,  // measure 33
0100
0000
0000
1010
0000
0000
0101
0000
0000
0000
0010
0000
0100
0000
1000
0000
,  // measure 34
1001
0000
1000
0020
0000
0100
0130
0001
,  // measure 35
0110
0000
1000
1100
0000
0001
0011
0000
,  // measure 36
0102
0000
0000
0100
0000
0000
0100
0000
0013
0000
0000
1000
0000
0000
0001
0000
,  // measure 37
1000
0000
0001
0000
0100
0000
0010
0000
0001
0010
1000
0100
0001
0010
1000
0100
,  // measure 38
0001
0000
0010
0100
0000
0010
0001
0000
1000
0000
0010
1000
0000
0001
0100
0000
,  // measure 39
0010
0000
1000
0001
0000
0010
0001
0000
0100
0000
0010
1000
0000
0001
1000
0100
,  // measure 40
0010
0000
0001
0100
0000
0001
1000
0000
1100
0000
0110
0000
0011
0000
0110
0000
,  // measure 41
1100
0000
0001
0100
0001
1000
0001
1000
0010
1000
0010
1000
0100
1000
0100
1000
,  // measure 42
0100
0000
0010
0001
0000
0001
0100
0000
0010
1000
0001
0000
1000
0100
0010
0000
,  // measure 43
0001
0000
0100
0000
0010
1000
0100
1000
0001
0000
0010
0100
0000
1000
0001
0000
,  // measure 44
0100
0000
0010
0000
1000
0001
0000
0001
0010
0000
0010
0100
0000
0100
1000
0000
,  // measure 45
0001
0000
1000
0010
0000
0100
0001
0000
0010
1000
0010
0100
0010
0001
0010
0000
,  // measure 46
1001
0000
0010
1000
0000
0100
0010
0000
0011
0000
0001
1000
0000
0001
0100
0010
,  // measure 47
1000
0000
0100
0010
0000
0001
0100
0000
0010
1000
0001
1000
0000
0100
0010
0001
,  // measure 48
0100
0000
0010
1000
0000
1000
0001
0000
0101
0000
1001
0000
1100
0000
1001
0000
,  // measure 49
0102
0000
0010
0000
0100
0000
0013
0000
0001
1000
0010
0100
0001
1000
0010
0100
,  // measure 50
0001
0000
0010
1000
0000
1000
0100
0000
0010
0001
0100
0001
0010
0100
1000
0000
,  // measure 51
0100
0000
1000
0001
0000
0001
0010
0000
0001
0100
0001
1000
0010
1000
0100
0000
,  // measure 52
0110
0000
0001
0000
0100
0010
1000
0010
0100
0000
0001
1000
0000
0001
0010
0000
,  // measure 53
0100
0000
1000
0001
0000
1000
0001
0000
0010
0100
0010
0100
0010
0001
1000
0010
,  // measure 54
0100
0001
0100
0001
0000
0010
0100
0000
1000
0001
1000
0001
0010
0100
1000
0000
,  // measure 55
0001
0010
0001
0010
0000
0100
1000
0000
0010
1000
0001
1000
0100
0010
0001
0000
,  // measure 56
0100
0000
0010
1000
0000
0010
0100
0000
0101
0000
0011
0000
0110
0000
1100
0000
,  // measure 57
1010
0000
0001
0000
0010
0100
0010
0100
1000
0001
1000
0001
0100
0010
1000
0001
,  // measure 58
0010
0000
0001
0000
0100
0000
0010
0000
1000
0000
0001
0000
1000
0000
0100
0010
,  // measure 59
0001
0000
0100
0000
0001
0010
0001
0000
1000
0000
0100
1000
0000
1000
0010
0000
,  // measure 60
0100
0000
0001
0000
0010
0001
1000
0010
0100
0000
0001
1000
0000
1000
0100
0000
,  // measure 61
0010
0000
0001
1000
0000
1000
0100
0000
0010
0001
0010
0001
0010
0100
1000
0100
,  // measure 62
1000
0000
0001
0010
0000
0001
0100
0000
0010
1000
0010
0100
0000
0001
1000
0100
,  // measure 63
1000
0000
0001
0010
0000
0010
0100
0000
1000
0001
1000
0100
0000
0010
0001
0100
,  // measure 64
0001
0000
0010
0100
0000
0100
1000
0000
1100
0000
1010
0000
1001
0000
0101
0000
,  // measure 65
0011
0000
1000
0001
1000
0100
0010
0001
0100
0010
0100
0010
1000
0100
1000
0001
,  // measure 66
0010
0000
0000
0011
0000
0000
1100
0000
1000
0100
0010
0001
0010
0100
1000
0100
,  // measure 67
0010
0001
0010
0100
1000
0100
0010
0001
0100
0000
0110
0000
1001
0000
0110
0000
,  // measure 68
1010
0000
0000
0101
0000
0000
1100
0000
0001
0000
0010
0001
0000
0001
0100
0000
,  // measure 69
0010
0000
1000
0001
0000
1000
0001
0000
1000
0100
0010
0001
0100
0000
0101
0000
;
