#TITLE:electro peaceful;
#ARTIST:Mr. T;
#BANNER:electro peaceful-bn.png;
#BACKGROUND:electro peaceful-bg.png;
#JACKET:electro peaceful-jacket.png;
#MUSIC:electro peaceful.ogg;
#SAMPLESTART:23.8;
#SAMPLELENGTH:20;
#DISPLAYBPM:160;
#BPMS:0=160;
#BGCHANGES:;

//---------------dance-single - ----------------
#NOTES:
     dance-single:
     :
     Beginner:
     4:
     :
0000
0000
0000
0000
,
0000
0000
0000
0000
,
0000
0000
0000
0000
,
0000
0000
0000
0000
,
1000
0000
0000
0000
,
0001
0000
0000
0000
,
0100
0000
0000
0000
,
0010
0000
0000
0000
,
0000
1000
0000
1000
,
0000
0001
0000
0001
,
0000
0010
0000
0010
,
0000
0100
0000
0100
,
0000
1000
0000
0010
,
0000
0100
0000
0001
,
0000
0110
0000
1001
,
0000
0000
0000
0000
,
1000
0000
0001
0000
,
0010
0000
0100
0000
,
1000
1000
1000
0000
,
0000
0000
0000
0000
,
0010
0000
1000
0000
,
0001
0000
0100
0000
,
0001
0001
0001
0000
,
0000
0000
0000
0000
,
0100
0000
0001
0000
,
1000
0000
0010
0000
,
0100
0100
0100
0000
,
0000
0000
0000
0000
,
0001
0000
0001
0000
,
1000
0000
1000
0000
,
0010
0000
0000
0000
,
0000
0000
0000
0000
,
1000
0000
0100
0000
,
1000
0000
0001
0000
,
0010
0000
0100
0000
,
1000
0000
0001
0000
,
1001
0000
0110
0000
,
0000
0000
0001
0001
,
0001
0000
1000
0000
,
0010
0010
0010
0000
,
1001
0000
1001
0000
,
0010
0010
0010
0000
,
0110
0000
0110
0000
,
1000
1000
1000
0000
,
1001
0000
1001
0000
,
0001
0001
0001
0000
,
0110
0000
0110
0000
,
0100
0100
0100
0000
,
1001
0000
0110
0000
,
0001
0001
0001
0000
,
0110
0000
1001
0000
,
1000
1000
1000
0000
,
0010
0000
0010
0000
,
1000
0000
0001
0000
,
0010
0000
0001
0000
,
0100
0000
0000
0000
,
0010
0000
0000
0000
,
1001
0000
0000
0000
,
1001
0000
0000
0000
,
1000
1000
0000
0000
,
0010
0000
0100
0000
,
0110
0000
0000
0000
,
0110
0000
0000
0000
,
0001
0001
0000
0000
,
1000
0000
0001
0000
,
0010
0000
0001
0000
,
0100
0000
0010
0000
,
1000
1000
1000
0000
,
0000
0000
0000
0000
,
0100
0000
0010
0000
,
0001
0000
1000
0000
,
0100
0000
0000
0000
,
0000
0000
0000
0000
,
0110
0000
0000
0000
,
0001
0000
1000
0000
,
0010
0000
0010
0000
,
1000
0000
0001
0000
,
0100
0000
0100
0000
,
1001
0000
0000
0000
;

//---------------dance-single - ----------------
#NOTES:
     dance-single:
     :
     Easy:
     7:
     :
0000
0000
0000
0000
,
0000
0000
0000
0000
,
0000
0000
0000
0000
,
0000
0000
0000
0000
,
1000
0001
0000
1000
,
0000
0010
0000
0100
,
0001
0010
0000
0001
,
1000
0010
0000
0100
,
1001
0010
1000
0001
,
0010
0001
0100
0010
,
1000
0100
1000
0001
,
0010
0100
1000
0010
,
0110
0001
1000
0001
,
0010
0100
1000
0010
,
1000
0100
0010
0001
,
0220
0330
2002
3003
,
1000
1000
0001
0001
,
0010
0010
0100
0100
,
1000
0001
1001
0000
,
0001
0100
0010
1000
,
0100
0100
0010
0010
,
0001
0001
1000
1000
,
0010
0100
0110
0000
,
1000
0010
0100
0001
,
0010
0010
0100
0100
,
1000
1000
0001
0001
,
1000
0010
0110
0000
,
0010
0100
0001
1000
,
0100
0100
1000
1000
,
0001
0001
0010
0010
,
1001
0000
0001
0010
,
0001
0100
0010
1000
,
0100
0100
1000
0001
,
1000
1000
1000
0000
,
0010
0010
0100
0001
,
1000
1000
0001
0001
,
0020
0030
0200
0300
,
0000
0000
1000
0010
,
2000
3000
0002
0003
,
1001
0110
1001
0110
,
1000
1000
0001
0001
,
0010
0001
0100
0000
,
0001
0001
0010
0010
,
0001
1000
0100
0000
,
1000
1000
0010
0010
,
1000
0001
0100
0000
,
0010
0010
0100
0100
,
0001
1000
0100
0000
,
1000
1000
0100
0100
,
1000
0001
0010
0000
,
0001
0001
0100
0100
,
0001
0010
1000
0000
,
0010
0010
1000
1000
,
0001
0001
0100
0100
,
0001
0010
0001
0100
,
2002
0000
0000
3003
,
0220
0000
0000
0330
,
1001
0000
0000
0000
,
1000
1000
0000
0000
0000
0000
0000
0000
,
0001
0001
0001
0000
0000
0000
0000
0000
,
0220
0330
2002
3003
,
0110
0000
0000
0000
,
0100
0100
0000
0000
0000
0000
0000
0000
,
0010
0010
0010
0000
0000
0000
0000
0000
,
2002
3003
0220
0330
,
1000
0010
1000
0001
,
0010
0100
1000
0010
,
0100
0001
0110
0000
,
1000
0100
1000
0001
,
0010
0001
0010
0100
,
1000
0010
1000
0001
,
1001
0000
0110
0000
,
1000
0001
1000
0100
,
1000
1000
0000
0000
0000
0000
0110
0000
,
0001
0100
0001
1000
,
1001
0010
1000
0001
,
0110
0001
0100
1000
,
0110
0100
0001
1000
,
1001
0000
0000
0000
;

//---------------dance-single - ----------------
#NOTES:
     dance-single:
     :
     Medium:
     10:
     :
0000
0000
0000
0000
,
0000
0000
0000
0000
,
0000
0000
0000
0000
,
0000
0000
0000
0000
,
1000
0101
0001
1010
,
0010
1100
0100
0011
,
0001
0100
0010
0000
1000
0001
0100
0000
,
0010
0000
1000
0000
0100
0000
0000
0000
0010
0000
0000
0001
0000
0000
1000
0000
,
0001
0010
0100
0000
1000
0001
0000
0100
,
0000
0001
0010
0000
0001
1000
0000
0100
,
0000
1000
0010
0000
0100
0001
0000
0010
,
0000
0000
0001
0000
1000
0000
0010
0000
0100
0000
0000
0001
0000
0000
1000
0000
,
0010
1000
0001
0000
0010
0100
0000
1000
,
0000
0010
1000
0000
0100
0010
0000
0001
,
0000
0100
0001
0000
1000
0001
0000
0010
,
0000
0000
0001
0000
0100
0000
0010
0000
1000
0000
0000
0001
0000
0000
1000
0000
,
0100
0110
0001
0101
,
1000
1010
0010
0110
,
1000
0000
0000
0001
0000
0000
0100
0000
0010
0000
0000
0000
0000
0000
0000
0000
,
1000
0100
1000
0000
0001
0100
0001
1000
,
0010
0101
0001
0011
,
1000
1001
0100
1010
,
0100
0000
0000
0010
0000
0000
0001
0000
1000
0000
0000
0000
0000
0000
0000
0000
,
0010
1000
0100
0000
0010
0001
1000
0001
,
0100
1001
0010
0110
,
1000
1100
0001
0011
,
0010
0000
0000
0001
0000
0000
1000
0000
0100
0000
0000
0000
0000
0000
0000
0000
,
1000
0010
0100
0000
0010
1000
0001
0010
,
0001
1100
0100
0110
,
0010
0011
1000
1100
,
0001
0010
0100
0000
1000
0001
0000
0010
,
0000
0000
0001
0000
0100
0000
0000
0000
0010
0000
0000
1000
0000
0000
0001
0000
,
1000
0110
0001
0110
,
1000
0000
0000
0001
0000
0000
0010
0000
0200
0000
0000
0000
0300
0000
1000
0000
,
0010
0000
1001
0000
0100
0000
0010
0001
,
2000
3020
0230
0302
,
0023
0000
0030
0001
2000
0000
0000
0000
,
3000
0000
0000
0000
0000
0000
0100
0000
1000
0000
0000
0010
0000
0000
0100
0000
,
0002
0000
0003
1000
0020
0000
0030
0000
,
1000
0000
0000
0001
0000
0000
1000
0000
1000
0000
0000
0000
0110
0000
0000
0000
,
0001
0000
0000
0010
0000
0000
0000
0000
0001
0000
0000
1000
0000
0000
0000
0000
,
0010
0000
0000
1000
0000
0000
0001
0000
0200
0000
0000
0000
0300
0000
0001
0000
,
0010
0000
0000
0001
0000
0000
0000
0000
1000
0000
0000
0010
0000
0000
0000
0000
,
1000
0000
0000
0001
0000
0000
0100
0000
0020
0000
0000
0000
0030
0000
0100
0000
,
0010
0000
0000
1000
0000
0000
0000
0000
0001
0000
0000
0010
0000
0000
0000
0000
,
0001
0000
0000
1000
0000
0000
0100
0000
0020
0000
0000
0000
0030
0000
0001
0000
,
0100
0101
1000
1100
,
0010
0000
0000
0001
0000
0000
1000
0000
0200
0000
0000
0000
0300
0000
1000
0000
,
0001
0000
0000
1000
0000
0000
0000
0000
0010
0000
0000
0100
0000
0000
0000
0000
,
0010
0000
0000
0100
0000
0000
0001
0000
2000
0000
0000
0000
3000
0000
0100
0000
,
0010
0000
0000
0001
0000
0000
0000
0000
1000
0000
0000
0001
0000
0000
0000
0000
,
1000
0000
0000
0100
0000
0000
0010
0000
0002
0000
0000
0000
0003
0000
0100
0000
,
0010
1010
0001
0101
,
1000
0000
0000
0001
0000
0000
1000
0000
0020
0000
0000
0000
0230
0000
0000
0000
,
0301
0000
0000
0010
0000
0000
0000
0000
0001
0000
0000
1000
0000
0000
0010
0000
,
0200
0001
1000
0301
,
0100
0010
0100
0010
0100
0010
0100
0000
,
1001
0000
0000
0000
,
1000
1100
0000
0000
0000
0000
0000
0000
,
0001
0001
0101
0000
0000
0000
0000
0000
,
2000
3001
0020
0130
,
0110
0000
0000
0000
,
0001
0011
0000
0000
0000
0000
0000
0000
,
1000
1000
1010
0000
0000
0000
0110
0000
,
0001
1000
0001
0000
0010
0100
1000
0001
,
1000
1100
0010
0101
,
0001
0011
0100
1001
,
0001
0000
0000
0010
0000
0000
0100
0000
1000
0000
0000
0000
0000
0000
0000
0000
,
0020
0000
2030
0000
3002
0000
0013
0001
,
1000
0011
0100
1010
,
0010
0110
0001
1001
,
0010
0000
0001
0000
1000
0000
0000
0000
0100
0000
0000
0010
0000
0000
0100
0000
,
0000
1100
0000
0001
0100
0000
0010
1000
,
0001
0001
0000
0000
0000
0000
0110
0000
,
1000
0000
0000
0010
0000
0000
1000
0000
0001
0000
0000
0010
0000
0000
0001
0000
,
0100
0010
1000
0000
0001
0010
0100
0000
,
1000
0010
0100
0000
0001
1000
0001
0000
,
0010
0001
0010
0001
1000
0100
1000
0100
,
2002
0000
0000
3003
;

//---------------dance-single - ----------------
#NOTES:
     dance-single:
     :
     Hard:
     12:
     :
0000
0000
0000
0000
,
0000
0000
0000
0000
,
0000
0000
0000
0000
,
0000
0000
0000
0000
,
1000
0000
0000
0000
0101
0000
0000
0001
0100
0000
0000
0000
1010
0000
0000
0000
,
0100
0000
0000
0000
0011
0000
0000
0001
1000
0000
0000
0000
1100
0000
0000
0000
,
0001
0000
0010
0000
0010
0000
0000
0001
1000
0000
0100
0000
1000
0000
0001
0000
,
0010
0000
1000
0000
0010
0000
0001
0000
0100
0000
0000
0010
0000
0000
1000
0000
,
1001
0000
0000
0000
1000
0100
0000
0100
0010
0000
0001
0000
1000
0000
0010
0000
,
0000
0000
0100
0000
0001
0000
0000
0010
0001
0000
1000
0000
0001
0000
0100
0000
,
0000
0000
0010
0000
1000
0000
0000
0100
0010
0000
0001
0000
1000
0000
0001
0000
,
0000
0000
0100
0000
0010
1000
0000
1000
0001
0000
0000
0010
0000
0000
0100
0000
,
0110
0000
0000
0000
0001
0000
0000
0100
0010
0000
1000
0000
0001
0000
0100
0000
,
0000
0000
0010
0000
1000
0000
0000
0001
1000
0000
0100
0000
0010
0000
0001
0000
,
0100
0000
0010
0000
1000
0000
0000
0001
0010
0000
0001
0000
1000
0000
0100
0000
,
0000
0000
1000
0000
0001
0000
0100
0010
0100
0000
0000
0001
0000
0000
1000
0000
,
1000
0000
0000
0001
0000
0000
0010
0000
0001
0000
0000
0100
0000
0000
0010
0000
,
1000
0000
0000
0001
0000
0000
1000
0000
0100
0000
0000
0010
0000
0000
0001
0000
,
1000
0000
0000
0001
0000
0000
0100
0000
0100
0000
0010
0000
1000
0000
0000
0000
,
0001
1000
0000
1000
0001
0000
0000
0000
0100
0010
0000
0010
1000
0000
0001
0000
,
0001
0000
0000
0010
0000
0000
0001
0000
0100
0000
0000
0010
0000
0000
1000
0000
,
0100
0000
0000
1000
0000
0000
0010
0000
1000
0000
0000
0001
0000
0000
0100
0000
,
0001
0000
0000
1000
0000
0000
0010
0000
0010
0000
0100
0000
0001
0000
0000
0000
,
1000
0010
0000
0010
1000
0000
0000
0000
0100
0010
0000
0010
0001
0000
0100
0000
,
0100
0000
0000
0001
0000
0000
0010
0000
0001
0000
0000
1000
0000
0000
0100
0000
,
0010
0000
0000
0001
0000
0000
0010
0000
0100
0000
0000
1000
0000
0000
0001
0000
,
1000
0000
0000
0010
0000
0000
0100
0000
0100
0000
0001
0000
1000
0000
0000
0000
,
0010
1000
0000
1000
0010
0000
0000
0000
0100
0001
0000
0001
1000
0000
0100
0000
,
0010
0000
0000
0001
0000
0000
1000
0000
0001
0000
0000
0010
0000
0000
0100
0000
,
1000
0000
0000
0001
0000
0000
1000
0000
0010
0000
0000
0100
0000
0000
0001
0000
,
0010
0000
0001
0000
0100
0000
0000
0010
1000
0000
0100
0000
1000
0000
0001
0000
,
0000
0000
0010
0000
0100
0000
0000
1000
0010
0000
0000
0100
0000
0000
0001
1000
,
0001
0000
0000
0100
0000
0000
0100
0000
0010
0000
0000
1000
0000
0000
1000
0000
,
0100
0000
0000
0010
0000
0000
0001
0000
0002
0000
0000
0000
0003
0000
1000
0010
,
1000
0000
0000
0001
0000
0000
0001
0000
0010
0000
0000
0100
0000
0000
0100
0000
,
2000
3002
0023
0230
,
2300
0000
0000
0000
3000
0000
0010
0100
0020
0000
0000
0000
0000
0000
0000
0000
,
0030
0000
0000
0000
0000
0000
0100
0000
0001
0000
0000
1000
0000
0000
0001
0000
,
0200
0000
0310
1000
0002
0000
0013
0100
,
1100
0000
0000
0101
0000
0000
1001
0000
1001
0000
0000
0000
0110
0000
0001
1000
,
0001
0000
0000
0100
0000
0000
0010
1000
0010
0000
0000
0100
0000
0000
0001
1000
,
0001
0000
0000
0010
0000
0000
0100
0000
2000
0000
0000
0000
3000
0000
0010
0100
,
0010
0000
0000
1000
0000
0000
0100
0000
1000
0000
0000
0001
0000
0000
0010
0000
,
0001
0000
0000
0100
0000
0000
0010
0000
2000
0000
0000
0000
3000
0000
0100
0010
,
0100
0000
0000
1000
0000
0000
0001
0100
0001
0000
0000
0010
0000
0000
0100
0000
,
1000
0000
0000
0001
0000
0000
0100
0000
0020
0000
0000
0000
0030
0000
1000
0001
,
1000
0000
0000
0100
0000
0000
0010
0000
0001
0000
0000
0100
0000
0000
0001
0000
,
0010
0000
0000
0001
0000
0000
1000
0000
0200
0000
0000
0000
0300
0000
0010
0001
,
0010
0000
0000
0100
0000
0000
1000
0010
1000
0000
0000
0001
0000
0000
0100
0001
,
0100
0000
0000
0010
0000
0000
1000
0000
0002
0000
0000
0000
0003
0000
0010
0100
,
0010
0000
0000
0001
0000
0000
1000
0000
0010
0000
0000
0100
0000
0000
0001
0000
,
1000
0000
0000
0001
0000
0000
0100
0000
0020
0000
0000
0000
0030
0000
1000
0100
,
1000
0000
0000
0001
0000
0000
0010
0000
0001
0000
0000
0100
0000
0000
0010
0000
,
1000
0000
0000
0100
0000
0000
0010
0000
0001
0000
0000
0000
0011
0000
0000
0000
,
1000
0000
0000
0010
0000
0000
0100
0000
0001
0000
0000
1000
0000
0000
0001
0000
,
0100
0010
1000
0010
0100
0001
0010
0100
,
1000
0010
1000
0001
0010
0100
1000
0001
,
1001
0000
0000
0000
,
1100
1100
0000
0000
0000
0000
0000
0000
,
0101
0101
0101
0000
0000
1000
0001
0100
,
0010
1000
0010
1000
0100
0010
0001
0100
,
0110
0000
0000
0000
,
1010
1010
0000
0000
0000
0000
0000
0000
,
0011
0011
0011
0000
0000
0110
0110
0000
,
1000
0001
1000
0010
0100
0001
0010
0100
,
0100
0000
0000
1000
0000
0000
0001
0000
0010
0000
0000
0001
0000
0000
0100
0000
,
0010
0000
0000
1000
0000
0000
0100
0000
1000
0000
0000
0001
0000
0000
0010
0000
,
0001
0000
0000
0100
0000
0000
0010
0000
0010
0000
1000
0000
0001
0000
0000
0000
,
0010
0001
0100
0000
0010
1000
0001
0001
,
0001
0000
0000
0010
0000
0000
0001
0000
0100
0000
0000
0010
0000
0000
1000
0000
,
0100
0000
0000
1000
0000
0000
0001
0000
0010
0000
0000
0001
0000
0000
0100
0000
,
0010
0000
1000
0000
0100
0000
0000
1000
0001
0000
0010
0000
0001
0000
0100
0000
,
0000
0000
0001
0000
0010
0000
0000
0001
1000
0000
0000
1000
0100
0000
0100
0000
,
1100
1100
0000
0001
1000
0000
0110
0100
,
0001
0000
0000
0010
0000
0000
0001
0000
1000
0000
0000
0010
0000
0000
1000
0000
,
0100
0000
0010
0000
0001
0000
0000
1000
0001
0000
0000
0100
0000
0000
0010
0000
,
0000
0000
1000
0000
0100
0000
0000
1000
0010
0000
0000
0100
0001
0000
0010
0100
,
0010
0001
1000
0010
1000
0001
0100
0010
,
2002
0000
0000
3003
;
