#TITLE:e-motion;
#ARTIST:e.o.s;
#BANNER:e-motion-bn.png;
#BACKGROUND:e-motion-bg.png;
#JACKET:e-motion-jacket.png;
#MUSIC:e-motion.ogg;
#SAMPLESTART:27.313;
#SAMPLELENGTH:20;
#DISPLAYBPM:140:145;
#BPMS:0=145.161,4=144.986,84=144.821,132=139.806;
#BGCHANGES:;

//---------------dance-single - ----------------
#NOTES:
     dance-single:
     :
     Beginner:
     2:
     :
0000
0000
0000
0000
,
0000
0000
0000
0000
,
0000
0000
0000
0000
,
0000
0000
0000
0000
,
0000
0000
0000
0000
,
0010
0000
0000
0000
,
0010
0000
0000
0000
,
0100
0000
0000
0000
,
0100
0000
0000
0000
,
1001
0000
0000
0000
,
1000
0000
0000
0000
,
0001
0000
0000
0000
,
1001
0000
0000
0000
,
1000
0000
1000
0000
,
1000
0000
1000
0000
,
0001
0000
0001
0000
,
0001
0000
0001
0000
,
1000
1000
0000
0000
,
1000
1000
0000
0000
,
0001
0001
0000
0000
,
0001
0001
0000
0000
,
1001
0000
0000
0000
,
0010
0000
0100
0000
,
1001
0000
0000
0000
,
0010
0000
0100
0000
,
0001
0000
0000
0000
,
0010
0000
0000
0000
,
1000
0000
0000
0000
,
1001
0000
1001
0000
,
1000
0000
0000
0000
,
0010
0000
0000
0000
,
0001
0000
0000
0000
,
1001
0000
1001
0000
,
0110
0000
0000
0000
,
0010
0000
0010
0000
,
0110
0000
0000
0000
,
0100
0000
0000
0000
,
0010
0010
0010
0000
,
0010
0010
0010
0000
,
0010
0010
0000
0000
,
0010
0000
0000
0000
,
0000
0000
0000
0000
;

//---------------dance-single - ----------------
#NOTES:
     dance-single:
     :
     Easy:
     5:
     :
0000
0000
0000
0000
,
0000
0000
0000
0000
,
0000
0000
0000
0000
,
0000
0000
0000
0000
,
0000
0000
0000
0000
,
0010
0000
0000
1000
,
0100
0000
0000
0010
,
0100
1000
0001
1000
,
0000
0001
1000
0001
,
1001
0000
0000
0010
,
1001
0000
0000
0100
,
1001
0000
0000
0001
,
0110
0000
0000
1000
,
0010
0100
0001
0000
,
0000
0000
0000
0000
,
1000
0001
0010
0000
,
0000
0000
0110
0000
,
0001
0010
0010
0001
,
1000
0100
0100
1000
,
0100
0001
0010
1000
,
1000
0001
0010
0110
,
0000
1000
0000
1000
,
0000
0001
0000
0001
,
0000
0010
0000
0010
,
0000
0100
0000
0100
,
0010
0100
0000
1001
,
0100
0010
0000
1001
,
1000
0001
0000
0110
,
0100
0100
0010
0010
,
0100
1001
0000
0100
,
0010
1001
0000
0010
,
0100
1001
0000
0100
,
0001
1000
0010
0110
,
0000
1000
0100
0010
,
0000
0001
0010
0100
,
0100
0100
0010
0010
,
0000
0001
0010
0100
,
1001
0000
0000
0000
,
0010
0010
0100
0100
,
0001
1000
0001
1000
,
0001
0000
0000
0000
,
0000
0000
0000
0000
;

//---------------dance-single - ----------------
#NOTES:
     dance-single:
     :
     Medium:
     6:
     :
0000
0000
0000
0000
,
0000
0000
0000
0000
,
0000
0000
0000
0000
,
0000
0000
0000
0000
,
0000
0000
0000
0000
,
0010
0100
1000
0001
,
0100
0010
0001
1000
,
1000
0100
1000
0000
0001
0010
0001
0000
,
1001
0000
0010
0000
,
0011
0000
1100
0000
,
0010
1000
0010
0001
,
0011
0000
1100
0000
,
0100
1000
0100
0001
,
1000
0000
1000
0000
0001
0010
0001
0000
,
1000
0000
1000
0000
0001
0100
0001
0000
,
0010
0010
1001
0000
,
1000
0001
1000
0000
0110
0000
0000
0000
,
1000
1000
0001
0001
,
1000
0100
0010
0001
,
0001
0010
0100
1000
,
0010
0010
0100
0100
,
1001
0010
1000
0001
,
0001
0010
0001
0010
,
1000
0010
1000
0010
,
1001
0000
1000
0000
,
0010
0000
0100
0000
0010
0100
0010
0000
,
0100
0000
0010
0000
1000
0001
1000
0000
,
0010
0000
0010
0000
0001
1000
0001
0000
,
0100
0010
1001
0000
,
0100
0000
0000
1000
0000
0000
0000
0000
,
0010
0000
0000
0001
0000
0000
0000
0000
,
0010
0000
0000
1001
0000
0000
0000
0000
,
0010
0100
0011
1100
,
0010
0100
0010
0000
,
0010
0100
0010
0000
,
0010
0100
0010
0000
1000
0000
0001
0000
,
0000
0000
0000
0000
,
1001
0000
1100
0011
,
1001
0000
1100
0000
,
1010
0000
0011
0000
,
0101
0000
0000
0000
,
0000
0000
0000
0000
;

//---------------dance-single - ----------------
#NOTES:
     dance-single:
     :
     Hard:
     8:
     :
0000
0000
0000
0000
,
0000
0000
0000
0000
,
0000
0000
0000
0000
,
0000
0000
0000
0000
,
0000
0000
0000
0000
,
0010
0100
1000
0001
,
0100
0010
0001
1000
,
0010
0100
0011
1100
,
0110
0000
0000
0000
0010
0000
0000
0010
,
0100
0000
0000
1100
0000
0000
0000
0100
,
0010
0000
0000
0011
0000
0000
0000
1001
,
0010
0000
0000
1001
0000
0000
0000
0000
,
0110
0000
1000
0000
0001
0000
0010
0001
,
1000
0000
1000
0000
0001
0000
0010
1000
,
0001
0000
0010
0001
1000
0000
0000
0000
,
1001
0010
0100
0000
,
0000
0000
0000
0000
0100
0000
0000
0000
0010
0000
0000
0010
0000
0000
0001
0000
,
1000
0101
1100
0011
,
1010
0000
0000
0000
0100
0000
0000
0000
0010
0000
0000
0001
0000
0000
0001
0000
,
1000
0000
1001
0000
0001
0000
0000
1000
,
0001
0000
0000
0001
1000
0010
0100
0001
,
1000
0010
1000
0001
,
0100
0010
0001
1000
,
0100
0000
0010
0000
1000
0000
0010
0100
,
1001
0000
0000
0000
1000
0000
0001
0010
,
0100
0000
0000
1010
0000
0000
0000
0100
,
0010
0000
0000
0011
0000
0000
0000
0010
,
0100
0000
0000
1001
0000
0000
0000
0100
,
0000
1001
0010
0000
1001
0100
0000
0010
,
0100
0000
0000
1001
0000
0000
0000
0100
,
0010
0000
0000
1100
0000
0000
0000
0010
,
0100
0000
0000
0101
0000
0000
0000
0010
,
0000
1000
0001
0000
1010
0000
0011
0000
,
0001
0100
0010
1001
,
0010
0100
1000
1001
,
1010
0100
1000
0010
,
0100
0000
0000
0100
0010
0000
0000
0000
,
1001
0000
1100
0011
,
1001
0000
1100
1001
,
1010
1001
0011
1001
,
0101
0000
0000
0000
,
0000
0000
0000
0000
;

//---------------dance-single - ----------------
#NOTES:
     dance-single:
     :
     Challenge:
     13:
     :
0000
0000
0000
0000
,
0000
0000
0000
0000
,
0000
0000
0000
0000
,
0000
0000
0000
0000
,
0000
0000
0000
0000
,
2000
0010
0000
0010
0000
0010
0000
3010
,
1000
0000
0100
0000
0010
0000
0001
0000
0200
0000
0000
0320
0000
0000
2030
0000
,
3002
0100
0103
0000
2000
0010
3010
0000
,
0200
1000
1300
0001
0200
0010
0310
0000
,
1001
0100
1000
0001
1000
0100
1000
0001
,
0010
0001
0100
0010
1000
0100
0001
0011
,
0011
0100
1000
0010
1000
0001
0010
0100
,
1000
0010
1000
0001
0010
0100
1000
1100
,
2100
0000
0001
0000
3001
0000
0000
0000
0102
0000
0000
0000
1003
0000
0100
0010
,
0100
0000
1000
0000
0001
0100
0000
0000
0020
0000
0000
2030
0000
0000
3001
0000
,
0012
0000
0103
1000
1020
0000
0130
0010
,
0110
0000
0000
0000
1000
0000
0001
0000
0011
0000
0000
0110
0000
0000
1100
0000
,
1001
0000
0010
0000
1000
0000
0100
0010
0002
0000
1000
0000
1003
0000
0010
0000
,
1000
0000
0100
0000
1000
0000
0001
0000
0010
0000
0001
1000
0000
0010
0100
0000
,
0120
0000
0000
0000
1030
0000
0010
0000
1000
0000
0001
0000
0010
0000
0001
0100
,
0001
0000
1000
0000
0010
0000
1000
0000
0100
0000
0010
0001
1000
0000
0010
0000
,
0101
0000
0000
0000
1010
0000
1000
0010
0000
1000
0001
0000
0001
0000
0100
0000
,
0010
1000
0000
0010
1000
0000
0100
0010
0000
0010
0001
0000
0001
0000
1000
0000
,
0010
0100
0000
0010
0100
0000
0001
1000
0000
1000
0100
0000
0100
0000
0010
0000
,
0001
1000
0000
0001
1000
0000
0100
0010
0000
0010
0001
0000
0001
0000
1000
0000
,
0020
0000
0000
0000
1030
0000
0100
0010
0002
0000
1000
0000
1003
0000
0010
0000
,
1000
0100
0000
1000
0100
0000
0020
0000
0000
0000
0001
0000
0031
0000
1000
0000
,
0010
1000
0000
0010
0100
0000
0002
1000
0000
0000
0100
0000
0103
0000
0001
0000
,
0010
0000
0011
0000
0101
0000
0001
1000
0100
0000
0100
0000
1000
0001
0010
0000
,
0100
1000
0000
1000
0001
0000
0200
0010
0000
0000
0001
0000
0301
0000
1000
0000
,
0010
1000
0000
1000
0100
0000
0020
0001
0000
0000
0100
0000
0130
0000
0010
0000
,
0001
1000
0000
0001
0100
0000
0010
1000
0000
0010
0100
0000
0001
0000
1000
0000
,
0100
0000
0000
0110
0000
0000
1001
0000
0000
0000
0000
0000
1000
0000
0100
0000
1000
0000
0001
0000
0100
0000
0001
0000
,
0020
0000
0000
0031
0000
0000
1100
0000
0000
0101
0000
0000
0000
0000
1000
0000
,
2000
0000
0000
3001
0000
0000
0011
0000
0000
1100
0000
0000
0010
0000
0100
0000
,
0002
0000
0000
1003
0000
0000
1010
0000
0000
0000
0101
0000
0000
0000
1000
0000
,
0002
0000
0100
0000
0103
0000
1010
0000
1020
0000
0000
2030
0000
0000
3001
0000
,
0200
0000
0310
1000
0200
0000
0310
0001
,
1000
0000
0010
0000
1000
0000
0001
0000
0010
0000
0001
0100
0001
0000
1000
0100
,
0010
0000
0001
0000
0100
0000
0010
1000
0000
0000
0100
0000
0010
0000
0001
1000
,
0000
0000
0010
0100
0010
0000
1000
0001
0000
0000
1000
0100
1000
0000
0001
0100
,
0002
2000
0000
3003
;

//---------------dance-double - ----------------
#NOTES:
     dance-double:
     :
     Easy:
     6:
     :
00000000
00000000
00000000
00000000
,
00000000
00000000
00000000
00000000
,
00000000
00000000
00000000
00000000
,
00000000
00000000
00000000
00000000
,
00000000
00000000
00000000
00000000
,
10000000
01000000
00100000
00010000
,
00010000
00100000
01000000
10000000
,
00010000
00001000
00011000
00010000
,
01100000
00000000
10010000
00000000
,
00100000
00000000
00000000
10000000
00000000
00000000
00000000
00000000
,
01000000
00000000
00000000
00010000
00000000
00000000
00000000
00000000
,
00001000
00000000
00000000
00001001
00000000
00000000
00000000
00000000
,
00000010
00000000
00000001
00000000
00000100
00000000
00000001
00000001
,
00001000
00001000
00000010
00000000
,
00001001
00000100
00001000
00000000
,
00001001
00000100
00000001
00000000
,
00000000
00000000
00000100
00000010
,
00001000
00011000
10000000
00010000
,
10000000
00100000
00010000
01000000
,
00010000
10000000
10000000
01000000
,
00010000
10000000
00100000
00011000
,
00001000
00000010
00001000
00000001
,
00000100
00000010
00001000
00000001
,
00000001
00000010
00000100
00001000
,
00010000
00100000
01000000
10000000
,
00100000
00000000
00000000
10100000
00000000
00000000
00000000
00000000
,
01000000
00000000
00000000
00110000
00000000
00000000
00000000
00000000
,
00000100
00000000
00000000
00001001
00000000
00000000
00000000
00000000
,
00000100
00000010
00001001
00000000
,
00000001
00000000
00000000
00001001
00000000
00000000
00000000
00000000
,
00001000
00000000
00000000
00000110
00000000
00000000
00000000
00000000
,
00001010
00000000
00000000
00011000
00000000
00000000
00000000
00000000
,
00010000
10000000
01010000
11000000
,
01000000
00100000
00001000
00010000
,
00001000
00010000
00000010
00001000
,
00010000
01000000
10010000
00100000
,
01000000
00000000
00000000
00010000
00001000
00000000
00000000
00000000
,
00011000
00000000
00001100
00000011
,
00011000
00000000
11000000
00000000
,
10100000
00000000
00110000
00000000
,
00011000
00000000
00000000
00000000
,
00000000
00000000
00000000
00000000
;

//---------------dance-double - ----------------
#NOTES:
     dance-double:
     :
     Medium:
     8:
     :
00000000
00000000
00000000
00000000
,
00000000
00000000
00000000
00000000
,
00000000
00000000
00000000
00000000
,
00000000
00000000
00000000
00000000
,
00000000
00000000
00000000
00000000
,
00100000
01000000
10000000
00010000
,
00001000
00000010
00000100
00000001
,
00001001
00001010
00000011
00000110
,
00001001
00000000
00000000
00000000
00000100
00000000
00000000
00000010
,
00000100
00000000
00000000
00000011
00000000
00000000
00000000
00000010
,
00000100
00000000
00000000
00001010
00000000
00000000
00000000
00001000
,
00000001
00000000
00000000
00000110
00000000
00000000
00000000
00000000
,
00001000
00000000
00010000
00000000
00100000
00000000
00100000
00010000
,
10000000
00000000
10000000
00000000
00010000
00000000
00100000
10000000
,
00010000
00000000
00100000
00010000
10000000
00000000
00000000
00000000
,
10010000
00100000
01000000
00000000
,
00000000
00000000
00000000
00000000
00100000
00000000
00000000
00000000
00010000
00000000
00000000
00001000
00000000
00000000
00000100
00000000
,
00000010
00001001
00000010
00000100
,
00001000
00000000
00000000
00000000
00010000
00000000
00000000
00000000
00100000
00000000
00000000
10000000
00000000
00000000
10000000
00000000
,
00100000
00000000
01100000
00000000
00010000
00000000
00000000
00001000
,
00001000
00000000
00000000
00000010
00000100
00001000
00010000
00001000
,
00010000
00000100
00001000
00100000
,
00010000
00000010
00011000
00100000
,
00011000
00000000
00000010
00000000
00011000
00000000
00010000
00001000
,
00010000
00000000
00000000
00000000
00000000
00000000
00001000
00010000
,
00001000
00000000
00000000
00011000
00000000
00000000
00000000
00000001
,
00000010
00000100
00001000
00011000
00000000
00000000
00000000
10000000
,
01000000
00100000
00010000
00011000
00000000
00000000
00000000
00000100
,
00000000
00000001
00001000
00000000
00000100
00000010
00000000
00000010
,
00000100
00000000
00000000
00011000
00000000
00000000
00000000
00010000
,
00000100
00000000
00000000
00011000
00000000
00000000
00000000
00001000
,
01000000
00000000
00000000
10010000
00000000
00000000
00000000
00100000
,
00000000
10000000
00010000
00000000
00001000
00000000
00000001
00000000
,
00000100
00000010
00011000
00010000
,
00001000
00000100
00001001
00000100
,
00000010
00001000
00011000
00100000
,
01000000
00000000
00000000
01000000
00100000
00000000
00000000
00000000
,
10010000
00000000
11000000
00110000
,
00011000
00000000
01001000
00011000
,
00010010
00011000
00101000
00011000
,
00010100
00000000
00000000
00000000
,
00000000
00000000
00000000
00000000
;

//---------------dance-double - ----------------
#NOTES:
     dance-double:
     :
     Hard:
     11:
     :
00000000
00000000
00000000
00000000
,
00000000
00000000
00000000
00000000
,
00000000
00000000
00000000
00000000
,
00000000
00000000
00000000
00000000
,
00000000
00000000
00000000
00000000
,
00002000
00000000
00000000
00000002
00000000
00000000
00000000
00000000
00000000
00000000
00000000
00000000
00000000
00000000
00000000
00000000
,
00000000
00000000
00000000
00000000
00003003
00000000
00000000
00000010
,
00000100
00000000
00000000
00001000
00000000
00000000
00000100
00000000
00010000
00000000
00000000
00000000
00000000
00000000
00001000
00000000
,
01000000
00000000
00000000
00010000
00000000
00000000
01000000
00000000
00100000
00000000
00000000
01000000
00000000
00000000
00001000
00000000
,
00010000
00000000
00000000
00000100
00000000
00000000
00001000
00000000
00000000
00000100
00000000
00000000
00000000
00000000
00000000
00000000
,
00000010
00000000
00000000
00010000
00000000
00000000
00001000
00000000
,
00020020
00000000
00000000
00030030
,
00001100
00000000
00000000
00202000
00000000
00000000
00303000
00000000
,
00110000
00000000
00000000
22000000
00000000
00000000
00000000
00000000
,
33000000
00000000
00000000
00000000
00000000
00000000
00000000
00000000
00100000
00000000
00000000
01000000
00000000
00000000
00010000
00000000
,
01000000
00000000
00000000
22000000
00000000
00000000
33000000
00000000
,
01000000
00000000
00000000
00000000
00010000
00000000
00000000
00000000
00001000
00000000
00000000
00000100
00000000
00000000
00000100
00000000
,
00000001
00000000
00000000
00000220
00000000
00000330
00000000
00000100
,
00001000
00000000
00000000
00000000
00010000
00000000
00000000
00000000
01000000
00000000
00000000
00001000
00000000
00000000
02000000
00000000
,
00020000
00000000
00000000
00000000
03030000
00000000
00000000
00002000
,
00000200
00000000
00003300
00000100
00000010
00000000
00000101
00000000
,
00001010
00000000
00000000
00000000
00000101
00000000
00000000
00000100
00000000
00000000
00001000
00000000
00010000
00000000
00001000
00000000
,
00000100
00001000
00000000
00000100
00001000
00000000
00010000
00001000
00000000
00010000
00001000
00000000
00000000
00000000
00000000
00000000
,
00100000
00010000
00000000
00100000
00010000
00000000
01000000
00010000
00000000
01000000
00010000
00000000
01000000
00000000
00100000
00000000
,
00010000
00100000
00000000
00010000
00100000
00000000
00010000
00001000
00000000
00010000
00001000
00000000
00000100
00000000
00000001
00000000
,
00000010
00000000
00001000
00010000
00000000
00000010
00000000
00010000
,
00100000
00000000
00010000
00001000
00000000
00100000
00000000
00001000
,
00000010
00000000
00001000
00010000
00000000
00000010
00000000
00010000
,
00000000
00000010
00000100
00000000
00001000
00010000
00000000
01000000
,
00100000
00000000
00010000
00001000
00000000
00100000
00000000
00001000
,
00000010
00000000
00001000
00010000
00000000
00000010
00000000
00010000
,
00100000
00000000
00010000
00001000
00000000
00100000
00000000
00001000
,
00000000
00000010
00000001
00000000
00002002
00000000
00003003
00000000
,
00000110
00000000
00000010
00010000
00000000
00001010
00000000
00010000
,
00000010
00000100
00000000
00000010
00010000
00000000
00000000
00001000
,
00100000
00000000
00010000
00100000
00000000
01001000
00000000
00100000
,
00001000
00000000
00000000
00010000
00100000
00000000
00100000
00001000
,
00010000
00000000
00000120
00001030
,
00001200
00010300
00012000
01003000
,
01020000
00130000
02100000
13000000
,
10010000
00000000
00000000
00000000
,
00000000
00000000
00000000
00000000
;
