#VERSION:0.83;
#TITLE:celebrate;
#SUBTITLE:;
#ARTIST:JJ COMPANY;
#TITLETRANSLIT:;
#SUBTITLETRANSLIT:;
#ARTISTTRANSLIT:;
#GENRE:;
#ORIGIN:;
#TAGS:;
#CREDIT:;
#BANNER:celebrate-bn.png;
#BACKGROUND:celebrate-bg.png;
#PREVIEWVID:;
#JACKET:celebrate-jacket.png;
#CDIMAGE:;
#DISCIMAGE:;
#LYRICSPATH:;
#CDTITLE:;
#MUSIC:celebrate.ogg;
#OFFSET:0.000000;
#SAMPLESTART:17.910999;
#SAMPLELENGTH:20.000000;
#SELECTABLE:YES;
#DISPLAYBPM:134.000000;
#BPMS:0.000000=133.996994;
#STOPS:;
#DELAYS:;
#WARPS:;
#TIMESIGNATURES:0.000000=4=4;
#TICKCOUNTS:0.000000=4;
#COMBOS:0.000000=1;
#SPEEDS:0.000000=1.000000=0.000000=0;
#SCROLLS:0.000000=1.000000;
#FAKES:;
#LABELS:0.000000=Song Start;
#BGCHANGES:;
#KEYSOUNDS:;
#ATTACKS:
;

//---------------dance-single - ----------------
#NOTEDATA:;
#CHARTNAME:;
#CHARTHASH:2147483647:
#STEPSTYPE:dance-single;
#BANNER:;
#DESCRIPTION:;
#CHARTSTYLE:;
#DIFFICULTY:Beginner;
#METER:2;
#METERF:0.000000;
#RADARVALUES:0.117466,0.175872,0.091362,0.000000,0.000000,81.000000,72.000000,9.000000,0.000000,0.000000,0.000000,0.000000,0.000000,0.000000,0.117466,0.175872,0.091362,0.000000,0.000000,81.000000,72.000000,9.000000,0.000000,0.000000,0.000000,0.000000,0.000000,0.000000;
#CREDIT:;
#DISPLAYBPM:134.000000;
#NOTES:
0000
0000
0000
0000
,
0000
0000
0000
0000
,
0000
0000
0000
0000
,
0000
0000
0000
0000
,
0000
0000
0000
0000
,
0000
0000
0000
0000
,
0010
0000
0000
0000
,
0100
0000
0000
0000
,
0010
0000
0000
0000
,
0100
0000
0000
0000
,
0001
0000
0001
0000
,
1000
0000
1000
0000
,
0010
0000
0100
0000
,
0110
0000
0110
0000
,
0001
0000
0001
0000
,
1000
0000
1000
0000
,
0001
0000
1000
0000
,
1001
0000
1001
0000
,
0001
0000
0000
0000
,
0010
0000
0000
0000
,
0001
0000
0010
0000
,
0001
0000
0010
0000
,
1000
0000
0000
0000
,
0010
0000
0000
0000
,
1000
0000
0010
0000
,
1000
0000
0010
0000
,
0100
0000
0000
0000
,
0100
0000
0000
0000
,
0100
0000
0100
0000
,
0100
0000
0100
0000
,
0001
0000
0000
0000
,
1000
0000
0000
0000
,
0010
0000
0010
0000
,
0010
0000
1001
0000
,
0010
0000
0010
0000
,
0010
0000
0010
0000
,
1001
0000
1001
0000
,
1000
0000
0001
0000
,
0100
0000
0100
0000
,
0100
0000
0100
0000
,
1001
0000
1001
0000
,
0010
0000
0010
0000
,
1000
0000
0000
0000
,
0100
0000
0000
0000
,
0001
0000
0000
0000
,
0010
0000
0000
0000
,
1000
0000
0100
0000
,
0001
0000
0010
0000
,
1000
0000
0100
0000
,
0001
0000
0010
0000
;

//---------------dance-single - ----------------
#NOTEDATA:;
#CHARTNAME:;
#CHARTHASH:585508101:
#STEPSTYPE:dance-single;
#BANNER:;
#DESCRIPTION:;
#CHARTSTYLE:;
#DIFFICULTY:Easy;
#METER:6;
#METERF:0.000000;
#RADARVALUES:0.263935,0.328269,0.162422,0.000000,0.000000,182.000000,166.000000,16.000000,0.000000,0.000000,0.000000,0.000000,0.000000,0.000000,0.263935,0.328269,0.162422,0.000000,0.000000,182.000000,166.000000,16.000000,0.000000,0.000000,0.000000,0.000000,0.000000,0.000000;
#CREDIT:;
#DISPLAYBPM:134.000000;
#NOTES:
0000
0000
0000
0000
,
0000
0000
0000
0000
,
0000
0000
0000
0000
,
0000
0000
0000
0000
,
0000
0000
0000
0000
,
0000
0000
0000
0000
,
0010
0000
0010
0000
,
1000
0000
1000
0000
,
0100
0000
0100
0000
,
0001
0000
0001
0000
,
0010
1000
0100
0000
,
0100
1000
0010
0000
,
0010
1000
0001
0100
,
0010
1000
0100
0001
,
1000
1000
0100
0000
,
0001
0001
0100
0000
,
0001
0001
1000
0001
,
0010
1001
0010
1001
,
1000
1000
0001
0100
,
1000
1000
0001
0100
,
0001
0001
1000
0100
,
0001
0001
1000
0100
,
0010
0010
1000
0100
,
0010
0010
0001
0100
,
0100
0100
0010
0100
,
0100
0100
0010
0100
,
0001
0001
1000
1000
,
0001
1000
0001
0001
,
1000
0100
0010
0100
,
0001
0001
1001
1001
,
0001
0100
0001
0100
,
1000
0100
1000
0100
,
0001
0001
1000
1000
,
0001
1000
0001
0100
,
1000
1000
1100
0010
,
0001
0001
0101
0010
,
1000
0100
0001
0100
,
0001
0001
1000
1000
,
0010
0010
1001
0010
,
0010
0010
1001
0010
,
0010
1000
0100
0001
,
0110
1001
1100
0101
,
1000
1000
0001
0001
,
0010
0010
0100
0100
,
0010
1000
0001
0100
,
0010
1000
0001
0100
,
0010
1001
0100
1001
,
0010
1100
0010
0101
,
0001
1000
0001
1000
,
0001
1000
0100
0000
1000
0001
0100
0000
;

//---------------dance-single - ----------------
#NOTEDATA:;
#CHARTNAME:;
#CHARTHASH:2147483647:
#STEPSTYPE:dance-single;
#BANNER:;
#DESCRIPTION:;
#CHARTSTYLE:;
#DIFFICULTY:Medium;
#METER:7;
#METERF:0.000000;
#RADARVALUES:0.279887,0.303018,0.050757,0.000000,0.000000,193.000000,188.000000,5.000000,0.000000,0.000000,0.000000,0.000000,0.000000,0.000000,0.279887,0.303018,0.050757,0.000000,0.000000,193.000000,188.000000,5.000000,0.000000,0.000000,0.000000,0.000000,0.000000,0.000000;
#CREDIT:;
#DISPLAYBPM:134.000000;
#NOTES:
0000
0000
0000
0000
,
0000
0000
0000
0000
,
0000
0000
0000
0000
,
0000
0000
0000
0000
,
0000
0000
0000
0000
,
0000
0000
0000
0000
,
0010
0001
0010
0001
,
0100
0001
0100
0001
,
0010
1000
0010
1000
,
0100
1000
0100
1000
,
0010
1000
0100
1001
,
0100
1000
0010
1001
,
0010
1000
0100
0000
0001
0100
0000
0000
,
0010
1000
0100
0001
,
1000
0000
0100
0000
0001
0100
0000
0000
,
0001
0000
0100
0000
1000
0100
0000
0000
,
0010
0001
0100
0000
0001
0010
1000
0000
,
1000
1000
0100
1000
,
0010
0010
0001
0010
,
0001
0001
0100
0001
,
0010
1000
0010
1000
,
0001
0100
0001
0100
,
0010
1000
0100
0001
,
1000
0001
0100
0100
,
0010
0100
0010
0000
1000
0000
0001
0000
,
0010
0000
0010
1000
0100
0000
0100
0000
,
1000
0000
1000
0100
0001
0000
0001
0000
,
1000
1000
0001
0001
,
0010
1000
0001
0000
1000
0000
1000
0000
,
0001
0100
0001
0000
1000
0000
1000
0000
,
0001
0100
0001
0100
,
1000
0100
1000
0100
,
0010
0010
0001
0001
,
1000
1000
0100
0100
,
0001
0100
1000
0000
0010
0010
0000
0000
,
1000
0100
0001
0000
0010
0010
0000
0000
,
0010
0001
1000
0000
0010
1000
0001
0000
,
0001
0001
0100
1000
,
1010
0001
0100
0000
,
0011
1000
0100
0000
,
0010
1000
0100
0001
,
1000
0100
0001
0100
,
0010
0001
0010
0001
,
0010
1000
0010
1000
,
0010
0010
1000
1000
,
0100
0100
0001
0001
,
0010
1000
0100
0001
,
0010
1000
0100
0001
,
0100
1000
0100
0001
,
1001
0100
0100
0000
1000
0010
0010
0000
;

//---------------dance-single - ----------------
#NOTEDATA:;
#CHARTNAME:;
#CHARTHASH:2147483647:
#STEPSTYPE:dance-single;
#BANNER:;
#DESCRIPTION:;
#CHARTSTYLE:;
#DIFFICULTY:Hard;
#METER:10;
#METERF:0.000000;
#RADARVALUES:0.379951,0.429275,0.020303,0.000000,0.035530,262.000000,260.000000,2.000000,0.000000,0.000000,0.000000,0.000000,0.000000,0.000000,0.379951,0.429275,0.020303,0.000000,0.035530,262.000000,260.000000,2.000000,0.000000,0.000000,0.000000,0.000000,0.000000,0.000000;
#CREDIT:;
#DISPLAYBPM:134.000000;
#NOTES:
0000
0000
0000
0000
,
0000
0000
0000
0000
,
0000
0000
0000
0000
,
0000
0000
0000
0000
,
0000
0000
0000
0000
,
0000
0000
0000
0000
,
0010
0010
0001
0000
0010
0010
1000
0000
,
0000
0000
0001
1000
0001
0000
0000
0000
0100
0000
0000
0000
0100
0000
0000
0000
,
0010
0100
0000
0001
0000
1000
0100
0000
0000
0000
0000
0000
0100
0000
0000
0000
,
0010
0010
1000
0001
0100
0100
0010
0010
,
1000
1000
1000
0000
0001
0100
0000
0000
,
0001
0001
0001
0000
1000
0100
0000
0001
,
0010
1000
0100
0000
0001
0100
0100
0000
,
0010
1000
0001
1000
,
0001
0001
0001
0000
1000
0100
0000
0000
,
1000
1000
1000
0000
0001
0100
0000
0000
,
0010
0001
0100
0000
0010
1000
1000
0000
,
0001
1000
0001
1000
,
1000
0010
1000
0001
1000
0010
1000
0000
,
0001
0100
0001
1000
0001
0100
0001
0000
,
1000
0010
1000
0100
1000
0010
1000
0000
,
0001
0100
0001
0010
0001
0100
0001
0000
,
1000
0100
0001
0100
1000
0100
0001
0000
,
0100
0010
1000
0010
0001
0010
0100
0000
,
0010
1000
0010
1000
0001
1000
0100
0000
,
0010
0001
0010
0001
1000
0001
0100
0000
,
0000
0010
0001
0100
0000
1000
0000
0001
,
0010
0001
0100
1000
0000
0000
0000
0000
,
0000
0000
0010
0000
0001
0000
1000
0000
0100
0000
0000
0000
0000
0000
1000
0100
,
1000
0001
0000
0000
0100
0000
0100
0000
,
0000
0000
0000
0000
0000
0000
0000
0000
0000
0000
0001
0000
1000
0100
0000
0000
,
0000
0000
0000
0000
0000
0000
0000
0000
0000
0000
1000
0000
0001
0100
0000
0000
,
0100
0100
0001
0001
,
1000
1000
0100
0100
,
0001
0100
0001
0001
0010
0010
0000
0000
,
1000
0100
1000
1000
0010
0010
0000
0001
,
0010
0001
1000
0010
0010
1000
0001
0000
,
1000
1000
0001
0001
0010
1000
0001
0000
,
1010
0001
0001
0100
0100
0100
0000
0000
,
0011
1000
1000
0100
0100
0100
0000
0000
,
0010
1000
0001
0100
0010
1000
0001
0100
,
1000
1000
0001
0001
0100
0000
0100
0000
,
0010
0001
0010
0001
0010
0001
0010
0001
,
0100
0001
0100
0001
0100
0001
0100
0001
,
0100
1000
0100
1000
0100
1000
0100
1000
,
0010
1000
0010
1000
0010
1000
0010
1000
,
0001
0000
0100
0000
1000
0100
0010
0000
,
0001
0000
0100
0000
1000
0100
0010
0000
,
1000
0100
0001
0100
,
1000
0100
0100
0000
0001
0100
0100
0000
;

//---------------dance-double - ----------------
#NOTEDATA:;
#CHARTNAME:;
#CHARTHASH:2147483647:
#STEPSTYPE:dance-double;
#BANNER:;
#DESCRIPTION:;
#CHARTSTYLE:;
#DIFFICULTY:Easy;
#METER:8;
#METERF:0.000000;
#RADARVALUES:0.269736,0.303018,0.030454,0.000000,0.000000,186.000000,183.000000,3.000000,0.000000,0.000000,0.000000,0.000000,0.000000,0.000000,0.269736,0.303018,0.030454,0.000000,0.000000,186.000000,183.000000,3.000000,0.000000,0.000000,0.000000,0.000000,0.000000,0.000000;
#CREDIT:;
#DISPLAYBPM:134.000000;
#NOTES:
00000000
00000000
00000000
00000000
,
00000000
00000000
00000000
00000000
,
00000000
00000000
00000000
00000000
,
00000000
00000000
00000000
00000000
,
00000000
00000000
00000000
00000000
,
00000000
00000000
00000000
00000000
,
00000010
00010000
01000000
10000000
,
00100000
00001000
00000100
00000001
,
00000010
00010000
01000000
10000000
,
00010000
00000010
00000100
00000100
,
00000010
00001000
00010000
01000000
,
00100000
00010000
00001000
00000100
,
00000010
00000000
00001000
00000000
00010000
00100000
10000000
00000000
,
00100000
00010000
00001000
00000001
,
00001000
00000000
00010000
00000000
01000000
10000000
00000000
00000000
,
00010000
00000000
00001000
00000000
00000100
00000001
00000000
00000000
,
00000010
00010000
01000000
00000000
,
10000000
00000000
00010000
00010000
,
10000000
00010000
00001000
00000001
,
00000001
00001000
00010000
10000000
,
00100000
00010000
00001000
00000010
,
00000100
00001000
00010000
01000000
,
10000000
00100000
00010000
00000100
,
00000001
00000010
00001000
01000000
,
00100000
00010000
00001000
00000000
00000001
00000000
00000100
00000000
,
00001000
00000000
00010000
00000010
00000100
00000000
00000001
00000000
,
00010000
00000000
00100000
00001000
01000000
00000000
10000000
00000000
,
10000000
10000000
00010000
00010000
,
00001000
00001000
00000001
00000001
,
00000001
00000100
00001000
00000000
00010000
00000000
10010000
00000000
,
00100000
10000000
01000000
00010000
,
00001000
00000100
00000001
00000010
,
00000001
00000001
00000100
00001000
,
00010000
00010000
01000000
10000000
,
00100000
10000000
01000000
00000000
00010000
00000100
00000000
00000000
,
00000010
00000001
00000100
00000000
00001000
01000000
00000000
00000000
,
00100000
00010000
01000000
00000000
00000010
00001000
00000100
00000000
,
00010000
00010000
00001000
00000100
,
00000101
00001000
00010000
00000000
,
11000000
00010000
00001000
00000000
,
00000010
00000001
00000100
00001000
,
00010000
01000000
10000000
00100000
,
00010000
01000000
00100000
00100000
,
00001000
00000100
00000010
00000010
,
00010000
01000000
10000000
00100000
,
00001000
00000100
00000001
00000010
,
00010000
01000000
00100000
00001000
,
00000100
00000010
00010000
01000000
,
00100000
10000000
00100000
10000000
,
01000000
00010000
00010000
00000000
00000100
00001000
00001000
00000000
;

//---------------dance-double - ----------------
#NOTEDATA:;
#CHARTNAME:;
#CHARTHASH:526431672:
#STEPSTYPE:dance-double;
#BANNER:;
#DESCRIPTION:;
#CHARTSTYLE:;
#DIFFICULTY:Medium;
#METER:10;
#METERF:0.000000;
#RADARVALUES:0.365449,0.454527,0.263935,0.192876,0.030454,252.000000,226.000000,26.000000,19.000000,0.000000,0.000000,0.000000,0.000000,0.000000,0.365449,0.454527,0.263935,0.192876,0.030454,252.000000,226.000000,26.000000,19.000000,0.000000,0.000000,0.000000,0.000000,0.000000;
#CREDIT:;
#DISPLAYBPM:134.000000;
#NOTES:
00000000
00000000
00000000
00000000
,
00000000
00000000
00000000
00000000
,
00000000
00000000
00000000
00000000
,
00000000
00000000
00000000
00000000
,
00000000
00000000
00000000
00000000
,
00000000
00000000
00000000
00000000
,
00011000
00000000
00000000
00000000
,
00000000
00000000
00001000
00000000
00001000
00000100
00000000
00000000
00000000
00000000
00000000
00000000
00000000
00000000
00000000
00000000
,
00000100
00001000
00000000
00010000
00000000
01000000
00010000
00000000
00000000
00000000
00000000
00000000
00001000
00000100
00001000
00000100
,
00001000
00000000
00000110
00000000
00000001
00000100
00000001
00000100
,
00000201
00000000
00001300
00000000
00010000
00001000
00000000
00000000
,
00001200
00000000
00000301
00000000
00000010
00000001
00000000
00000000
,
00000001
00000100
00001000
00010000
00001000
00000100
00001000
00000000
,
00001000
00010000
00001000
00000000
00000010
00001000
00000010
00000000
,
00020010
00000000
00031000
00000000
00010000
01000000
00000000
00000000
,
02100000
00000000
03010000
00000000
00001000
00000100
00000000
00000000
,
00000100
00000001
00000010
00000000
00000100
00001000
00000010
00000000
,
00000010
00010000
00001000
00100000
00010000
00000000
11000000
00000000
,
10000000
02000000
00000000
00100000
00000000
00010000
00000000
03100000
,
01000000
00010000
00001000
00000000
00010000
00001000
00000100
00000000
,
00000001
00000200
00000000
00000010
00000000
00001000
00000000
00000310
,
00000100
00001000
00010000
00000000
00001000
00010000
00001000
00000000
,
00001000
00000010
00000001
00000000
00001100
00000000
00000011
00000000
,
00000001
00000100
00001000
00000000
00000011
00000000
00001100
00000000
,
00000100
00001000
00010000
00000000
00010000
00001000
00000100
00000000
,
00000100
00001000
00000100
00000000
00000100
00000001
00000100
00000000
,
00000000
00000010
00010000
00001000
00000000
00000010
00001000
00001000
,
00000000
00001000
00000010
00010000
00001000
00000000
00101000
00000000
,
00100000
00001000
00010000
00000000
00010000
00001000
00100000
00000000
,
00010000
00100000
00100000
00000000
11000000
00000000
01010000
00000000
,
00100000
10000000
02000000
00000000
03000000
00100000
00010000
01000000
,
00100000
10000000
02000000
00000000
03000000
00100000
00010000
01000000
,
01000000
00001000
00010000
00000000
00010000
00000100
00001000
00000000
,
00002200
00000000
00003300
00000100
00000001
00000000
00000000
00000000
,
00010200
00000000
00001300
00000000
00010000
00001000
00000000
00000000
,
02001000
00000000
03010000
00000000
00001000
00010000
00000000
00000000
,
00010000
00000010
00001000
00000000
00001000
00000010
00010000
00000000
,
00001000
00000010
00001000
00000000
00000010
00010000
00001000
00000000
,
00012000
00000000
01003000
00000000
00010000
01000000
00000000
00000000
,
00021000
00000000
00030100
00000000
00001000
00000100
00000000
00000000
,
00000010
00000001
00000010
00000000
00000100
00001000
00000000
00000000
,
00010100
00001000
00101000
00010000
,
00100000
00000000
01010000
00000000
00001000
00000200
00000001
00000000
,
00000310
00000000
00001100
00000000
00010000
02000000
10000000
00000000
,
03100000
00000000
01010000
00000000
00001000
00000200
00000001
00000000
,
00000310
00000000
00001100
00000000
00010000
02000000
10000000
00000000
,
03100000
01000000
00010000
00000000
00001000
00000100
00000010
00000000
,
00000010
00000100
00001000
00000000
00010000
01000000
00100000
00000000
,
00120000
10000000
01000000
10030000
,
01000000
00010000
00001000
00000000
00000100
00001000
00010000
00000000
;

//---------------dance-double - ----------------
#NOTEDATA:;
#CHARTNAME:;
#CHARTHASH:1760035215:
#STEPSTYPE:dance-double;
#BANNER:;
#DESCRIPTION:;
#CHARTSTYLE:;
#DIFFICULTY:Hard;
#METER:11;
#METERF:0.000000;
#RADARVALUES:0.384301,0.429275,0.030454,0.000000,0.015227,265.000000,262.000000,3.000000,0.000000,0.000000,0.000000,0.000000,0.000000,0.000000,0.384301,0.429275,0.030454,0.000000,0.015227,265.000000,262.000000,3.000000,0.000000,0.000000,0.000000,0.000000,0.000000,0.000000;
#CREDIT:;
#DISPLAYBPM:134.000000;
#NOTES:
00000000
00000000
00000000
00000000
,
00000000
00000000
00000000
00000000
,
00000000
00000000
00000000
00000000
,
00000000
00000000
00000000
00000000
,
00000000
00000000
00000000
00000000
,
00000000
00000000
00000000
00000000
,
00000010
00001000
00010000
00000000
01000000
10000000
10000000
00000000
,
00100000
00010000
00001000
00000000
00000100
00000001
00000001
00000000
,
00000010
00001000
00010000
00000000
01000000
00010000
10010000
00000000
,
00010000
00000000
00001000
00000000
00000001
00001000
00000100
00000100
,
00000010
00000001
00000100
00000000
00000100
00001000
00000000
00000000
,
00100000
10000000
01000000
00000000
01000000
00010000
00000000
00001000
,
00100000
00010000
01000000
00000000
00000010
00001000
00000100
00000000
,
00100000
00010000
00000010
00001000
,
00000001
00000100
00001000
00000000
00010000
01000000
00000000
00000000
,
10000000
01000000
00010000
00000000
00001000
00000100
00000000
00000000
,
00000100
00001000
00010000
00000000
01000000
00010000
00001000
00000000
,
00100000
00010000
00000100
00001000
,
00000010
00000100
00001000
00010000
00100000
01000000
10000000
00000000
,
00100000
01000000
00010000
00001000
00000010
00000100
00000001
00000000
,
00000010
00000100
00001000
00010000
00100000
01000000
10000000
00000000
,
00100000
01000000
00010000
00001000
00000010
00000100
00000001
00000000
,
00000010
00001000
00010000
01000000
10000000
01000000
00010000
00000000
,
00100000
00010000
00001000
00000100
00000001
00000100
00001000
00000000
,
00000010
00001000
00010000
01000000
10000000
01000000
00010000
00000000
,
00100000
00010000
00001000
00000100
00000001
00000100
00001000
00000000
,
00000000
00100000
00001000
00010000
00000000
00000010
00000000
00000010
,
00010000
00001000
01000000
01000000
00000000
00000000
00000000
00000000
,
00000000
00000000
00100000
00000000
00001000
00000000
00010000
00000000
00000100
00000000
00000000
00000000
00000000
00000000
00010000
00001000
,
00010000
00001000
00000000
00000000
00000100
00000000
00000100
00000000
,
00000000
00000000
00000000
00000000
00000000
00000000
00000000
00000000
00000000
00000000
00000001
00000000
00000100
00000001
00000000
00000000
,
00000000
00000000
00000000
00000000
00000000
00000000
00000000
00000000
00000000
00000000
10000000
00000000
01000000
10000000
00000000
00000000
,
10000000
10000000
00010000
00010000
,
00001000
00001000
00000001
00000001
,
00000010
00000001
00000100
00001000
00010000
00010000
00000000
00000000
,
00100000
10000000
01000000
00010000
00001000
00001000
00000000
00010000
,
00001000
00000100
00000001
00000100
00001000
00010000
00001000
00000000
,
00100000
00010000
00001000
00010000
00100000
00010000
00001000
00000000
,
00000101
00001000
00001000
00001000
00010000
01000000
00000000
00000000
,
11000000
00010000
00010000
00010000
00001000
00000100
00000000
00000000
,
00000100
00000001
00000010
00000100
00001000
00000001
00000100
00001000
,
00010000
01000000
10000000
00010000
,
00100000
10000000
00010000
01000000
00000010
00001000
00000001
00000100
,
00000010
00001000
00010000
01000000
00100000
10000000
00010000
01000000
,
00000010
00001000
00000001
00000100
00000010
00001000
00010000
01000000
,
00100000
10000000
00010000
01000000
00000010
00001000
00000001
00000000
,
00000010
00001000
00010000
00001000
00100000
00010000
00001000
00010000
,
01000000
00010000
00001000
00010000
00000100
00001000
00000001
00000100
,
00000001
00001000
00010000
10000000
,
00010000
10000000
00010000
00000000
00001000
00000001
00001000
00000000
;

//---------------dance-single - ----------------
#NOTEDATA:;
#CHARTNAME:;
#CHARTHASH:0:
#STEPSTYPE:dance-single;
#BANNER:;
#DESCRIPTION:;
#CHARTSTYLE:;
#DIFFICULTY:Challenge;
#METER:13;
#METERF:0.000000;
#RADARVALUES:0.610532,0.668086,0.588779,0.345146,0.192876,421.000000,363.000000,58.000000,34.000000,0.000000,0.000000,0.000000,0.000000,0.000000,0.610532,0.668086,0.588779,0.345146,0.192876,421.000000,363.000000,58.000000,34.000000,0.000000,0.000000,0.000000,0.000000,0.000000;
#CREDIT:;
#DISPLAYBPM:134.000000;
#NOTES:
// measure 0
0000
0000
0000
0000
,  // measure 1
0000
0000
0000
0000
,  // measure 2
0000
0000
0000
0000
,  // measure 3
0000
0000
0000
0000
,  // measure 4
1000
0001
1000
0001
0100
0001
0100
0001
0010
0100
0010
0100
0010
0001
0010
0001
,  // measure 5
0100
0000
0110
0000
1001
0000
1000
0001
,  // measure 6
0010
0000
1000
0000
0010
0000
0001
0000
0001
0100
0000
0100
0010
0000
1000
0000
,  // measure 7
0100
0000
0010
0000
0010
0001
0000
0000
1000
0010
1000
0010
0100
0001
1000
0000
,  // measure 8
0010
1000
0000
0001
0000
1000
0200
0000
0000
0000
0000
0000
0310
0001
1000
0010
,  // measure 9
0100
0000
0101
0000
1100
1000
0001
0100
,  // measure 10
2010
0010
0010
3010
1100
1100
0001
0000
,  // measure 11
0021
0001
0001
0031
0101
0101
1000
0000
,  // measure 12
0010
0100
0101
1000
0010
2100
0001
0000
,  // measure 13
3020
0000
0000
0000
0130
0000
0001
0000
2000
0000
0000
0000
3100
0010
0000
0000
,  // measure 14
0012
1000
1000
1003
1010
1010
0100
0000
,  // measure 15
0102
0100
0100
0103
1001
1001
0010
0000
,  // measure 16
1000
0001
1000
0000
0020
0000
0000
0000
0130
0001
0100
0000
0010
0000
2000
0000
,  // measure 17
0001
0000
0100
0100
3200
0010
0320
0000
,  // measure 18
0031
0100
0010
0100
1000
0100
0010
0100
,  // measure 19
1000
0100
0001
0010
1000
0010
0100
1000
,  // measure 20
0010
0100
0010
0001
0010
1000
0100
0001
,  // measure 21
0200
1000
1300
0001
0200
0010
0310
0000
,  // measure 22
1000
0000
0010
0100
0000
0100
0001
0000
0011
0000
0011
0000
0011
0000
0100
0000
,  // measure 23
2000
0001
0001
0000
3100
0010
0120
0000
,  // measure 24
0031
0100
0010
1000
0001
0010
0100
1000
,  // measure 25
0002
0000
0100
0000
0103
0000
0000
0010
1000
0001
1000
0000
0100
0010
0000
0000
,  // measure 26
0001
0001
0001
0100
0010
1000
0101
1100
,  // measure 27
0001
0100
0010
1000
0100
0001
0200
0000
,  // measure 28
1300
0000
1000
0000
1000
0000
0001
0000
0200
0000
0010
0000
0310
0000
1000
0001
,  // measure 29
1000
0000
2010
0000
3001
0000
0100
0000
0110
0000
0000
0000
1001
0000
1000
0100
,  // measure 30
1000
0010
0100
1000
0100
0001
0011
0100
,  // measure 31
1000
0010
0001
0010
0100
0001
1100
0010
,  // measure 32
0002
0000
0000
0000
0203
0000
0000
0000
0310
0000
1000
0000
1000
0100
1000
0100
,  // measure 33
0010
0001
0010
0001
0100
0010
0100
0010
1000
0000
0002
0000
2003
0000
3100
0000
,  // measure 34
1002
0010
0010
0013
0011
0011
1000
0000
,  // measure 35
1200
0001
0001
0301
0110
0110
1000
0000
,  // measure 36
0010
0100
1010
0001
1000
0110
0010
0000
,  // measure 37
2100
0000
0000
0000
3001
0000
1000
0000
0020
0000
0100
0000
0130
0001
0000
0000
,  // measure 38
0201
0010
0010
0310
1010
1010
0100
0000
,  // measure 39
0021
0100
0100
0130
0110
0110
0001
0000
,  // measure 40
1000
0001
1000
0000
0020
0000
0100
0000
0130
0001
1000
0000
0010
0000
0200
0000
,  // measure 41
0001
1000
0302
1003
,  // measure 42
1001
0100
0010
1000
0100
0010
0001
0000
,  // measure 43
0011
1000
0001
1000
0010
0100
0001
0000
,  // measure 44
1100
0010
0100
0010
1000
0100
0001
0000
,  // measure 45
0101
0010
1000
0100
1000
0010
0001
0000
,  // measure 46
0110
0010
1000
0010
0100
1000
0100
0001
,  // measure 47
0100
0010
0100
1000
0100
0001
0100
0010
,  // measure 48
1000
0100
0001
0100
0010
0100
0001
0100
,  // measure 49
1100
1100
1100
0000
0101
0101
0101
0000
,  // measure 50
2001
0001
0001
3001
0110
0110
0000
0000
;
