#TITLE:cat's scat;
#ARTIST:Q-Mex;
#BANNER:cat's scat-bn.png;
#BACKGROUND:cat's scat-bg.png;
#JACKET:cat's scat-jacket.png;
#MUSIC:cat's scat.ogg;
#SAMPLESTART:14.222;
#SAMPLELENGTH:20;
#DISPLAYBPM:135;
#BPMS:0=135;
#BGCHANGES:;

//---------------dance-single - ----------------
#NOTES:
     dance-single:
     :
     Beginner:
     3:
     :
0000
0000
0000
0000
,
2000
0000
3000
0000
,
0220
0000
0330
0000
,
0002
0000
0003
0000
,
2000
0000
3000
0000
,
2002
0000
3003
0000
,
1001
0000
1001
0000
,
0110
0000
0110
0000
,
0001
0000
0001
0000
,
1000
0000
1000
0000
,
0010
0000
0010
0000
,
0100
0000
0100
0000
,
0001
0000
0010
0000
,
0100
0000
1000
0000
,
0001
0000
0100
0000
,
0010
0000
1000
0000
,
0000
0100
0000
0010
,
0000
0100
0000
0010
,
0000
0001
0000
1000
,
0000
0001
0000
1000
,
0000
0000
0010
0000
,
1000
0000
0100
0000
,
1000
0000
0001
0000
,
0100
0000
0010
0000
,
1001
0000
0110
0000
,
0001
0001
0000
1000
,
1000
0000
0010
0000
,
1000
0000
0001
0000
,
0100
0000
0010
0000
,
0000
1001
0000
0000
,
0001
0000
0110
0000
,
0002
0000
0003
0000
,
2000
0000
3000
0000
,
0010
0000
0100
0000
,
0020
0000
0030
0000
,
0200
0000
0300
0000
,
0001
0001
0000
0000
,
0002
0000
0003
0000
,
2000
0000
3000
0000
,
1001
0000
1001
0000
,
0110
0000
0110
0000
,
0001
0000
1000
0000
,
0010
0000
0100
0000
,
0001
0000
0010
0000
,
0100
0000
1000
0000
,
0110
0000
1000
0000
,
1001
0000
0001
0000
,
0110
0000
0100
0000
,
0010
0010
0010
0000
,
2002
0000
0000
0000
,
3003
0000
0000
0000
;

//---------------dance-single - ----------------
#NOTES:
     dance-single:
     :
     Easy:
     6:
     :
0000
0000
0000
0000
,
1000
1000
1000
0000
,
0220
0000
0000
0330
,
0001
0001
0001
0000
,
1000
1000
1000
0000
,
2002
0000
0000
3003
,
1001
0100
1001
0100
,
0110
0001
1000
0001
,
0010
0001
2000
3000
,
0010
1000
0200
0300
,
0010
0001
0200
0300
,
0001
0100
2000
3000
,
0010
1000
0200
0300
,
1000
0001
0020
0030
,
0100
0010
0002
0003
,
0100
0001
2000
3000
,
0010
1001
1000
0001
,
0100
0110
0001
1000
,
0010
1001
1000
0001
,
0100
0110
0001
1000
,
0100
0010
0002
0003
,
1000
0010
0200
0300
,
0010
1000
0002
0003
,
1000
0100
0002
0003
,
0200
0300
0110
0001
,
1000
0101
0100
0010
,
0101
1000
0002
0013
,
0001
0100
0020
1030
,
0100
0010
0200
1300
,
0010
1001
0000
0100
,
0001
1000
0220
0330
,
0001
0001
0001
0000
,
1000
1000
1000
0000
,
0020
0100
0200
0330
,
0010
0010
0010
0000
,
0100
0100
0100
0000
,
1001
1100
0000
0000
,
0001
0001
0001
0000
,
1000
1000
1000
0000
,
1001
0100
1001
0100
,
0110
0001
1000
0001
,
1000
0010
2020
3030
,
0100
0001
0202
0303
,
0010
0001
0022
0033
,
1000
0100
2200
3300
,
0001
1000
2002
3003
,
0010
0100
0220
0330
,
1001
0100
1001
0100
,
0101
1100
0101
1100
,
2002
0000
0000
0000
,
3003
0000
0000
0000
;

//---------------dance-single - ----------------
#NOTES:
     dance-single:
     :
     Medium:
     10:
     :
0000
0000
0000
0000
,
1000
0001
1000
0001
1000
0001
0100
0000
,
0220
0000
0000
0330
,
0001
1000
0001
1000
0001
1000
0100
0000
,
1000
0001
1000
0001
1000
0001
0100
0000
,
2002
0000
0000
3003
,
0000
0100
0010
0100
0000
0100
0010
0100
,
0101
1100
0101
1100
,
1000
0100
0001
0100
2000
0000
3000
0001
,
0001
0100
1000
0100
0002
0000
0003
1000
,
1000
0010
0001
0010
2000
0000
3000
0001
,
0001
0010
1000
0010
0002
0000
0003
0100
,
0100
1000
0100
0001
0200
0000
0300
0010
,
0010
0001
0010
1000
0020
0000
0030
0100
,
0100
0001
0100
1000
0200
0000
0300
0010
,
0010
1000
0010
0001
0020
0000
0030
0000
,
1000
0000
0000
0100
1000
0000
0010
0000
0100
0000
0001
0000
0010
0000
0000
0000
,
0000
0000
0000
0010
0001
0000
0100
0000
0010
0000
1000
0000
0100
0000
0000
0000
,
0000
0000
0000
0100
1000
0000
0010
0000
0100
0000
0001
0000
0010
0000
0000
0000
,
0000
0000
0000
0010
0001
0000
0100
0000
0010
0000
1000
0000
0100
0000
0000
0000
,
1000
0001
0010
0001
2000
0000
3000
0100
,
0100
0010
0001
0100
0020
0000
0030
1000
,
1000
0001
0100
0001
2000
0000
3000
0010
,
0010
1000
0100
0010
0002
0000
0003
1000
,
2020
0000
0000
0000
3030
0000
0000
0000
0101
0000
0000
0000
0001
0000
0000
1000
,
0001
0100
0101
0000
1000
0000
0100
0010
,
0110
0000
0001
0100
2000
0000
3100
0001
,
0010
0001
1000
0001
0200
0000
0310
1000
,
0100
0010
0100
1000
0002
0000
0103
0010
,
1000
0000
1001
0000
0000
0001
0000
0001
,
1000
0100
1000
0100
0220
0000
0330
0000
,
0001
1000
0001
1000
0001
1000
0100
0000
,
1000
0001
1000
0001
1000
0001
0100
0000
,
0020
0100
0000
0100
0000
0100
0000
0130
0000
0000
0000
0000
0000
0000
0000
0000
,
0001
1000
0001
1000
0001
1000
0100
0000
,
1000
0001
1000
0001
1000
0001
0100
0000
,
1001
0000
1100
0000
0000
0010
0000
0000
,
0001
1000
0001
1000
0001
1000
0100
0000
,
1000
0001
1000
0001
1000
0001
0100
0000
,
0000
0100
0010
0100
0000
0100
0010
0100
,
0000
0001
1000
0001
0100
0001
1000
0001
,
0010
0001
1000
0001
0020
0000
0030
0100
,
0100
0010
0001
1000
0002
0000
0003
1000
,
1000
0010
0001
0010
2000
0000
3000
0100
,
0100
0010
0001
0100
0020
0000
0030
1000
,
1000
0001
0010
0001
0200
0000
0300
0010
,
0010
0100
0010
1000
0200
0000
0300
0001
,
0001
1000
1100
0000
0010
0100
0001
0000
,
1000
0001
1000
0001
1000
0001
1000
0000
,
0022
0000
0000
0000
,
0033
0000
0000
0000
;

//---------------dance-single - ----------------
#NOTES:
     dance-single:
     :
     Hard:
     13:
     :
0000
0000
0000
0000
,
1000
0000
0010
0000
1000
0000
1000
0000
1000
0000
0001
0100
0000
0000
0000
0000
,
0220
0000
0000
0330
,
0001
0000
0010
0000
0001
0000
0001
0000
0001
0000
1000
0100
0000
0000
0000
0000
,
1000
0000
0010
0000
1000
0000
1000
0000
1000
0000
0001
0100
0000
0000
0000
0000
,
2002
0000
0000
3003
,
1001
0100
0010
0100
1001
0100
0010
0100
,
0110
0000
0001
1000
0001
0000
1000
0001
1000
0000
0001
1000
0001
0000
1000
0000
,
0010
0000
1000
0000
0100
0000
0001
0000
0100
0000
1000
0010
1000
0000
0001
0000
,
0100
0000
1000
0000
0100
0000
0001
0000
0100
0000
0010
1000
0010
0000
0100
0000
,
0001
0000
0010
0000
1000
0000
0010
0000
0001
0000
0100
0010
0100
0000
0001
0000
,
1000
0000
0100
0000
0001
0000
0100
0000
1000
0000
0010
0100
0010
0000
0100
0000
,
0001
0010
1000
0010
0001
0100
0010
1000
,
0100
0001
0100
0010
0100
1000
0001
0100
,
0010
1000
0001
0010
1000
0010
0100
0001
,
0100
0010
0100
1000
0010
1000
0001
0100
,
0010
0000
0000
1000
0100
0000
1000
0010
1000
0000
0001
0010
0001
0000
0000
0000
,
0000
0000
0000
0100
0010
0000
1000
0001
1000
0000
0001
1000
0001
0000
0000
0000
,
0000
0000
0000
0010
0001
0000
1000
0010
1000
0000
0001
0010
0001
0000
0000
0000
,
0000
0000
0000
0010
0100
0000
1000
0010
1000
0000
0001
0010
0001
0000
0000
0000
,
0110
0000
1000
0000
1000
0000
0001
0000
0001
0000
0100
0010
0000
0000
1000
0000
,
0110
0000
1000
0000
1000
0000
0001
0000
0001
0000
0100
0010
0000
0000
1000
0000
,
1001
0010
1000
0100
1000
0001
0100
0010
,
0110
0001
1000
0010
1000
0001
1000
0100
,
0020
0000
0000
0000
0001
0000
0000
0000
0001
0000
0000
0000
0031
0000
0000
1000
,
0001
0101
0101
1000
0100
0010
0100
1000
,
0001
0000
0101
0000
0100
0000
0010
0000
1000
0000
0100
0000
1000
0000
0001
1000
,
0001
0100
0010
0100
1000
0100
0010
0100
,
0110
0000
0001
0000
1000
0000
0010
0000
1000
0000
0100
0010
0100
0000
1000
0001
,
1000
0000
0000
0000
1001
0000
0100
0000
0000
0000
0010
1000
0000
0000
0010
1000
,
0000
0001
0100
0001
0100
0000
0100
0000
0220
0000
0000
0000
0330
0000
0010
1000
,
0001
0000
0010
0000
0001
0000
0001
0000
0001
0000
1000
0100
0000
0000
0000
0000
,
1000
0000
0010
0000
1000
0000
1000
0000
1000
0000
0001
0100
0000
0000
0000
0000
,
0010
0100
0000
0101
0000
0101
0000
0101
0000
0000
1000
0001
1000
0000
1000
0000
,
0001
0000
0010
0000
0001
0000
0001
0000
0001
0000
1000
0100
0000
0000
0000
0000
,
1000
0000
0010
0000
1000
0000
1000
0000
1000
0000
0001
0100
0000
0000
0000
0000
,
1001
0000
0000
0000
1100
0000
0001
0000
0000
0000
0001
0100
0001
0000
1000
0000
,
0001
0000
0010
0000
0001
0000
0001
0000
0001
0000
1000
0100
0000
0000
0000
0000
,
1000
0000
0010
0000
1000
0000
1000
0000
1000
0000
0001
0100
0000
0000
0000
0000
,
1001
0100
0010
0100
1001
0100
0010
0100
,
0110
0001
0110
1000
0110
0001
0110
1000
,
0010
0000
1000
0000
0100
0000
0001
0000
0100
0000
1000
0010
1000
0000
0001
0000
,
0100
0000
1000
0000
0100
0000
0010
0000
0100
0000
0001
0010
0001
0000
1000
0000
,
0100
0000
0001
0000
0100
0000
0010
0000
1000
0000
0010
0001
0010
0000
0100
0000
,
1000
0000
0010
0000
0001
0000
0010
0000
1000
0000
0100
0010
0100
0000
1000
0000
,
0010
0000
1000
0000
0001
0000
0010
0000
1000
0000
0010
0100
0010
0000
0001
0000
,
0100
0000
1000
0000
0100
0000
0010
0000
0100
0000
0001
1000
0001
0000
0010
0000
,
1001
0100
0010
0100
1001
0100
0010
0100
,
0110
0000
0001
0000
0010
0000
0100
0000
1000
0000
0001
0100
0001
0000
1000
0000
,
0022
0000
0000
0000
,
0033
0000
0000
0000
;
