#TITLE:birth;
#ARTIST:Yu_Asahina;
#BANNER:birth-bn.png;
#BACKGROUND:birth-bg.png;
#JACKET:birth-jacket.png;
#MUSIC:birth.ogg;
#SAMPLESTART:27.055;
#SAMPLELENGTH:20;
#DISPLAYBPM:200:220;
#BPMS:0=200,32=220;
#BGCHANGES:;

//---------------dance-single - ----------------
#NOTES:
     dance-single:
     :
     Beginner:
     7:
     :
0000
0000
0000
0000
,
0000
0000
0000
0000
,
0000
0000
0000
0000
,
0000
0000
0000
0000
,
1000
0000
0000
0000
,
0001
0000
0000
0000
,
1001
0000
0000
0000
,
0000
0000
0000
0000
,
0000
0000
0000
0000
,
0000
0000
0110
0000
,
0001
0001
0001
0000
,
0010
0000
0100
0000
,
1000
1000
1000
0000
,
0001
0001
0001
0000
,
0100
0100
0100
0000
,
0001
0000
0010
0000
,
1000
1000
1000
0000
,
0001
0001
0001
0000
,
0100
0100
0100
0000
,
0001
0001
0001
0000
,
1000
1000
1000
0000
,
0010
0010
0010
0000
,
0100
0000
0001
0001
,
0000
1000
1000
1000
,
1000
0000
0010
0000
,
0100
0000
0001
0010
,
0001
0000
2000
0000
,
0000
3000
0000
0010
,
0100
0000
0001
0001
,
1000
0000
0100
1000
,
0001
0000
0010
0000
,
1001
0000
0000
1000
,
1000
0001
0001
0000
,
0010
0000
0001
0100
,
1000
0000
0001
0000
,
0110
0000
0000
0100
,
1000
0000
0010
1000
,
0100
0010
0001
0000
,
1000
0000
0001
0000
,
0010
0000
0100
0000
,
2000
0000
3000
0000
,
0000
0001
0100
0001
,
0010
0000
0001
0000
,
0100
0000
1000
1000
,
1000
0000
0010
0000
,
0100
0001
0010
0100
,
1000
0000
0002
0000
,
0003
0000
0010
0100
,
0020
0000
0030
0000
,
0001
0000
0100
0000
,
1000
0000
0000
1000
,
0010
0000
0100
0000
,
1001
0000
0000
0110
,
0000
0000
1000
0001
,
0100
0000
0000
0010
,
0000
0000
1000
1000
,
1000
0000
1001
0000
,
0001
0000
0100
0000
,
0010
0000
0110
0000
,
0100
0100
0100
0000
,
0001
0000
1001
0000
,
0010
0000
0110
0000
,
0001
0001
0001
0000
,
1000
0100
1000
0000
,
1001
0000
0110
0000
,
0001
0010
0100
1000
,
0010
0100
0100
0000
,
0001
0000
1000
0100
,
1000
0000
1001
0000
,
0110
0000
0001
0010
,
1000
0100
0000
0100
,
0000
0010
0000
0010
,
0000
0001
0000
0001
,
0000
1000
0000
1000
,
0000
0010
0000
0010
,
0000
0100
0000
0100
,
0000
1000
0000
0001
,
0000
1000
0000
0001
,
0000
0000
0000
1001
,
0000
0000
0110
0000
,
1000
0000
0001
0000
,
0020
0000
0030
0000
,
0002
0000
0003
0000
,
1000
0000
0100
0000
,
1000
0000
0001
0001
,
0001
0000
0000
0000
,
0010
0000
0001
0000
,
0100
0000
1000
0010
,
1000
0000
0002
0000
,
0000
0003
0000
0010
,
0001
0000
0100
0010
,
0100
0000
0001
1000
,
0010
0000
0100
0000
,
1001
0000
1000
0100
,
0010
0001
0001
0000
,
0110
0000
1000
0001
,
1000
0000
0010
1000
,
0200
0000
0300
0010
,
0010
0000
0001
0100
,
0001
0010
0100
1000
,
0010
0010
0010
0000
,
1000
1000
1000
0000
,
0100
0100
0100
0000
,
0010
0010
0010
0000
,
0001
0001
0001
0000
,
0100
0100
0100
0000
,
0001
0001
0001
0000
,
1000
1000
1000
0000
,
0010
0000
1000
0001
,
0000
1001
0000
0100
,
0000
0010
0010
0000
,
0110
0000
0000
0000
,
2000
0000
3000
0000
,
0020
0000
0000
0000
,
0000
0000
0000
0000
,
0000
0000
0030
0000
;

//---------------dance-single - ----------------
#NOTES:
     dance-single:
     :
     Easy:
     12:
     :
0000
0000
0000
0000
,
0000
0000
0000
0000
,
0000
0000
0000
0000
,
0000
0000
0000
0000
,
2000
0000
0000
0000
,
0002
0000
0000
3003
,
2002
0000
0000
0000
,
0000
0000
0000
0000
,
0000
0000
0000
0000
,
0000
0003
0010
3010
,
1000
0000
0010
0000
0001
1000
0000
0100
,
0000
0010
0001
0000
0100
0010
0000
0000
,
1000
0000
0001
0000
0010
0100
0000
1000
,
0000
0010
1000
0001
0100
0000
0010
0000
,
1000
0000
0100
0000
1000
0001
0000
0010
,
0000
0001
0100
0000
1000
0010
0000
0000
,
0100
0000
0001
0000
0010
0100
0000
1000
,
0000
1100
0110
0011
,
0100
0000
0001
0000
0010
0100
0000
1000
,
0000
0010
1000
0001
1000
0010
0000
0000
,
0100
0000
0001
0000
0010
0100
0000
1000
,
0000
0010
1000
0001
0100
0000
0010
1000
,
0002
0000
0000
0000
1003
0100
0010
0001
,
0000
0000
0100
0000
0010
0000
0100
0000
0010
0000
0100
0000
,
0010
0000
1000
0000
1000
0000
0001
0200
,
0000
0000
0000
0000
0000
0000
0301
0000
1000
0000
0000
0010
0000
0000
1000
0000
,
0200
0000
0000
0320
0000
0000
0000
0000
,
0000
0000
0000
0000
0000
0031
1000
0001
,
0020
0000
0130
1000
0000
1100
0000
0102
,
0000
1000
0100
1003
,
0020
0000
0030
0000
0010
0000
1000
0002
,
0000
0000
0000
0000
0000
1003
0100
0010
,
0001
0000
0100
0000
0100
0000
0010
2000
,
0000
0000
0000
3100
1000
0001
1000
0001
,
0010
0000
0010
0001
0100
0001
0000
2020
,
0000
0000
3000
0130
,
0110
0000
1000
0001
0000
0011
0000
2100
,
0000
0001
0100
3001
,
0010
0000
0002
2000
0000
0000
0003
0000
,
0020
0030
0200
3300
,
2000
0000
0000
0002
0000
0000
0000
0000
,
3003
0000
0020
0000
0032
0000
0103
0010
,
2000
0000
3100
1000
0000
2000
0000
0000
,
0001
0010
3002
2003
,
3200
0000
0000
0020
0000
0000
0000
0000
,
0330
0002
2003
3200
,
2300
0000
0000
3002
0000
0000
0013
0001
,
0200
0000
0000
0000
0000
0000
0301
0000
0100
0000
0000
0010
0000
0000
1000
0000
,
0200
0000
0000
0000
0000
0000
1300
0020
,
0000
0000
0100
1030
,
0002
0000
0000
0023
,
2000
3000
0002
0033
,
0100
0010
0000
0100
0010
0000
0100
0010
,
0000
0100
0010
0000
1001
0000
1001
0000
,
1000
0001
0000
1000
0001
0000
1000
0001
,
0000
1000
0001
0000
0110
0000
0001
0100
,
1000
1100
0011
0000
,
0001
0010
0100
0000
0110
0000
0010
0001
,
1000
0000
0100
1000
0001
0000
0000
0000
,
1010
0101
1100
0011
,
0100
0000
0001
0010
1000
0000
0000
0000
,
0110
0000
0110
0000
0001
1000
0001
0000
,
0200
0000
0320
0000
1030
0010
0000
2010
,
0000
0001
0010
3001
,
2002
0000
0000
0000
3000
0000
1003
0200
,
0000
0000
0000
0000
1300
0001
0010
0100
,
2000
0000
3002
0000
1003
0100
0000
0011
,
0000
0000
0001
0010
0100
0010
0100
1000
,
0020
0000
1030
0001
0000
0101
0000
1100
,
0000
0000
0001
0010
2000
0000
3100
0010
,
0001
0101
1000
0101
,
0010
0101
0100
0101
,
0001
1010
1000
1010
,
0010
1010
0100
1010
,
0001
0011
1000
0011
,
0010
0011
0100
0011
,
0001
1100
1000
1100
,
0010
1100
0100
1100
,
1000
0100
0000
0100
0001
0000
1000
0010
,
0000
0010
0001
0000
1000
0100
0000
0010
,
0001
0011
0110
1100
,
0001
0100
0001
0000
1000
0100
1000
0000
,
0020
0000
0000
2030
0000
0000
3002
0000
,
0000
0203
0000
0000
0320
0000
0230
0000
,
0301
1000
0000
0001
1000
0000
0001
2000
,
0000
0020
3000
0130
,
0002
0000
1003
0100
,
2000
0000
3010
0100
,
0002
0000
0000
2000
0000
0000
0000
0000
,
0000
0000
0000
0000
3003
0000
0010
1000
,
0200
0000
0000
2300
0000
3002
0000
2003
,
0000
0010
0010
3010
,
1001
0000
0000
0000
1010
0000
0000
0101
,
0000
0000
1000
0000
0010
0000
1000
0001
,
0100
0000
1001
0000
0010
0000
1000
0002
,
0000
0000
0000
0103
0010
0100
0010
1000
,
0001
0000
0001
0010
0001
1000
0000
0200
,
0000
0000
0300
1100
,
0022
0000
0030
1000
0000
0100
0000
1003
,
0000
0002
0023
2030
,
3100
0000
0010
0000
0001
0100
0000
1000
,
0000
0010
1000
0100
1000
0001
0000
0000
,
0010
0000
0001
0000
0010
0100
0000
1000
,
0000
0010
0100
0000
0202
0000
0003
0000
,
1300
0000
0100
0000
0001
0010
0000
0001
,
0000
0100
0010
0100
0010
1000
0000
0000
,
0100
0000
1000
0000
0001
0010
0000
0001
,
0000
0100
0010
1000
0001
0000
0010
0100
,
2000
0000
0000
0000
3001
0010
0100
1000
,
0000
0000
0010
0000
0000
0000
0010
0000
0000
0000
0010
0000
,
0000
0000
1000
0000
0000
0000
1000
0000
0000
0001
0000
0000
,
0022
0000
0000
0030
,
2000
0000
0000
3000
,
0020
0000
0000
0000
,
0000
0000
0000
0000
,
0000
0000
0033
0000
;

//---------------dance-single - ----------------
#NOTES:
     dance-single:
     :
     Medium:
     15:
     :
0000
0000
0000
0000
,
0000
0000
0000
0000
,
0000
0000
0000
0000
,
0000
0000
0000
0000
,
2000
0000
0000
0000
,
0002
0000
0000
3003
,
2002
0000
0000
0003
,
0020
0000
0000
0030
,
0200
0000
0000
0000
,
0000
3300
1001
1001
,
0001
0010
0001
0010
0001
0010
0000
0100
,
0000
1000
0010
1000
0010
2000
0000
0000
,
3001
0100
0001
0100
0001
0100
0000
0010
,
0000
1000
0100
0010
0001
0010
0100
1000
,
0010
1000
0010
0100
0010
1000
0000
0001
,
0000
0010
0001
0100
0001
2000
0000
0000
,
3100
0010
0001
0010
0100
1000
0000
0010
,
0000
1000
0001
0000
0011
0000
1100
0000
,
0001
0010
0100
0010
0100
1000
0000
0010
,
0000
1000
0001
0010
0100
0020
0000
0000
,
0130
0010
0001
0100
0010
1000
0000
0100
,
0000
1000
0010
1000
0100
0010
0001
0100
,
0020
0000
0000
0000
0000
0000
0000
0000
1030
0000
0100
0000
1000
0001
1000
0000
,
0000
0000
0010
0000
0010
0000
0010
0000
0010
0000
0010
0000
,
0110
0000
1001
0000
1001
0000
1000
0100
,
0000
0000
0010
0000
0001
0000
0100
0000
0001
0000
0000
1000
0000
0000
0010
0000
,
2000
0000
3100
0020
0000
0031
1000
0001
,
0000
0100
0010
1000
0000
1000
0100
0001
,
0010
0100
1000
0001
0000
1010
0000
0101
,
0000
0001
0010
1000
0001
0100
1000
0000
,
0102
0000
0010
0000
1003
0100
0010
0002
,
0100
0000
0010
0000
1003
0010
0100
0001
,
0010
0000
0110
0000
0110
0000
0001
1000
,
0000
0010
1000
0100
1000
0001
0100
0010
,
0100
0000
0000
0000
0001
0010
0001
0010
0001
0000
0100
0000
0000
0000
1020
0000
,
0000
0000
1030
0000
0002
0000
0000
0000
0103
0000
0010
1000
0010
0000
0000
0000
,
1100
0000
0101
0001
1000
0010
1000
0100
,
0000
0100
0010
0001
0010
0001
0100
0000
,
2001
0000
3010
1000
2100
0000
3001
0100
,
0210
0000
0000
0000
0301
0000
0010
0000
0012
0000
0000
0000
1003
0100
1000
0100
,
2000
0000
0000
3020
0000
0000
0130
0001
,
0010
1000
0010
0100
0010
0001
0100
0010
,
1000
0100
0010
0001
0000
1001
0000
1010
,
1000
0100
0001
0100
0010
1000
0010
0001
,
0200
0000
0000
0320
0000
0000
1030
0001
,
0010
1000
0010
0100
0010
1000
0010
0001
,
0200
0000
0000
0302
0000
0000
0013
0100
,
1000
0000
0010
0000
1000
0000
0001
0000
0100
0000
0000
0010
0000
0000
1000
0000
,
0022
0000
0000
0000
0030
0000
1003
0001
,
0100
0010
0100
0001
0020
0000
0130
0000
,
1100
0000
0001
0010
1000
0000
1001
0000
,
0110
0000
0001
0010
2000
0000
3001
0000
,
1000
1000
0000
0001
0001
0000
0010
0010
,
0000
0100
0100
0000
1000
0010
0100
0001
,
0010
0010
0000
0100
0100
0000
1000
0001
,
0000
0000
1000
0000
0001
0000
0000
0000
0100
0000
0001
1000
0001
0000
0100
0000
,
0010
0000
0000
1000
0001
1000
0001
0000
0000
0000
0000
0100
,
0010
0000
0000
0000
0100
0000
0010
0000
0000
0000
1000
0000
0010
0000
0000
0000
0000
0000
0100
0000
0000
0001
0000
0000
,
1000
0000
0000
0100
0010
0100
0010
0000
0000
0000
0000
0001
,
1000
0000
0001
1000
0000
0100
1000
0000
0000
0010
0100
0010
,
0100
0000
0000
0001
0010
0001
0010
0000
0000
0000
0000
0100
,
1000
0000
0000
0000
1000
0000
0001
0000
0000
0000
0001
0000
1000
0000
0000
0000
0000
0000
0001
0000
0000
0010
0000
0000
,
1000
0000
0000
0100
1000
0100
1000
0000
0000
0000
0000
0001
,
0010
0000
0001
0010
0000
0001
0010
0000
0100
1000
0000
0000
,
1001
0000
0000
0010
1000
0010
1000
0000
0000
0001
0000
0010
,
0001
0000
0000
0000
0010
0000
0100
0000
0000
0000
1000
0000
0100
0000
0000
0000
1000
0000
0010
0000
0000
0100
0000
0000
,
0001
0000
0000
0100
0001
0100
0001
0000
0000
0010
0000
0100
,
1000
0000
0000
0000
0001
0000
1000
0000
0000
0000
0001
0000
1000
0000
0000
0000
0100
0000
0010
0000
0000
0001
0000
0000
,
0200
0000
0310
1010
0000
1100
0000
1010
,
0000
0000
0000
0000
0000
0000
0001
0000
0010
0000
0100
0000
2000
0000
0000
0000
0000
0000
3010
0000
0000
0100
0000
0000
,
0001
0010
1000
0100
1000
0100
0010
0001
,
0100
1000
0001
0010
1000
0001
0010
0100
,
0001
0100
0010
1000
0010
0100
0001
1000
,
0001
0100
0001
0010
1000
1000
0010
0100
,
0010
0001
1000
0100
1000
0100
0001
0010
,
0001
0010
0100
1000
0001
1000
0100
0010
,
1000
0010
0100
0001
0001
0100
0010
1000
,
0001
1000
0100
1000
0010
0001
0010
0100
,
1000
1000
0000
0001
0001
0000
0100
0100
,
0000
0010
0010
0000
1000
1000
0000
0001
,
0001
0011
0110
1100
,
1000
0010
0100
0001
1000
0100
0010
0001
,
0100
0101
0000
0100
1100
0000
0100
0101
,
0000
0100
1100
0000
0001
0010
0100
1000
,
0010
1010
0000
0010
0011
0000
0010
1010
,
0000
0000
0010
0000
0022
0000
0000
0000
0030
0000
0000
0000
1003
0100
0010
0001
,
0200
0000
0000
0000
0302
0000
1003
0020
,
0000
0000
0000
0000
0000
0000
0100
0000
0130
0000
0000
0001
0000
0000
1000
0000
,
0002
0000
0000
0023
0000
0000
0000
0000
,
0000
0000
0000
0000
0000
0031
0100
1000
,
0110
0000
0001
0002
0000
2003
0000
3200
,
0000
1300
1001
0110
,
0020
0000
0000
0000
1030
0100
0010
0002
,
0000
0000
0000
0000
0103
0000
0001
0000
0100
0000
0001
0000
1000
0010
1000
0010
,
0100
0000
0110
0000
0110
0000
0001
2000
,
0000
0000
0000
3010
1000
0100
0001
0100
,
2000
0000
3001
1000
0100
0010
0000
0011
,
0000
0000
0000
0000
0010
0001
0010
0100
1000
0000
0000
0000
0100
0000
1000
0001
,
0200
0000
0010
0310
0000
0101
0000
2100
,
0000
0000
0000
0000
3001
0000
0000
0000
1000
0010
0100
0010
1000
0000
0000
0000
,
1000
0001
0010
0100
1000
0010
0000
0100
,
0000
0001
0010
1000
0100
0020
0000
0000
,
0031
0100
0010
1000
0100
0010
0001
1000
,
0000
0000
0010
0000
1000
0000
0100
0000
0010
0001
0100
1000
0010
0000
0100
0000
,
0001
0010
0100
0010
0001
0100
0010
1000
,
0000
1000
0100
0001
1000
0010
0001
0000
,
0010
0001
0100
0010
1000
0100
1000
0001
,
0000
0001
0010
0100
1000
0010
1000
0001
,
0200
0000
0000
0000
0000
0000
0000
0000
0301
0000
0010
0000
0001
1000
0001
0000
,
0000
0000
0100
0000
0100
0000
0100
0000
0100
0000
0100
0000
,
0001
0000
1000
0000
0001
0000
1000
0000
0001
0000
1000
0000
,
0202
0000
0000
0300
,
2003
0002
0000
0000
0000
0000
0003
0000
,
3200
0020
0000
0000
0000
0000
0000
0000
,
0000
0000
0000
0000
,
0000
0000
0330
0000
;

//---------------dance-single - ----------------
#NOTES:
     dance-single:
     :
     Hard:
     18:
     :
0000
0000
0000
0000
,
0000
0000
0000
0000
,
0000
0000
0000
0000
,
0000
0000
0000
0000
,
2000
0000
0000
0000
,
0002
0000
0000
3003
,
2002
0000
0000
0003
,
0020
0000
0000
0030
,
0200
0000
0000
0300
,
0002
3003
1001
1001
,
1000
0100
0001
0100
0010
0100
0000
1100
,
0000
0001
0010
1000
0001
0200
0000
0000
,
0301
0010
1000
0010
0100
0010
0000
0011
,
0000
1000
0100
0001
0010
0100
0010
0001
,
1000
0010
0100
0010
0001
0010
1000
0100
,
0000
0000
1000
0000
1000
0000
0001
0010
0001
0000
0100
0000
1000
0000
0000
0000
,
0010
0000
1000
0000
0100
0000
1000
0001
1000
0000
0010
0000
0100
0000
0001
0000
,
0000
0000
0010
0000
0011
0000
0000
0001
1000
0000
0000
1000
0100
0000
1000
0010
,
1000
0100
0001
0100
0010
1000
0010
0001
,
0000
0001
0010
1000
0001
0100
1000
0000
,
0010
1000
0100
0001
0100
0010
0001
1000
,
0000
0100
0100
1000
0001
1000
1000
0010
,
0100
0000
0001
0000
0010
0000
0000
0000
0001
1000
0001
1000
0010
0100
0001
0000
,
0000
0000
0110
0000
0110
0000
0110
0000
0110
0000
0110
0000
,
1001
0000
1000
0010
0100
0000
0001
0010
0100
0000
1000
0000
0001
0000
0200
0000
,
0000
0000
0010
0000
0310
0000
1000
0100
1000
0000
0001
0010
0000
0001
0100
0000
,
0010
0000
1000
0000
0100
0000
0011
0000
0001
0000
0100
0000
1000
0000
0010
1000
,
0100
0000
0010
0001
0100
0000
0001
1000
0010
0100
0001
0000
1000
0000
0100
0000
,
0110
0010
0001
0001
1000
0010
1000
0002
,
0000
0000
0103
0001
1000
0000
0100
0010
0001
0000
0100
0000
1000
0000
0010
0000
,
0100
0000
0001
0000
0010
0000
0001
1000
0001
0000
0100
0000
0010
0000
1000
0000
,
0100
0000
1000
0000
0001
0000
0000
0010
0001
0000
0100
0000
1000
0010
0100
0001
,
0010
0000
0001
0100
1000
0000
0010
0000
1000
0100
1000
0100
1000
0000
0002
0000
,
0000
0000
0010
0000
0013
0000
0001
0100
0001
0000
1000
0000
1000
0000
0010
0000
,
0100
0000
0001
0000
0010
0000
0001
1000
0100
0000
0010
0000
0001
0000
2010
0000
,
0000
0000
0001
0000
3001
0000
0010
0100
1000
0000
0010
1000
0100
0000
1000
0001
,
0100
0010
1000
1000
0100
0010
0001
0001
,
0000
0000
0100
0001
0010
0000
0100
0000
1000
0000
0001
1000
0010
0000
0000
0000
,
0110
0000
1000
0001
1000
0000
0100
0000
0010
0000
0001
0100
0001
0000
1000
0000
,
0010
0100
0010
0100
0010
0100
0010
0100
0010
0100
0010
0100
0010
0100
0010
0100
,
0002
0000
0000
0000
0000
0000
2000
0000
0000
0000
3003
0000
0010
1000
0100
0010
,
0001
0100
0001
0000
1000
0100
1000
0000
0001
0010
0001
0000
1000
0010
1000
0000
,
0100
0000
0010
0000
0001
0000
0101
0000
0000
0000
1100
0000
1000
0100
0010
0001
,
0100
0000
0001
0010
0001
0000
1000
0100
1000
0000
0001
0100
0001
0000
1000
0010
,
2000
0000
0000
0000
0000
0000
0002
0000
0000
0000
3003
0000
0010
0001
0010
0100
,
1000
0000
0001
0010
0001
0000
0100
0001
0100
0000
0010
1000
0010
0000
0100
1000
,
0100
0000
0010
0000
0001
0000
0011
0000
0000
0000
1100
0000
1000
0001
0100
0010
,
1000
0000
0001
0010
0001
0000
1000
0010
1000
0000
0100
0010
0000
0100
0010
0000
,
0001
0010
0100
0010
0001
0100
1000
1000
,
0010
1000
0100
0000
0010
0001
0100
0000
0001
1000
0100
0000
1000
0010
0001
0000
,
0100
0010
0001
0100
0010
1000
0001
0100
,
0001
0010
0001
0010
0100
1000
0100
1000
0001
0100
0001
0100
0010
1000
0010
1000
,
0100
0011
0000
0100
1010
0000
1000
0101
,
0000
0000
0001
0000
1001
0000
0000
0000
1001
0000
1000
0100
0010
0000
0001
0100
,
0010
1100
0000
0010
0101
0000
0001
1100
,
0000
0000
1000
0000
1001
0000
0000
0000
0001
0010
0001
0100
0001
0010
0001
0100
,
0001
0000
0000
1000
0100
0010
0001
0000
0000
0100
0010
1000
,
0001
0000
0000
0000
0100
0000
0000
0000
0001
0000
0000
0000
0010
0000
0000
0000
0100
0000
0000
0000
1000
0000
0000
0000
0010
0000
0000
0000
0000
0000
0000
0000
0000
0000
0000
0000
1000
0000
0000
0001
0000
0000
1000
0000
0000
0001
0000
0000
,
1000
0000
0000
0010
1000
0001
0100
0000
0000
0001
0010
0001
,
0010
0000
0100
0000
1000
0000
0010
0000
0100
0000
0001
0000
1000
0000
0000
0100
0000
0000
0001
0000
0000
0000
0000
0000
,
0110
0000
0000
0001
0010
0100
1000
0000
0000
0010
1000
0100
,
1000
0000
0000
0000
0001
0000
0000
0000
1000
0000
0000
0000
0100
0000
0000
0000
0010
0000
0000
0000
0001
0000
0000
0000
0100
0000
0000
0000
0000
0000
0010
0000
0000
0000
0000
0000
1000
0000
0000
0000
0000
0000
0000
0000
0000
0001
0000
0000
,
0020
0000
0000
0000
0031
1000
0001
0000
0101
0000
0101
0000
0000
0000
0100
0010
,
1000
0000
0100
0010
0000
0100
0010
0000
0100
0010
0000
0000
,
0011
0000
0000
0000
0000
0000
0000
0000
0000
0000
0000
0000
0001
0000
0000
0000
0100
0000
0000
0000
0010
0000
0000
0000
1000
0000
0000
0000
0000
0000
0000
0000
0000
0000
0000
0000
0100
0000
0000
0000
0000
0000
1000
0000
0000
0001
0000
0000
,
1000
0000
0000
0000
0010
0000
0000
0000
0100
0000
0000
0000
0001
0000
0000
0000
0000
0000
0000
0000
0010
0000
0000
0000
0100
0000
0000
0000
0000
0000
1000
0000
0000
0000
0000
0000
0010
0000
0000
0100
0000
0000
0001
0000
0000
1000
0000
0000
,
0100
0000
0000
0010
0001
1000
0001
0000
0100
0010
0000
1000
,
0100
0000
0000
0000
0000
0000
0010
0000
0000
0001
0000
0000
1000
0000
0000
0000
0100
0000
0000
0000
1000
0000
0000
0000
0001
0000
0000
0000
0010
0000
0000
0000
0100
0000
0000
0000
1000
0000
0000
0000
0000
0000
0000
0000
0001
0000
0000
0000
,
1000
0000
0010
0100
0001
1000
0001
0000
0000
0000
0011
0000
0000
0000
0110
0000
,
0000
0000
0000
0000
0000
0000
1000
0000
0000
0100
0000
0000
1000
0000
0000
0000
0000
0000
0001
0000
0000
0000
0000
0000
0010
0000
0000
0000
0000
0000
0000
0000
0100
0000
0000
0000
0000
0000
0000
0000
1000
0000
0000
0000
0000
0000
0000
0000
,
1100
0000
1000
0000
0001
0100
0001
0000
0010
0000
0100
0000
1000
0010
1000
0000
,
0100
0000
0010
0000
0001
0100
0001
0000
1000
0000
0010
0000
1000
0001
1000
0000
,
0100
0000
0010
0000
0001
0100
0001
0000
0010
0000
0100
0000
1000
0010
1000
0000
,
0001
0000
1000
0000
0010
0100
0010
0000
1000
0000
0100
0000
1000
0010
1000
0000
,
0001
0010
1000
0100
0001
1000
0010
0100
,
0001
0010
0100
1000
0010
1000
0100
0001
,
0010
0001
0010
0001
1000
0100
1000
0100
,
0010
0000
0100
0000
1000
0000
0001
0000
0100
0000
0001
0010
0100
1000
0100
0010
,
0001
0101
0000
1010
0000
0000
1100
0011
,
0000
0000
0110
0000
1001
0000
0000
0000
1000
0000
0001
0010
0100
0000
1000
0000
,
0020
0100
1000
0100
,
1030
0000
0100
0000
0010
0000
0001
0000
1000
0010
0100
0001
1000
0001
0100
0010
,
1000
0000
0000
0000
0001
0010
0100
1000
0100
0010
0001
0010
0100
1000
0100
0010
,
0001
0000
0000
0000
1000
0100
0010
0001
0010
0100
1000
0100
0010
0001
0010
0100
,
1000
0000
0001
0100
0001
0000
1000
0010
1000
0000
0001
0010
0001
0000
1000
0100
,
1000
0000
0010
0200
0002
0000
0000
0000
0000
0000
0300
0000
1003
0001
0010
0100
,
2000
0000
0000
0000
0010
0000
3100
0002
,
0000
0000
0000
0000
0000
0000
0013
0001
0010
0000
0000
0100
0000
0000
1000
0000
,
0002
0000
0000
0000
0000
0000
0023
0000
0000
0000
0000
0000
0000
0000
0031
1000
,
0001
0000
0100
0010
1000
0000
0100
0010
0001
0000
1000
0000
0010
0000
1000
0000
,
0200
0000
0010
0310
0000
0011
0000
1010
,
0000
0100
1100
0000
1010
0000
1001
0000
,
0120
0000
0000
0000
1030
0000
0010
0100
0001
0000
0010
0000
0200
0000
2000
0000
,
0300
0000
0000
0000
3001
0010
0100
1000
0100
0010
0001
0010
0100
1000
0100
0010
,
0001
0000
1000
0010
0001
0000
0100
0000
0010
0000
1000
0000
0100
0000
0002
0000
,
0000
0000
0013
0001
0100
0000
1000
0000
0001
0000
0010
0000
0100
0000
1000
0000
,
0010
1000
0001
1000
0100
0010
0001
1100
,
0000
0000
0001
0100
0010
0000
0100
0001
0010
0000
0001
0010
0100
0000
0010
0001
,
0100
0010
1000
1000
0000
1001
0000
0011
,
0000
0000
0100
0000
1010
0000
0000
0000
1000
0010
0100
0010
1000
0100
0010
0100
,
1000
0100
0001
0100
0010
1000
0010
0001
,
0000
0000
0100
0000
0010
0000
1000
0001
0010
0000
0100
0000
1000
0000
0000
0000
,
0001
0000
0010
0100
1000
0000
0010
0000
1000
0000
0001
0000
0100
0000
0010
0000
,
0000
0000
1000
0010
1000
0000
0001
0010
0001
0100
1000
0010
0001
0000
0100
0010
,
1000
1000
0001
0001
0010
0010
0000
0101
,
0000
0000
1000
0000
0100
0000
0001
0000
1000
0000
0010
0000
0001
0000
0000
0100
,
0010
0010
1000
1000
0100
0100
0000
0110
,
0000
1000
1000
0001
0001
0010
0001
0100
,
0020
0000
0000
0000
1030
0000
0001
0000
1000
0100
0010
0001
0010
0100
1000
0000
,
0000
0000
0110
0000
0110
0000
0110
0000
0110
0000
0110
0000
,
0110
0000
0011
0000
0101
0000
1100
0000
1010
0000
1001
0000
,
0022
0000
0000
0000
0000
0000
0000
0000
0000
0000
0000
0000
0000
0000
0000
0030
,
1003
0002
0200
0000
0000
0000
0000
0000
0000
0000
0000
0000
0000
0000
0000
0003
,
0301
1000
0200
0020
0000
0000
0000
0000
0000
0000
0000
0000
0000
0000
0000
0000
,
0000
0000
0000
0000
,
0000
0000
0330
0000
;
