#VERSION:0.83;
#TITLE:abcdefu;
#SUBTITLE:;
#ARTIST:GAYLE;
#TITLETRANSLIT:;
#SUBTITLETRANSLIT:;
#ARTISTTRANSLIT:;
#GENRE:;
#ORIGIN:;
#TAGS:;
#CREDIT:;
#BANNER:abcdefu-bn.png;
#BACKGROUND:abcdefu-bg.png;
#PREVIEWVID:;
#JACKET:abcdefu-jacket.png;
#CDIMAGE:;
#DISCIMAGE:;
#LYRICSPATH:;
#CDTITLE:;
#MUSIC:abcdefu.ogg;
#OFFSET:1.350000;
#SAMPLESTART:60.617001;
#SAMPLELENGTH:20.000000;
#SELECTABLE:YES;
#DISPLAYBPM:118.000000:122.000000;
#BPMS:0.000000=122.000000,
179.750000=112.000000,
180.000000=122.000000,
248.000000=120.000000,
252.000000=118.000000;
#STOPS:;
#DELAYS:;
#WARPS:;
#TIMESIGNATURES:0.000000=4=4;
#TICKCOUNTS:0.000000=4;
#COMBOS:0.000000=1;
#SPEEDS:0.000000=1.000000=0.000000=0;
#SCROLLS:0.000000=1.000000;
#FAKES:;
#LABELS:0.000000=Song Start;
#BGCHANGES:;
#KEYSOUNDS:;
#ATTACKS:
;

//---------------dance-single - ----------------
#NOTEDATA:;
#CHARTNAME:;
#CHARTHASH:0:
#STEPSTYPE:dance-single;
#BANNER:;
#DESCRIPTION:;
#CHARTSTYLE:;
#DIFFICULTY:Hard;
#METER:12;
#METERF:0.000000;
#RADARVALUES:0.532209,0.483901,0.646936,0.118977,0.014872,501.000000,414.000000,87.000000,16.000000,0.000000,0.000000,0.000000,0.000000,0.000000,0.532209,0.483901,0.646936,0.118977,0.014872,501.000000,414.000000,87.000000,16.000000,0.000000,0.000000,0.000000,0.000000,0.000000;
#CREDIT:;
#DISPLAYBPM:118.000000:122.000000;
#NOTES:
0000
0000
0000
0000
,
0000
0000
0000
0000
,
0000
0000
0000
0000
,
0000
0000
0000
0000
,
0000
0000
0000
1001
,
1001
0000
0010
1000
0101
0000
0001
0010
,
0100
1000
0010
0100
1010
0000
0001
1000
,
0001
0010
0100
1000
1010
0000
0100
0001
,
0110
0110
0110
0001
,
1001
0010
0010
0100
0001
0010
0100
1000
,
0020
0000
0130
0001
2000
0100
3100
0010
,
0110
0000
0001
0100
0010
1000
0001
1000
,
0200
0000
0310
0001
2000
0010
3010
0100
,
0101
0000
0010
1000
1000
0001
1000
0100
,
0020
0000
0031
0100
0020
1000
1030
0001
,
0010
0010
0010
0001
1000
0100
1000
0001
,
0010
0100
0200
0000
1300
0001
1000
0000
,
1010
0001
0001
1000
0100
0010
0100
1000
,
0000
0001
0001
1000
0020
0100
0130
0001
,
0000
1000
1000
1000
0010
0100
0010
2000
,
0000
0100
3100
0010
0002
1000
1003
0001
,
0100
0010
1000
1000
0001
0010
0001
0100
,
0000
0100
0010
1000
0002
0100
0103
1000
,
0010
1000
0001
0010
0001
0100
0010
1000
,
0100
0001
2000
0000
3010
0100
0010
0000
,
0110
0000
0001
0010
0001
0100
0010
2000
,
0000
0000
0000
0000
3100
0000
0010
0000
0100
0000
1000
0000
0010
0000
0100
0001
,
0100
0000
0010
0000
1000
0000
0010
0000
1000
0000
0010
0000
1000
0000
0001
0100
,
0001
0000
1000
0000
0100
0000
1000
0000
0010
0000
0100
0000
0001
0000
1000
0100
,
1000
0000
0010
0000
0010
0000
0100
0000
0100
0000
0001
0000
1000
0000
0010
0100
,
0010
1000
1000
0001
1000
0100
0010
0010
,
0001
0100
1000
0000
1100
0000
0101
0000
,
1010
0011
0110
1001
,
1001
0000
0010
1000
1100
0000
0010
0001
,
0100
0001
0010
0100
0101
0000
1000
0001
,
0011
0000
0110
0000
1100
0000
0010
0100
,
0001
1000
0110
0000
0101
0000
1001
0000
,
1001
0000
0010
1000
1100
0000
0100
0010
,
0001
0100
0010
1000
1010
0000
0010
1000
,
0100
0010
0001
0100
0011
0000
1000
0001
,
0110
0000
0110
0000
0110
0001
1000
0001
,
1001
0100
0010
0100
0001
0010
0100
2000
,
0000
0010
3010
0100
0001
1000
0100
0010
,
0001
0100
1000
0000
1100
0000
0101
0000
,
1010
0011
0110
1001
,
1001
0000
0010
1000
0101
0000
0001
0010
,
0001
0100
1000
0010
1100
0000
0001
0100
,
1010
0000
1100
0000
0011
0000
0100
0010
,
1000
0001
0101
0000
1100
0000
1001
0000
,
1001
0000
0010
1000
0110
0000
0001
0010
,
0001
0100
1000
0010
1100
0000
0010
1000
,
0100
0010
0001
0100
1001
0000
0010
0100
,
0110
0000
0110
0000
0110
0001
1000
0001
,
1001
0010
0100
0010
1000
0100
0010
0002
,
0000
0100
0103
0001
0010
0001
1000
0010
,
0100
0010
1000
0000
1100
0000
0101
0000
,
1010
0011
0110
1001
,
0110
0001
0010
0001
0100
0010
1000
0200
,
0000
0010
0310
0001
0100
0001
1000
0100
,
0010
0001
0100
0000
1100
0000
0101
0000
,
1010
0011
0110
1001
,
1001
0000
0001
0010
0110
0000
0010
0001
,
0100
0010
1000
0001
1010
0000
0100
0010
,
0101
0000
1100
0000
0011
0000
0001
0100
,
1000
0010
1000
0000
1100
0000
1001
0000
,
1001
0000
0010
0100
0101
0000
0001
0010
,
1000
0001
1000
0100
0011
0000
0100
0001
,
0010
0100
1000
0001
0011
0000
0100
0010
,
0110
0110
0110
0000
;

//---------------dance-single - ----------------
#NOTEDATA:;
#CHARTNAME:;
#CHARTHASH:0:
#STEPSTYPE:dance-single;
#BANNER:;
#DESCRIPTION:;
#CHARTSTYLE:;
#DIFFICULTY:Medium;
#METER:10;
#METERF:0.000000;
#RADARVALUES:0.417481,0.432964,0.416419,0.163593,0.000000,393.000000,337.000000,56.000000,22.000000,0.000000,0.000000,0.000000,0.000000,0.000000,0.417481,0.432964,0.416419,0.163593,0.000000,393.000000,337.000000,56.000000,22.000000,0.000000,0.000000,0.000000,0.000000,0.000000;
#CREDIT:;
#DISPLAYBPM:118.000000:122.000000;
#NOTES:
0000
0000
0000
0000
,
0000
0000
0000
0000
,
0000
0000
0000
0000
,
0000
0000
0000
0000
,
0000
0000
0000
1001
,
1001
0000
0001
0010
0001
0000
1000
0010
,
1000
0001
1000
0100
1000
0000
0010
0100
,
0001
0010
0001
0100
0001
0000
1000
0100
,
0010
0110
0110
0000
,
1001
0000
0001
0010
0100
0000
1000
0001
,
0100
0000
0100
0010
1000
0000
1000
0000
,
0110
0000
0001
0010
0100
0000
1000
0010
,
1000
0000
0100
0010
0001
0000
0001
0000
,
0101
0000
0010
1000
0001
0000
1000
0100
,
0010
0000
0001
1000
0100
0000
0100
0000
,
0010
0001
0010
0001
1000
0100
1000
0100
,
0020
0200
0330
0110
,
0000
0001
1000
0001
1000
0100
0010
0001
,
0000
0100
0010
0100
0010
0000
1010
0000
,
0000
0001
1000
0100
0010
0100
1000
0001
,
0000
1000
0001
1000
0001
0000
0011
0000
,
0000
1000
0001
1000
0100
0010
0001
0100
,
0000
0010
1000
0010
1000
0000
1100
0000
,
0001
0100
0001
0100
0010
1000
0010
1000
,
0002
2000
0000
3003
,
0110
0000
0001
0010
0200
0000
1300
0020
,
0000
0000
1030
0001
1000
0100
0010
0001
,
0000
0000
0000
0000
0000
0000
0001
1000
,
0000
1100
0000
0101
0000
1000
0100
0010
,
0000
0001
0100
0001
0020
0000
0130
2000
,
0000
3001
1000
0100
0020
0000
0031
0200
,
0000
0300
1100
0101
,
1010
0011
0110
1001
,
1001
0000
1000
0100
0010
0000
0010
0001
,
0100
0001
1000
0001
0100
0000
0100
0010
,
2000
0000
3002
0000
2003
0000
3100
0010
,
0001
0100
0002
0000
1003
0000
1001
0000
,
1001
0000
0100
0010
1000
0000
1000
0001
,
0010
0001
0010
0100
1000
0000
0010
1000
,
0001
1000
0100
0010
0001
0000
0100
0010
,
1000
0110
0110
0000
,
1001
0000
0000
0000
1000
0001
0010
0200
,
0000
0000
0001
0000
0010
0000
1300
0001
,
0100
0000
1100
0101
,
1010
0011
0110
1001
,
1001
0000
0010
1000
0001
0000
1000
0100
,
0010
0100
0010
0100
1000
0000
0001
0100
,
0020
0000
0230
0000
0320
0000
1030
0001
,
1000
0100
0020
0000
0031
0000
1001
0000
,
1001
0000
1000
0010
1000
0000
0100
0010
,
0001
0100
0001
0010
0001
0000
1000
0001
,
1000
0100
0010
0100
1000
0000
0010
0100
,
0001
0110
0110
0000
,
1001
0000
0000
0000
1000
0001
0100
0020
,
0000
0000
0001
0000
1000
0000
0130
0010
,
1000
0000
1100
0101
,
1010
0011
0110
1001
,
0110
0000
0000
0000
0001
1000
0100
0020
,
0000
0000
1000
0000
0100
0000
0031
0010
,
1000
0000
1100
0101
,
1010
0011
0110
1001
,
1001
0000
1000
0100
0010
0000
0001
1000
,
0001
0010
0100
1000
0010
0000
0010
0100
,
0001
0000
0001
0000
0002
0000
1003
0001
,
0010
0100
1000
0000
1000
0000
1001
0000
,
1001
0000
0010
1000
0100
0000
0100
0010
,
0001
0100
0001
0100
0001
0000
1000
0010
,
1000
0100
1000
0010
0100
0000
0001
1000
,
0010
0110
0110
0000
;

//---------------dance-single - ----------------
#NOTEDATA:;
#CHARTNAME:;
#CHARTHASH:0:
#STEPSTYPE:dance-single;
#BANNER:;
#DESCRIPTION:;
#CHARTSTYLE:;
#DIFFICULTY:Easy;
#METER:7;
#METERF:0.000000;
#RADARVALUES:0.336747,0.432964,0.602320,0.000000,0.000000,317.000000,236.000000,81.000000,0.000000,0.000000,0.000000,0.000000,0.000000,0.000000,0.336747,0.432964,0.602320,0.000000,0.000000,317.000000,236.000000,81.000000,0.000000,0.000000,0.000000,0.000000,0.000000,0.000000;
#CREDIT:;
#DISPLAYBPM:118.000000:122.000000;
#NOTES:
0000
0000
0000
0000
,
0000
0000
0000
0000
,
0000
0000
0000
0000
,
0000
0000
0000
0000
,
0000
0000
0000
1001
,
1001
0010
1010
0100
,
0101
0010
1010
0001
,
1000
0100
1000
0001
,
0110
0110
0110
0000
,
0000
0001
0001
0100
,
0010
1000
0001
1000
,
0000
0100
0100
0010
,
0001
0100
0010
1000
,
0000
0010
0010
1000
,
0001
0010
0001
0100
,
1000
0010
1000
0100
,
0011
1100
0000
0000
,
0000
0010
0010
1000
,
0001
1000
0100
0100
,
0000
1000
1000
0010
,
0100
0010
0001
0001
,
0000
0010
0010
0001
,
1000
0010
0100
0100
,
0010
1000
0001
0100
,
0101
1010
0000
0000
,
1000
0001
0010
0001
,
0100
0010
1000
0001
,
0100
0010
0100
0010
,
1000
0100
0010
0001
,
0100
0001
0010
0001
,
1000
0010
1000
0100
,
0010
0000
1100
0101
,
1010
0011
0110
1001
,
1001
0010
1010
0001
,
0011
0100
1100
0010
,
1000
1000
1000
0001
,
0100
0110
0110
1001
,
1001
0001
0011
0100
,
0110
0010
0101
1000
,
0100
0010
0100
1000
,
0110
0110
0110
0000
,
1001
0000
1000
0001
,
1000
0100
0010
0001
,
0100
0000
1100
0101
,
1010
0011
0110
1001
,
1001
0100
0101
0010
,
1100
0001
1010
0100
,
0001
0001
0001
0010
,
0100
1100
1100
1001
,
1001
0010
1010
0001
,
0011
0100
0110
1000
,
0010
0100
0010
1000
,
0110
0110
0110
0000
,
1001
0000
0001
0100
,
1000
0010
1000
0001
,
0100
0000
1100
0101
,
1010
0011
0110
1001
,
0110
0000
0001
0010
,
0001
0100
1000
0010
,
0100
0000
1100
0101
,
1010
0011
0110
1001
,
1001
0100
0110
0001
,
0011
1000
1100
0010
,
0100
0100
0100
0010
,
1000
0101
0101
1001
,
1001
0010
1010
0100
,
0101
0001
0011
1000
,
0100
0010
0001
0100
,
0110
0110
0110
0000
;

//---------------dance-single - ----------------
#NOTEDATA:;
#CHARTNAME:;
#CHARTHASH:0:
#STEPSTYPE:dance-single;
#BANNER:;
#DESCRIPTION:;
#CHARTSTYLE:;
#DIFFICULTY:Beginner;
#METER:4;
#METERF:0.000000;
#RADARVALUES:0.188026,0.280153,0.178465,0.000000,0.000000,177.000000,153.000000,24.000000,0.000000,0.000000,0.000000,0.000000,0.000000,0.000000,0.188026,0.280153,0.178465,0.000000,0.000000,177.000000,153.000000,24.000000,0.000000,0.000000,0.000000,0.000000,0.000000,0.000000;
#CREDIT:;
#DISPLAYBPM:118.000000:122.000000;
#NOTES:
// measure 0
0000
0000
0000
0000
,  // measure 1
0000
0000
0000
0000
,  // measure 2
0000
0000
0000
0000
,  // measure 3
0000
0000
0000
0000
,  // measure 4
0000
0000
0000
1001
,  // measure 5
1001
0000
0100
0000
,  // measure 6
0010
0000
0100
0000
,  // measure 7
0001
0001
0001
0000
,  // measure 8
0110
0110
0110
0000
,  // measure 9
1001
0000
1000
0000
,  // measure 10
0010
0000
0100
0100
,  // measure 11
0000
0000
0001
0000
,  // measure 12
0010
0000
1000
1000
,  // measure 13
0000
0000
0100
0000
,  // measure 14
0010
0000
0001
0000
,  // measure 15
0100
0000
0010
0000
,  // measure 16
1000
1000
0000
0000
,  // measure 17
0000
0000
0001
0000
,  // measure 18
0010
0000
0100
0100
,  // measure 19
0000
0000
1000
0000
,  // measure 20
0010
0000
0001
0001
,  // measure 21
0000
0000
0010
0000
,  // measure 22
0001
0000
0100
0000
,  // measure 23
1000
0000
0001
0000
,  // measure 24
0010
0010
0000
0000
,  // measure 25
0110
0000
0001
0000
,  // measure 26
0100
0000
1000
0000
,  // measure 27
1001
0000
0000
0000
,  // measure 28
0010
0010
0010
0010
,  // measure 29
0000
0000
1000
0000
,  // measure 30
0100
0000
0010
0000
,  // measure 31
0001
0000
0100
0100
,  // measure 32
0100
0100
0100
0000
,  // measure 33
1001
0000
0010
0000
,  // measure 34
1000
0000
0100
0000
,  // measure 35
0010
0010
0010
0000
,  // measure 36
0001
0001
0001
0000
,  // measure 37
1001
0000
0100
0000
,  // measure 38
1000
1000
1000
0000
,  // measure 39
0010
0010
0010
0000
,  // measure 40
0110
0110
0110
0000
,  // measure 41
0000
0000
1000
0000
,  // measure 42
0001
0000
0010
0000
,  // measure 43
0001
0000
0100
0100
,  // measure 44
0100
0100
0100
0000
,  // measure 45
1001
0000
1000
0000
,  // measure 46
0001
0001
0001
0000
,  // measure 47
0010
0010
0010
0000
,  // measure 48
0100
0100
0100
0000
,  // measure 49
1001
0000
0100
0000
,  // measure 50
0010
0010
0010
0000
,  // measure 51
1000
1000
1000
0000
,  // measure 52
0110
0110
0110
0000
,  // measure 53
0000
0000
0100
0000
,  // measure 54
0010
0000
0001
0000
,  // measure 55
1000
0000
0100
0100
,  // measure 56
0100
0100
0100
0000
,  // measure 57
0110
0000
0001
0000
,  // measure 58
0100
0000
1000
0000
,  // measure 59
0010
0000
0100
0100
,  // measure 60
0100
0100
0100
0000
,  // measure 61
1001
0000
0010
0000
,  // measure 62
1000
1000
1000
0000
,  // measure 63
0100
0100
0100
0000
,  // measure 64
0010
0010
0010
0000
,  // measure 65
1001
0000
0001
0000
,  // measure 66
1000
1000
1000
0000
,  // measure 67
0010
0010
0010
0000
,  // measure 68
0110
0110
0110
0000
;
