#TITLE:Zorba the Greek;
#ARTIST:Big Idea;
#BANNER:Zorba the Greek-bn.png;
#BACKGROUND:Zorba the Greek-bg.png;
#JACKET:Zorba the Greek-jacket.png;
#MUSIC:Zorba the Greek.ogg;
#SAMPLESTART:36.2;
#SAMPLELENGTH:20;
#DISPLAYBPM:165;
#BPMS:0=165;
#BGCHANGES:;

//---------------dance-single - ----------------
#NOTES:
     dance-single:
     :
     Beginner:
     5:
     :
0000
0000
0000
0000
,
0000
0000
0000
0000
,
0000
0000
0000
0000
,
0000
0000
0000
0000
,
0000
0000
0000
0000
,
1000
0000
1001
0000
,
0000
0000
1001
0000
,
0001
0000
0110
0000
,
0000
0000
0110
0000
,
0100
0000
1001
0000
,
0000
0000
1001
0000
,
0010
0000
0110
0000
,
0000
0000
0110
0000
,
1000
0000
1001
0000
,
0000
0000
0110
0000
,
0010
0000
0110
0000
,
0000
0000
1001
0000
,
0100
0000
1001
0000
,
0000
0000
0110
0000
,
0001
0000
0110
0000
,
0000
0000
1001
0000
,
0010
0000
1001
0000
,
0000
0000
1001
0000
,
1000
0000
0110
0000
,
0000
0000
0110
0000
,
0001
0000
1001
0000
,
1000
0000
1001
0000
,
0010
0000
0110
0000
,
0100
0000
0110
0000
,
0001
0000
1001
0000
,
0100
0000
1001
0000
,
0010
0000
0110
0000
,
1000
0000
0110
0000
,
1000
0000
1001
0000
,
0001
0000
0110
0000
,
0010
0000
0110
0000
,
0100
0000
1001
0000
,
1000
0000
1001
0000
,
0010
0000
0110
0000
,
0100
0000
0110
0000
,
0001
0000
1001
0000
,
0010
0000
0110
0000
,
1000
0000
0110
0000
,
0010
0000
1001
0000
,
0001
0000
1001
0000
,
0100
0000
0000
0000
,
0000
0000
0000
0000
,
0000
0000
0001
0001
,
0000
0000
1000
1000
,
0000
0000
0010
0010
,
0000
0000
0100
0100
,
0000
0000
0001
0000
,
1000
0000
0010
0010
,
0000
0000
1000
0000
,
0001
0000
0100
0100
,
0000
0000
0010
0000
,
1000
0000
0100
0100
,
0000
0000
1000
1000
,
0000
0000
0010
0010
,
0000
0000
0100
0100
,
0000
0000
0001
0001
,
0000
0000
0100
0000
,
0001
0000
0010
0010
,
0000
0000
0001
0000
,
1000
0000
0001
0001
,
0000
0000
0100
0000
,
0010
0000
0100
0100
;

//---------------dance-single - ----------------
#NOTES:
     dance-single:
     :
     Easy:
     7:
     :
0000
0000
0000
0000
,
0000
0000
0000
0000
,
0000
0000
0000
0000
,
0000
0000
0000
0000
,
0000
0000
0000
0000
0000
0000
0000
1000
,
0001
0000
1100
0000
,
0010
0000
0000
0000
0101
0000
0000
0001
,
1000
0000
1010
0000
,
0100
0000
0011
1000
,
0010
0100
0000
0000
0110
0000
0000
0000
,
0001
0000
0000
0000
1001
0000
0000
1000
,
0100
0000
0110
0000
,
0001
0000
0000
0000
1001
0000
0000
0010
,
0001
1000
1010
0000
,
0100
0000
0110
0001
,
1000
0010
0000
0000
0101
0000
0000
0000
,
0001
0000
0000
0000
1001
0000
0000
0010
,
1000
0001
0011
0100
,
0010
0000
1001
1000
,
0100
0010
0000
0000
0110
0000
0000
0000
,
0001
0000
0011
1000
,
0100
1000
0000
0000
1100
0000
0001
0000
,
0100
0010
0101
0000
,
0010
0000
1001
1000
,
0100
0000
0001
0000
0110
0000
0000
1000
,
0001
0100
0101
0001
,
1000
0000
0010
0000
1010
0000
0000
1000
,
0100
0010
0011
1000
,
0001
0010
0110
1000
,
0100
1000
0000
0000
1001
0000
0010
0000
,
1000
0000
0001
0000
1100
0000
0000
0100
,
0010
0100
1001
0010
,
1000
0000
0001
0000
0101
0000
0000
0010
,
1000
0001
1100
0010
,
1000
0100
0011
1000
,
0100
0010
0000
0000
0110
0000
0100
0000
,
0010
0000
0001
0000
0101
0000
0000
1000
,
0001
1000
0011
0010
,
0001
0000
1000
0000
1001
0000
0100
0010
,
0100
1000
1010
0001
,
1000
0000
0100
0000
1100
0000
0010
0001
,
0010
0100
1001
0010
,
1000
0001
1100
0010
,
0100
0001
1000
0001
,
0010
0100
1000
0001
,
0100
0101
1000
1100
,
0001
0011
0010
1010
,
1000
0000
0001
0000
0010
0000
0100
1000
,
0000
0000
0010
0000
1000
0000
0001
0100
,
0000
0000
0110
0000
0001
0000
1000
0100
,
0000
0000
1001
0000
0010
0000
0100
0001
,
0000
0010
0001
0100
,
1000
0001
0000
0000
1100
0000
1100
0000
,
0000
0010
1000
0001
,
0100
0010
0000
0000
0101
0000
0101
0000
,
0000
1000
0001
0010
,
0001
0100
0000
0000
0110
0000
0110
0000
,
0000
0000
0010
0000
1000
0000
0001
0100
,
0000
0000
0001
0000
1000
0000
0100
0010
,
0000
0000
0011
0000
1000
0000
0100
0010
,
0000
0000
1100
0000
0001
0000
0100
0010
,
0000
1000
0001
0100
,
0010
0100
0000
0000
1001
0000
1001
0000
,
0000
0010
0001
1000
,
0001
0010
0000
0000
0011
0000
0011
0000
,
0000
0100
0001
1000
,
0100
1000
0000
0000
1010
0000
1010
0000
;

//---------------dance-single - ----------------
#NOTES:
     dance-single:
     :
     Medium:
     10:
     :
0000
0000
0000
0000
,
0000
0000
0000
0000
,
0000
0000
0000
0000
,
0000
0000
0000
0000
,
0000
0000
0000
0000
0000
0000
0000
1000
,
0001
0010
1100
1000
,
0010
0000
0100
0000
0101
0000
0000
0001
,
1000
0100
0011
0001
,
1000
0000
0010
0000
1010
0000
0010
0100
,
0010
1000
0001
0000
0101
0000
0100
0000
,
0010
0000
1000
0000
1010
0000
0000
0100
,
0010
0001
1001
0010
,
1000
0000
0100
0000
0110
0000
0000
0001
,
1000
0001
0011
1000
,
0001
0000
0010
0000
1100
0000
0100
1000
,
0001
1000
0000
0000
0110
0000
0001
0000
,
0100
0000
0010
0000
1010
0000
0000
0010
,
1000
0001
0101
0010
,
0001
0000
0100
0000
1010
0000
1000
0100
,
1000
0001
0100
0000
1001
0000
0010
0000
,
1000
0000
0100
0000
1100
0000
0001
1000
,
0001
0100
0010
0000
1010
0000
1000
0100
,
1000
0001
0101
0000
,
0010
0000
1000
0000
1001
0000
0001
0010
,
0001
0000
0100
0000
1010
0000
0000
0001
,
1000
0000
0100
0000
0011
0000
1000
0001
,
1000
0000
0010
0100
0001
0000
0000
1000
,
0001
0000
0010
0000
0110
0000
0010
0001
,
1000
0000
0010
0100
0010
0000
1000
0001
,
1000
0100
0000
0010
0001
0000
0100
0001
,
1000
0000
0010
0100
0001
0000
0000
0010
,
0001
0000
1000
0100
1000
0000
0010
0100
,
0001
0000
1000
0001
0100
0000
0000
0010
,
0100
0000
0001
0000
0011
0000
1000
0001
,
1000
0000
0100
0000
1100
0000
0010
0001
,
0010
0100
1000
0001
1000
0000
0110
0000
,
0001
0000
0010
0001
0100
0000
0010
1000
,
0010
0000
1000
0001
1000
0000
0100
0010
,
0001
0000
1000
0001
1000
0000
0010
1000
,
0001
0100
0000
0010
1000
0000
1001
0000
,
0010
0000
1000
0001
1000
0000
0100
0010
,
0001
0100
0001
1000
0010
0000
1000
0100
,
1000
0000
0010
0100
0001
0000
0000
0000
,
0010
0001
1000
0001
1000
0000
1100
0000
,
1000
0001
0010
0001
0010
0000
0011
0000
,
0100
0000
1001
0000
1000
0000
0010
0100
,
0001
0000
0110
0000
1000
0010
1000
0001
,
0100
0001
0010
0001
0010
0000
0100
1000
,
0000
0010
0100
0010
0100
0000
0001
1000
,
0000
0100
0010
0001
0100
0000
0010
1000
,
0000
1000
0100
1000
0001
0000
0100
0010
,
0000
1010
0000
0001
1000
0000
0110
0000
,
0010
0100
0000
0000
0001
1000
0001
1000
,
0000
0101
0000
0010
1000
0000
0110
0000
,
0010
1000
0000
0000
0100
0010
0100
1000
,
0000
0011
0000
0010
0100
0000
1100
0000
,
0010
1000
0000
0000
0001
0010
0001
1000
,
0000
0010
1000
0000
0100
0010
0100
0010
,
0000
0001
0100
0000
0001
1000
0001
1000
,
0000
0010
1000
0010
1000
0010
0100
0001
,
0000
0010
0001
0010
0001
0010
0100
1000
,
0000
0110
0000
0001
1000
0000
1010
0000
,
0010
0100
0000
0000
0001
0010
0100
1000
,
0000
1100
0000
0010
0001
0000
1001
0000
,
0010
0001
0000
0000
1000
0001
0010
0100
,
0000
0110
0000
0010
0001
0000
0101
0000
,
1000
0010
0000
0000
1000
0100
0010
0001
;

//---------------dance-single - ----------------
#NOTES:
     dance-single:
     :
     Hard:
     12:
     :
0000
0000
0000
0000
,
0000
0000
0000
0000
,
0000
0000
0000
0000
,
0000
0000
0000
0000
,
0000
0000
0000
0000
0000
0000
0000
1000
,
0001
0000
0010
0100
1100
0000
0000
0010
,
0100
0000
0001
1000
1100
0000
0000
0100
,
0010
0000
0001
0100
0101
0000
0000
1000
,
0001
0000
0000
0000
0000
0000
0010
0000
0000
0100
0000
0000
1100
0000
0000
0000
1000
0000
0001
0000
0000
1000
0000
0000
,
0010
0010
1000
0001
0011
0000
0000
0100
,
0001
0000
1000
0001
0011
0000
0000
0010
,
0001
0000
1000
0100
0110
0000
0000
0010
,
0100
0000
0010
0001
1001
0000
0000
1000
,
0010
0000
1000
0100
0110
0000
0010
0001
,
1000
0000
0000
0000
0000
0000
0001
0000
0000
0100
0000
0000
0110
0000
0000
0000
0010
0000
1000
0000
0000
0001
0000
0000
,
0010
0000
0100
0000
0000
0000
1000
0000
0000
0010
0000
0000
1010
0000
0000
0000
0000
0000
0100
0000
0000
0010
0000
0000
,
0001
0000
0000
0000
1000
0000
0010
0100
0010
0000
0000
0000
0000
0000
1000
0000
,
0100
0000
0010
0001
0101
0000
0010
1000
,
0001
0000
0000
0000
0000
0000
1000
0000
0000
0100
0000
0000
1100
0000
0000
0000
0010
0000
0001
0000
0000
1000
0000
0000
,
0100
0000
0010
0000
0000
0000
0001
0000
0000
1000
0000
0000
1010
0000
0000
0000
0000
0000
0001
0000
0000
0010
0000
0000
,
0100
0000
0000
0000
1000
0000
0001
0100
0001
0000
0010
0000
0001
0000
1000
0000
,
0010
0100
0001
1000
1001
0000
0100
0010
,
0001
0000
0000
0000
0100
0000
0001
0000
1000
0100
0000
0000
1000
0000
0000
0000
,
0110
0000
0001
1000
0101
0000
0010
1000
,
0100
0000
0000
1000
0001
0000
1000
0100
1000
0000
0000
0000
0000
0000
0010
0000
,
0100
0000
0001
0010
1000
0100
0010
0001
,
0100
0000
0001
1000
0110
0000
1000
0100
,
0010
0000
0001
0100
0010
1000
0001
1000
,
0100
0000
0000
0000
0000
0000
0010
0000
0000
0001
0000
0000
1100
0000
0000
0000
0001
0000
1000
0000
0000
0000
0100
0000
,
1000
0001
0010
0100
0110
0000
1000
0010
,
1000
0000
0100
0010
0011
0000
1000
0001
,
0010
0000
0000
0001
1000
0000
0001
0000
0010
0000
0100
0000
1000
0000
0010
0000
,
0100
0000
0001
1000
1001
0000
0010
0100
,
0010
0000
1000
0100
1000
0001
0010
0100
,
1000
0000
0000
0000
0000
0000
0010
0000
0000
1000
0000
0000
0100
0000
0000
0010
0000
0000
0001
0000
1000
0000
0000
0000
,
0001
0000
0100
0000
0000
0000
0010
0000
0000
1000
0000
0000
0001
0000
0000
1000
0000
0000
0100
0000
0000
0010
0000
0000
,
0001
0000
0100
0010
1010
0000
0100
1000
,
0001
0000
0010
0001
1000
0010
0100
0010
,
1000
0000
0100
0010
0001
0100
0001
1000
,
0010
0100
0001
0010
0011
0000
1000
0001
,
0010
0001
0100
0010
1000
0100
1000
0001
,
0010
0000
0100
0000
1000
0000
0001
0000
0000
0100
0000
0000
0010
0000
0000
1000
0000
0000
0001
0000
0000
1000
0000
0000
,
0100
0000
0010
0001
0101
0000
1000
0100
,
1000
0001
0010
0100
0010
0001
1000
0010
,
0000
1000
0100
1000
0001
0010
0100
1000
,
1100
0000
0000
0000
0001
0000
0000
0100
0001
0000
0010
0000
0100
0000
1000
0000
,
0010
0000
0000
1000
0010
0000
0100
0000
0001
0000
0010
0000
0001
0000
1000
0000
,
0000
0000
1000
0000
0001
0000
1000
0000
0010
0100
0010
0100
0010
0000
1000
0000
,
0000
0000
0100
0000
0010
0000
0001
0000
1000
0010
1000
0010
1000
0000
0001
0000
,
0000
0000
0010
0000
0001
0000
0100
0000
0001
1000
0001
1000
0001
0000
0100
0000
,
0000
0000
0010
0000
0100
0000
0010
0000
1000
0100
1000
0100
1000
0000
0001
0000
,
0000
0010
0001
0010
1100
0000
0101
0000
,
1000
0000
0001
0000
0000
0000
0000
0000
0010
0000
0100
0000
1000
0010
1000
0000
,
0000
0010
1000
0100
1001
0000
0110
0000
,
1000
0000
0001
0000
0000
0000
1000
0000
0100
0000
0010
0000
0001
0100
0001
0000
,
0000
0010
0001
1000
1100
0000
0011
0000
,
0100
0000
0001
0000
0000
0000
0010
0000
0001
0000
1000
0100
1000
0000
0010
0000
,
0000
0000
0100
0000
0001
0000
0100
0000
0010
1000
0010
1000
0010
0000
0100
0000
,
0000
0000
0001
0000
0010
0000
0100
0000
1000
0001
1000
0001
1000
0000
0010
0000
,
0000
0000
0100
0000
0001
0000
1000
0000
0100
0010
0100
0010
0100
0000
1000
0000
,
0000
0000
0010
0000
0100
0000
0001
0000
1000
0100
1000
0100
1000
0000
0010
0000
,
0000
0100
0001
0010
1001
0000
1100
0000
,
0001
0000
1000
0000
0000
0000
0100
0000
1000
0010
1000
0010
1000
0000
0001
0000
,
0000
0100
0001
0010
0110
0000
0011
0000
,
0100
0000
0010
0000
0000
0000
0010
0000
1000
0100
1000
0100
1000
0000
0001
0000
,
0000
0010
0001
1000
1010
0000
0101
0000
,
0010
0000
0100
0000
0000
0000
0001
0000
1000
0100
1000
0100
1000
0000
0001
0000
;

//---------------dance-single - ----------------
#NOTES:
     dance-single:
     :
     Challenge:
     16:
     :
0000
0000
0000
0000
,
0000
0000
0000
0000
,
0000
0000
0000
0000
,
0000
0000
0000
0000
,
0000
0000
0000
0000
0000
0000
0000
1000
,
0001
0000
0010
0100
1100
0010
1000
0001
,
0100
0000
0000
0001
1000
0000
0010
0000
1000
0100
0000
0000
0010
0000
0001
0000
,
1000
0000
0000
0010
1000
0000
0001
0000
0101
0000
0010
0000
0100
0000
0001
0000
,
1000
0000
0000
0010
0100
0000
0001
1000
0001
0000
0010
0000
0001
0000
0100
0000
,
1000
1000
0010
0100
1010
0001
1000
0100
,
0010
0000
0000
0001
1000
0000
0010
0000
1000
0100
0000
0000
0110
0000
0010
0000
,
0001
0000
1000
0100
1000
0000
0010
0000
1001
0000
0100
0000
0001
0000
0010
0000
,
0100
0000
1000
0010
1000
0000
0001
0010
0001
0000
0000
0000
0000
0000
0100
0000
,
0010
0000
1000
0100
1000
0000
0001
0000
0011
0000
0100
0000
0001
0000
1000
0000
,
0010
0000
0100
0001
0100
0000
0010
0000
1000
0001
1000
0000
0100
0000
0010
0000
,
0001
0100
0010
1000
0110
0001
0010
0100
,
1000
0000
0001
0010
0001
0000
1000
0010
1000
0000
0100
0000
0000
0000
0010
0000
,
0001
0000
1000
0001
1000
0000
0010
0000
1010
0000
0100
0000
1000
0000
0001
0000
,
0100
0000
0010
1000
0010
0000
0100
0000
0001
0010
0001
0000
1000
0000
0010
0000
,
0100
0001
0010
0100
0011
1000
0001
0100
,
0010
0000
1000
0001
1000
0000
0100
0010
0100
0000
1000
0000
0001
0000
0010
0000
,
0001
0000
1000
0010
1000
0000
0100
0000
1100
0000
0001
0000
0010
0000
0100
0000
,
0010
0000
0001
1000
0001
0000
0100
0000
0010
1000
0000
0010
0100
0000
0001
0000
,
0011
0000
1000
0100
1000
0000
0001
0000
0110
0000
0100
0000
0010
0000
0001
0000
,
0100
0000
0001
0010
0001
0000
1000
0010
1000
0000
0100
0000
0000
0000
1000
0000
,
0001
0000
0010
0100
1000
0000
0010
0000
1001
0000
0001
0000
1000
0000
0100
0000
,
0010
0000
0001
1000
0010
0000
0100
0000
0101
0000
1000
0010
1000
0000
0001
0000
,
0010
0000
0100
1000
0001
0000
0100
0000
0110
0000
0010
0000
1000
0000
0001
0000
,
0010
0000
0001
1000
0001
0000
0100
0000
1001
0000
1000
0000
1000
0000
0010
0000
,
0100
0000
0001
0010
0100
0000
1000
0000
1010
0000
0100
0000
0010
0000
0001
0000
,
1000
0000
0010
1000
0001
0000
0010
0000
0011
0000
1000
0000
0001
0000
0100
0000
,
0010
0000
1000
0100
0010
0000
0001
0000
1001
0000
0010
0000
1000
0000
0001
0000
,
1000
0000
0100
0010
0001
0000
0100
0000
1010
0000
0010
0000
1000
0000
0001
0000
,
0010
0000
0001
1000
0100
0000
0010
0000
0110
0000
0100
0000
1000
0000
0001
0000
,
0010
0000
0000
0000
0000
0000
0001
0000
0000
1000
0000
0000
0100
0000
0000
0000
0000
0000
0010
0000
0000
0000
0000
0000
0011
0000
0000
0000
0000
0000
1000
0000
0000
0000
0000
0000
0010
0000
0000
0000
0100
0000
0000
0000
0001
0000
0000
0000
,
1000
0000
0100
0010
0001
0000
0100
0000
1001
0000
0010
0000
1000
0000
0001
0000
,
0010
0000
0001
1000
0001
0000
0100
0000
1010
0000
1000
0001
1000
0000
0010
0000
,
0100
0000
0001
0010
0100
0000
1000
0000
0110
0000
0010
0001
1000
0000
0010
0000
,
0100
0000
0001
1000
0100
0000
0010
0000
1100
0000
1000
0000
0001
0000
0100
0000
,
0010
0000
1000
0001
0010
0000
0001
0000
0101
0000
0100
0000
0010
0000
1000
0000
,
0100
0000
1000
0000
0001
0000
0010
0000
0011
0000
0100
0000
0010
1000
0010
0000
,
1000
0000
0100
0000
0010
0000
0001
0000
0000
0100
0000
0000
0110
0000
0000
0010
0000
0000
1000
0000
0000
0001
0000
0000
,
0100
0000
0010
1000
0010
0000
0100
0000
1001
0000
0001
0010
0001
0000
1000
0000
,
0010
0000
0100
0001
1000
0000
0010
0000
1000
0000
0100
0000
0001
0000
0100
0000
,
1000
0000
0010
0100
0001
0000
0010
0000
1000
0000
0010
0001
0100
0000
0010
0000
,
0110
0000
1000
0001
0100
0000
0010
1000
0010
0000
0100
0001
0100
0000
0010
0000
,
1010
0000
1000
0100
1000
0000
0010
0100
0001
0000
0010
0001
1000
0000
0010
0000
,
0100
0000
0101
0000
0101
0000
0101
0000
1000
0001
1000
0001
0010
0100
1000
0000
,
0000
0000
1100
0000
1100
0000
1100
0000
0010
1000
0001
1000
0001
0010
0100
0000
,
0000
0000
0011
0000
0011
0000
0011
0000
1000
0010
0100
0001
1000
0001
0100
0000
,
0000
0000
1010
0000
1010
0000
1010
0000
0100
0010
0100
0010
1000
0001
0010
0000
,
0000
1001
0001
0100
1000
0010
1000
0001
,
0011
0000
1100
0000
0000
0000
0010
0000
1000
0100
0010
0001
1000
0001
0100
0000
,
0000
0110
0001
0010
0001
1000
0100
0010
,
0011
0000
1100
0000
0000
0000
0001
0000
0100
0010
1000
0001
0010
0100
1000
0000
,
0000
1010
0100
0010
0001
0100
0001
1000
,
0011
0000
1100
0000
0000
0000
0010
0000
0100
0001
0010
0001
0010
0100
1000
0000
,
0000
0000
1100
0000
1100
0000
1100
0000
1000
0010
0100
0010
1000
0001
0010
0000
,
0000
0000
0011
0000
0011
0000
0011
0000
1000
0001
0010
0001
0100
0001
0010
0000
,
0000
0000
0101
0000
0101
0000
0101
0000
0010
1000
0100
0010
0100
1000
0001
0000
,
0000
0000
1010
0000
1010
0000
1010
0000
0100
1000
0001
0010
0100
0010
0001
0000
,
0000
0011
1000
0001
0010
0100
1000
0010
,
1010
0000
0101
0000
0000
0000
0010
0000
0001
0100
0010
0100
0001
1000
0100
0000
,
0000
0110
0100
0010
0001
0100
0010
1000
,
1010
0000
0101
0000
0000
0000
0010
0000
0001
1000
0010
1000
0010
0100
0001
0000
,
0000
1001
0100
0001
0010
0001
1000
0100
,
1010
0000
0101
0000
0000
0000
0010
0000
0001
1000
0001
0010
0001
1000
0100
0000
;
