#VERSION:0.83;
#TITLE:Zirkfied;
#SUBTITLE:;
#ARTIST:iconoclasm;
#TITLETRANSLIT:;
#SUBTITLETRANSLIT:;
#ARTISTTRANSLIT:;
#GENRE:;
#ORIGIN:;
#TAGS:;
#CREDIT:;
#BANNER:Zirkfied-bn.png;
#BACKGROUND:Zirkfied-bg.png;
#PREVIEWVID:;
#JACKET:Zirkfied-jacket.png;
#CDIMAGE:;
#DISCIMAGE:;
#LYRICSPATH:;
#CDTITLE:;
#MUSIC:Zirkfied.ogg;
#OFFSET:0.000000;
#SAMPLESTART:20.570999;
#SAMPLELENGTH:20.000000;
#SELECTABLE:YES;
#DISPLAYBPM:105.000000:210.000000;
#BPMS:0.000000=210.000000,
216.000000=105.000000,
248.000000=210.000000;
#STOPS:;
#DELAYS:;
#WARPS:;
#TIMESIGNATURES:0.000000=4=4;
#TICKCOUNTS:0.000000=4;
#COMBOS:0.000000=1;
#SPEEDS:0.000000=1.000000=0.000000=0;
#SCROLLS:0.000000=1.000000;
#FAKES:;
#LABELS:0.000000=Song Start;
#BGCHANGES:;
#KEYSOUNDS:;
#ATTACKS:
;

//---------------dance-single - ----------------
#NOTEDATA:;
#CHARTNAME:;
#CHARTHASH:4248442690:
#STEPSTYPE:dance-single;
#BANNER:;
#DESCRIPTION:;
#CHARTSTYLE:;
#DIFFICULTY:Hard;
#METER:14;
#METERF:0.000000;
#RADARVALUES:0.749544,0.748771,0.502272,0.401817,0.428863,679.000000,614.000000,65.000000,52.000000,0.000000,0.000000,0.000000,0.000000,0.000000,0.749544,0.748771,0.502272,0.401817,0.428863,679.000000,614.000000,65.000000,52.000000,0.000000,0.000000,0.000000,0.000000,0.000000;
#CREDIT:;
#DISPLAYBPM:105.000000:210.000000;
#NOTES:
0000
0000
0000
0000
,
0000
0000
0000
0000
,
0000
0000
0000
0000
,
0000
0000
0000
0000
,
0200
0000
0001
0000
2300
0000
3100
0001
,
0010
1000
0010
0000
0001
1000
0100
0000
,
2000
0000
3020
0000
0130
1000
0100
0001
,
0020
0000
0130
0000
0002
0000
1003
1001
,
1001
0000
1000
0100
0000
0100
0010
0000
0010
0001
0000
0000
,
1001
0000
0001
0100
0000
0100
0010
0000
0010
1000
0000
0000
,
1100
0101
1100
0101
,
1000
0000
1000
0010
0000
0010
0100
0000
0100
0001
0000
0000
,
1001
0000
0010
1000
0000
1000
0100
0000
0100
0010
0000
0000
,
1001
0000
0100
0001
0000
0001
1000
0000
1000
0100
0000
0000
,
1010
0011
1010
0011
,
0010
0000
0010
0001
0000
0001
1000
0000
1000
0100
0000
0000
,
1000
0000
0010
0100
0000
0001
0010
0000
0100
1000
0000
0001
,
0200
0000
0000
0300
,
0110
0010
0100
0001
0000
1000
0001
0100
,
0010
1000
0200
0000
0310
0001
1000
0001
,
0100
0010
1000
0000
1010
0000
0101
0000
,
1000
0000
0100
0000
0010
0000
0000
0010
0001
0000
1000
0000
0100
0000
0000
0100
,
1000
0001
1000
0100
0000
0010
0001
0100
,
0001
0010
0001
1000
0000
0010
1000
0100
,
0011
0000
0100
0010
1000
0010
0100
0001
,
0010
0000
0100
0000
1000
0000
0001
0100
0001
0000
0010
0000
0100
0000
1000
0000
,
0010
0100
0001
2000
0000
3001
1000
0100
,
0010
0001
2000
0000
3010
1000
0100
0010
,
0001
0000
0100
0000
0101
0000
0000
0010
1000
0000
0001
0000
0100
0000
0000
0010
,
1000
0000
0100
0000
0010
0000
0001
0000
0100
0000
0010
0000
1000
0000
0000
0001
,
1000
0010
0100
0101
0000
0001
1000
0100
,
0001
0100
1000
1010
0000
0010
0100
0001
,
1100
0000
1000
0001
0010
1000
0010
0100
,
0010
0000
0001
0000
0100
0000
0010
0000
1000
0000
0001
0000
0100
0000
0000
0001
,
1000
0010
0100
0010
0001
0010
0100
0010
,
1000
0100
0001
0100
0010
0100
1000
1001
,
1001
0010
0000
0100
0001
1000
0000
0100
,
0110
0000
0000
1001
0000
0000
0110
0000
0010
0100
0000
1000
,
0001
0100
0010
1000
0100
0010
0001
0000
,
1000
0010
0100
1000
0100
0001
0010
0000
,
0001
0100
0010
1000
0100
0010
0001
0000
,
0010
1000
0010
0100
0010
0001
0010
0000
,
0001
1000
0010
0100
1000
0100
0001
0000
,
0010
0100
0001
0100
0010
0001
1000
0000
,
0001
0000
0001
0100
0000
0100
0010
0000
0010
1000
0000
1000
,
0100
0000
0000
1010
0000
0000
0001
0000
0001
1000
0000
1000
,
0100
0000
1000
0001
0000
1000
0010
0000
1000
0100
0000
0000
,
0010
0000
0001
0100
0000
0001
0010
0000
0001
1000
0000
0000
,
0010
0000
0100
1000
0000
0100
0010
0000
0100
0001
0000
0000
,
1000
0000
0010
0100
0000
0010
0001
0000
0010
0100
0000
0000
,
0101
0000
1000
0100
0000
0000
1100
0000
0001
0100
0000
0000
,
1010
0000
0001
0010
0000
0000
0011
0000
1000
0010
0000
0000
,
0110
0000
0001
0100
0000
0100
0010
0000
0010
1000
0000
1000
,
0100
0000
0100
0010
0000
0010
0001
0000
0001
1000
0000
1000
,
0020
0230
0302
2003
,
3200
0320
0032
2003
,
3002
0000
0203
0000
0320
0000
1030
0001
,
0010
1000
0010
0001
0100
0010
1000
0001
,
0020
0000
0031
0100
2000
0000
0000
0000
,
3002
0000
1003
0010
0200
0000
0000
0000
,
0320
0000
0130
0001
1000
0100
0010
1000
,
0010
0000
0001
0000
0100
0000
0010
0000
1000
0000
0001
0000
0100
0000
0000
0010
,
1000
0100
1000
0010
1000
0001
0000
0000
,
0001
0010
0001
0100
0001
1000
0000
0000
,
0100
0010
1000
0001
0100
0010
0000
0000
,
2000
0000
3002
0000
2003
0000
3200
0000
0320
0000
0032
0000
,
0003
0000
0000
0000
0100
0020
0000
0000
0200
0000
0000
0000
0330
0000
0000
0000
,
1001
1000
0200
0000
0000
1300
0010
0001
,
0010
1000
0100
0010
1000
0010
0001
0100
,
0001
0011
0110
1100
,
1010
0011
1100
0101
,
1000
0001
0010
0210
0000
0301
0100
0000
,
1000
0010
0100
0120
0000
0031
0010
0000
,
1000
0010
0200
0000
0301
0010
0001
1000
,
0100
0010
0001
1000
0010
0000
0100
0010
,
1000
0100
2002
0000
0003
3001
1000
0010
,
0100
1000
0100
0001
0010
0100
1000
0001
,
0100
1010
0110
0101
,
1010
1100
0101
0011
,
1000
0001
0220
0000
0030
0310
0100
0001
,
1000
0000
1000
0001
1000
0010
0100
0001
,
0010
0011
0101
1001
,
1000
0100
0010
0001
0010
0100
1000
0000
,
1001
0000
1000
0001
0000
1000
0001
0000
1000
0100
0000
0000
,
0010
0000
0001
1000
0000
0001
1000
0000
0001
0100
0000
0000
,
0002
0023
0230
2300
,
3010
0000
1000
0010
0000
1000
0001
0000
0000
0100
0000
0000
,
1001
0000
1000
0100
0000
0100
0010
0000
0010
0001
0000
0000
,
1001
0000
0001
0010
0000
0010
0100
0000
0100
1000
0000
0000
,
1100
0101
1100
0101
,
0010
0000
1000
0010
0000
0100
0001
0000
0000
0011
0000
0000
,
1001
0000
1000
0010
0000
0100
0010
0000
0100
0001
0000
0000
,
0110
0000
0010
1000
0000
0001
1000
0000
0100
0010
0000
0000
,
0001
0000
0001
0100
0000
0100
0010
0000
0010
1000
0000
0000
,
0100
0000
0100
0010
0000
0010
0001
0000
0001
1000
0000
0000
,
0010
0000
1000
0200
0000
0000
0310
0000
0001
0200
0000
0000
,
0301
0000
1000
0020
0000
0000
1030
0000
0001
0020
0000
0000
,
0130
0000
0010
1000
0000
0001
0010
0000
1000
0001
0000
0100
,
1000
0000
0010
0001
0000
0010
0100
0000
0001
1000
0000
0100
,
1000
0001
1000
0001
1000
0001
1000
0000
0000
0220
0000
0000
,
0000
0000
0000
0000
,
0000
0000
0000
0000
,
0330
0000
0000
0000
;

//---------------dance-single - ----------------
#NOTEDATA:;
#CHARTNAME:;
#CHARTHASH:1590690372:
#STEPSTYPE:dance-single;
#BANNER:;
#DESCRIPTION:;
#CHARTSTYLE:;
#DIFFICULTY:Challenge;
#METER:18;
#METERF:0.000000;
#RADARVALUES:1.057531,1.182271,0.316818,0.401817,1.564770,958.000000,917.000000,41.000000,52.000000,0.000000,0.000000,0.000000,0.000000,0.000000,1.057531,1.182271,0.316818,0.401817,1.564770,958.000000,917.000000,41.000000,52.000000,0.000000,0.000000,0.000000,0.000000,0.000000;
#CREDIT:;
#DISPLAYBPM:105.000000:210.000000;
#NOTES:
0000
0000
0000
0000
,
0000
0000
0000
0000
,
0000
0000
0000
0000
,
0000
0000
0000
0000
,
0100
0000
0010
0001
0010
1000
0100
0010
,
0001
0100
0010
0100
1000
0100
0001
0010
,
0110
0000
1001
0000
1000
0010
0100
0001
,
0020
0000
0130
1000
0002
0000
0103
0010
,
1010
0000
1000
0100
0010
0001
0010
0100
1000
0100
0010
0000
,
0011
0000
0001
0010
0100
1000
0100
0010
0001
0010
0100
0000
,
1100
0101
1100
0101
,
1000
0100
0010
0001
0010
0100
1000
0010
0000
0100
0001
0000
,
0101
0000
0100
0010
1000
0001
0010
0100
1000
0001
1000
0000
,
1100
0000
0100
1000
0001
1000
0100
0010
0001
0100
0010
0000
,
1010
0011
1010
0011
,
1000
0010
0100
0001
0010
0100
1000
0001
0000
0100
0010
0100
,
1000
0100
0001
0010
0100
0010
1000
0001
0010
0100
1000
0001
,
0020
0000
0000
0030
,
0110
0000
0010
0000
0001
1000
0001
0000
0000
0100
0010
0000
1000
0000
0001
0000
,
0010
0000
0100
0000
1000
0000
0010
0100
0001
0100
0010
0000
1000
0001
1000
0000
,
0100
0000
0010
0000
0001
0000
0100
0010
1000
0000
0001
0000
0010
0000
0001
1000
,
0100
0000
0010
0000
0001
0000
0100
0010
1000
0001
1000
0000
0100
0000
0010
0001
,
1000
0000
0010
0000
0100
0000
0001
0010
0001
1000
0010
0000
1000
0100
0010
0001
,
1000
0000
0010
0000
0100
0000
0010
1000
0001
1000
0001
0000
0100
0001
0100
0010
,
1000
0000
0100
0000
0010
1000
0010
0001
0100
0000
0010
0000
1000
0100
0001
0100
,
1000
0000
0010
0000
0100
0001
0100
0001
1000
0100
1000
0100
0010
0001
1000
0010
,
0100
0001
0010
0001
1000
0010
0100
0000
0001
1000
0001
0000
0010
0100
1000
0000
,
0010
1000
0001
0010
0100
0000
1000
0010
1000
0000
0001
0100
0001
0000
0010
0100
,
1000
0001
0010
0001
1000
0000
0100
0010
0100
0000
1000
0010
0100
0000
0001
1000
,
0001
0000
0010
0100
1000
0000
0010
0100
0001
1000
0001
1000
0010
0100
0001
1000
,
0100
0010
0001
0010
0100
0000
1000
0001
1000
0010
0100
0000
0001
0010
0100
0000
,
1000
0001
1000
0100
0010
0000
0001
1000
0010
0100
0010
0000
1000
0001
0010
0000
,
0100
0000
1000
0001
1000
0010
0100
0001
0010
0000
0100
0001
0100
1000
0001
0010
,
0001
0000
0100
0000
0010
1000
0010
1000
0100
0010
0100
0010
0001
1000
0010
0100
,
0001
0010
1000
0010
0100
0010
1000
0010
,
0001
0010
1000
0010
0100
0010
0001
1001
,
1001
0000
0000
0000
0000
0000
1000
0000
0000
0100
0000
0000
1000
0000
0000
0000
0010
0000
0000
0000
1000
0000
0000
0000
0100
0000
0000
0000
0010
0000
0000
0000
0001
0000
0000
0000
0100
0000
0000
0000
0010
0000
0000
0000
1000
0000
0000
0000
,
0001
1000
0100
0010
1000
0010
0001
0100
0001
1000
0100
0010
,
0001
0100
1000
0001
1000
0100
0010
0001
,
0100
0010
0001
0010
1000
0010
0100
1000
,
0100
0001
0010
1000
0010
0100
0010
1000
,
0010
0001
0100
0010
0001
0010
1000
0001
,
0100
0010
0100
1000
0100
0010
1000
0001
,
0010
1000
0010
0100
0010
0001
0100
0010
,
1000
0100
1000
0001
0100
0001
1000
0010
1000
0001
0010
0001
,
0100
0000
0000
1010
0000
0000
0001
0010
1000
0001
0100
1000
,
0010
0000
1000
0001
0000
0010
0001
0000
0100
0010
0000
1000
,
0100
0000
0001
0100
0000
0010
0001
0000
0100
1000
0000
0100
,
0010
0000
1000
0100
0000
0001
0100
0000
0010
0001
0000
0100
,
1000
0000
0100
0010
0000
0100
1000
0000
0001
0010
0000
1000
,
0100
0010
0001
0100
0000
0010
1000
0001
1000
0100
0000
0010
,
0001
0100
1000
0010
0000
1000
0001
0010
0100
0010
0000
0001
,
0100
0010
1000
0100
0000
1000
0001
0010
0001
0100
0000
0010
,
1000
0001
0010
0001
0100
0001
0100
1000
0010
1000
0010
0100
,
0002
0000
0000
0000
0020
0000
0000
0003
2000
0000
0000
0030
0200
0000
0000
3000
,
0020
0000
0000
0300
2000
0000
0000
0030
0200
0000
0000
3000
0002
0000
0000
0300
,
2000
0000
0000
0003
0020
0000
0000
3000
0200
0000
0000
0030
2000
0300
0002
3000
,
0020
0003
0200
0030
2000
0300
0020
3000
0200
0030
2000
0300
0200
3000
0002
0300
,
0020
0000
0000
0003
0002
0030
2000
0003
0200
0000
0000
0000
0000
0000
0000
3000
,
2000
0000
0000
0300
0002
3000
0200
0003
0020
0000
0000
0000
0000
0000
0000
0300
,
0200
0000
0000
0030
0002
0300
2000
0003
0200
3000
0002
0300
0200
0003
0020
0300
,
0002
0030
0200
0000
0000
0003
0020
0300
2000
0030
0002
3000
2000
0000
0003
3200
,
1300
0001
1000
0001
1000
0001
1000
0001
1000
0000
0010
0000
0000
0000
0010
0000
,
0001
1000
0001
1000
0001
1000
0001
1000
0001
0000
0010
0000
0000
0000
0010
0000
,
1000
0001
1000
0001
0100
0010
0100
0010
1000
0000
0100
0000
0010
0000
0001
0000
,
0011
0000
0110
0000
1100
0000
1010
0000
1001
0000
0101
0000
,
0000
0000
0000
0010
0100
0010
0000
2000
0002
0000
0000
0000
3003
0000
0000
0000
,
1000
0100
0001
0100
1000
0000
0010
0000
0100
0000
0001
0000
0010
0100
1000
0000
,
0001
0100
0001
0000
1000
0100
1000
0000
0001
0010
0100
1000
0100
0010
0001
0000
,
1000
0010
1000
0000
1100
0000
0000
0000
0001
0100
0001
0000
0101
0000
0000
0000
,
1000
0100
1000
0000
0011
0000
0000
0000
0001
0010
0001
0000
1010
0000
0000
0000
,
0010
0001
0010
0100
0010
1000
0010
0000
0100
0000
0001
0000
1000
0000
0000
0000
,
0100
0001
0100
0010
0100
1000
0100
0000
0010
0000
0001
0000
1000
0000
0000
0000
,
1000
0000
0100
0000
0010
0000
0001
0000
0000
0000
0000
0000
0100
0000
0000
0010
0000
0000
1000
0000
0000
0001
0000
0000
,
1000
0100
1000
0100
0010
0001
0010
0001
1000
0010
1000
0010
0100
0001
0100
0001
,
1000
0010
0001
0010
1000
0000
0100
0000
0010
0000
0001
0100
0010
1000
0001
0000
,
1000
0100
1000
0100
0001
0100
0001
0100
1000
0010
1000
0010
0001
0010
0001
0010
,
1000
0100
0010
0000
0011
0000
0000
0000
0001
0100
0010
0000
1010
0000
0000
0000
,
1000
0001
0100
0000
0101
0000
0000
0000
0010
0001
1000
0000
1100
0000
0000
0000
,
0010
1000
0001
0010
0100
0000
1000
0000
0010
0000
0100
0000
0001
1000
0001
0000
,
1000
0010
1000
0010
0100
1000
0100
1000
0100
0001
0100
0001
0010
0001
0010
0001
,
1000
0100
0000
0000
0110
0000
0000
0000
0001
1000
0000
0000
0001
0100
0000
0000
,
1000
0100
0001
0000
1000
0010
0001
0000
0100
0010
1000
0000
0100
0010
0001
0000
,
1001
0000
1000
0100
0010
0001
0010
0100
1000
0100
0010
0001
,
0100
0000
0001
0010
0100
1000
0100
0010
0001
0010
0100
1000
,
0001
0100
0010
2000
0000
0000
3001
0010
0100
2000
0000
0000
,
3001
0100
0001
1000
0100
1000
0010
0000
0000
0010
0000
0000
,
1001
0000
0010
1000
0001
0010
0001
0100
0010
1000
0001
0000
,
0110
0000
0010
1000
0100
0010
0001
1000
0001
0100
0010
0000
,
1010
0101
0011
1100
,
0001
1000
0100
1000
0010
0001
0100
0001
0100
0010
1000
0010
,
0100
0001
1000
0100
0000
0010
0001
0000
1000
0010
0000
0100
,
0001
0010
0001
1000
0000
0010
1000
0000
0100
0010
0000
0001
,
0100
0010
1000
0001
0010
0100
1000
0000
0001
0100
0000
0010
,
1000
0100
0010
0001
0010
0100
1000
0100
0010
0001
0000
0000
,
0100
0001
0100
0010
0100
1000
0100
0010
0100
0001
0100
0000
,
0010
1000
0010
0100
0010
0001
0010
0100
0010
1000
0010
0000
,
1000
0001
0100
0010
0100
0010
0001
1000
0001
1000
0100
0010
,
0100
1000
0001
0100
0010
0001
1000
0001
0010
0100
0010
1000
,
0001
0010
0100
1000
0100
0010
0001
0000
0000
0220
0000
0000
,
0000
0000
0000
0000
,
0000
0000
0000
0000
,
0330
0000
0000
0000
;

//---------------dance-single - ----------------
#NOTEDATA:;
#CHARTNAME:;
#CHARTHASH:0:
#STEPSTYPE:dance-single;
#BANNER:;
#DESCRIPTION:;
#CHARTSTYLE:;
#DIFFICULTY:Medium;
#METER:12;
#METERF:0.000000;
#RADARVALUES:0.582856,0.709362,0.695453,0.602726,0.085000,528.000000,438.000000,90.000000,78.000000,0.000000,0.000000,0.000000,0.000000,0.000000,0.582856,0.709362,0.695453,0.602726,0.085000,528.000000,438.000000,90.000000,78.000000,0.000000,0.000000,0.000000,0.000000,0.000000;
#CREDIT:;
#DISPLAYBPM:105.000000:210.000000;
#NOTES:
0000
0000
0000
0000
,
0000
0000
0000
0000
,
0000
0000
0000
0000
,
0000
0000
0000
0000
,
0200
0000
0320
0000
,
2030
0000
3002
0000
,
0103
0000
0100
0000
0001
1000
0001
1000
,
0020
0000
0000
0000
0200
0000
0330
0001
,
1001
0100
0010
1010
,
0101
0001
1000
1100
,
1001
0110
1001
0110
,
1001
0100
0110
1000
,
1001
0001
1000
1100
,
0101
0010
1000
1010
,
0110
1001
0110
1001
,
0001
1000
0100
0010
,
0011
1100
0101
1010
,
2002
0000
0000
3003
,
0110
0000
0001
1000
0000
0100
0010
0000
,
1000
0100
2000
0000
3002
0000
0203
0000
,
0310
1000
0002
0000
0023
0000
0230
0000
,
2300
3020
0230
0302
,
0013
0000
1000
0200
0000
0310
0001
0000
,
1000
0000
0010
0200
0000
0301
1000
0000
,
0020
0000
0030
1000
0002
0000
0003
0100
,
0001
1000
0010
1000
0100
0010
0100
0000
,
1000
0000
1000
0020
0000
0130
0001
0000
,
0010
1000
0002
0000
0023
0000
0031
0100
,
0001
1000
0020
0000
2030
0000
3200
0000
,
0320
0032
2003
3002
,
0103
0000
1000
0200
0000
0301
1000
0000
,
0010
0000
0001
2000
0000
3100
0010
0000
,
0200
0000
0300
0001
0020
0000
0030
0100
,
2000
0000
3000
0010
2000
0000
3001
0000
,
1001
0100
0010
0100
,
0001
0000
0010
0000
0100
0000
1000
0001
,
1001
0100
0010
1000
,
0002
1000
0203
0310
,
0110
0100
0002
0000
1003
0100
0020
0000
,
0031
1000
0002
0000
0103
0010
2000
0000
,
3001
0011
1000
1010
,
0100
0010
1000
0000
0100
0010
0001
0000
,
2000
0000
3020
0000
1030
0100
0001
0000
,
0001
0011
0101
1001
,
1000
0000
1000
0200
0000
0000
0301
0000
0001
0200
0000
0000
,
1300
0000
0000
0110
0000
0000
0001
0000
1000
0001
0000
1000
,
0010
1010
1100
0101
,
0011
0110
1100
0101
,
1001
0011
1100
1001
,
0110
1010
1100
0011
,
1000
0000
0001
0100
0000
0000
0001
0000
1000
0100
0000
0000
,
0010
0000
0001
0100
0000
0000
0010
0000
1000
0100
0000
0000
,
0011
1100
0101
1010
,
1001
0110
1001
0110
,
1000
0001
0100
0010
,
1000
0100
0010
0001
,
0010
0000
0100
0000
1000
0000
0001
1000
,
0010
0010
0100
0100
1000
0001
1000
0001
,
0010
0000
1000
0001
0200
0000
0000
0000
,
0301
0000
0010
0100
2000
0000
0000
0000
,
3010
0000
1000
0001
0100
0000
0010
1000
,
0100
0020
0000
0031
1000
0001
1000
0000
,
0020
0000
0100
0000
0130
0010
0000
0000
,
2000
0000
0001
0000
3001
1000
0000
0000
,
0002
0000
0010
0000
0103
1000
0000
0000
,
0010
0000
0010
0000
0010
0000
0010
0000
0010
0000
0010
0000
,
0000
1001
0110
0000
,
1000
0100
0002
0000
0000
0013
0100
0000
,
0020
2030
3200
0302
,
0013
1100
0010
0101
,
0100
1010
0100
0011
,
1000
0100
0010
0002
0000
0000
1003
0000
,
0001
0010
0100
2000
0000
0000
3001
0000
,
0010
0001
0100
0000
0100
0001
1000
0001
,
0200
0000
0300
0010
1000
0000
1000
0001
,
1000
0010
0002
0000
0000
1003
0010
0000
,
0002
0023
2030
3200
,
0301
0101
1000
1100
,
0001
0011
1000
1010
,
0100
1000
0002
0000
0000
0103
0001
0000
,
0100
1000
0001
0000
0010
0100
1000
0000
,
0001
0001
1000
1000
,
0010
0100
0010
0100
,
1001
0010
1000
0001
,
1000
0100
0010
0001
,
0100
0010
0100
0010
,
1000
0001
0011
1100
,
1001
0100
0001
0011
,
1010
1000
0100
1100
,
1001
0110
1001
0110
,
0101
1000
0010
0100
,
0002
0013
1001
1100
,
0020
0130
0101
0011
,
1000
0000
1000
0200
0000
0000
0301
0000
0001
0200
0000
0000
,
2300
3002
2003
3020
,
0130
0110
0101
1001
,
1100
0011
0101
1001
,
1000
0000
1000
0100
0000
0100
0010
0000
0010
0001
0000
0000
,
0100
0000
0100
0010
0000
0010
1000
0000
1000
0001
0000
0000
,
1000
0000
1000
0001
0000
0001
1000
0000
0000
0220
0000
0000
,
0000
0000
0000
0000
,
0000
0000
0000
0000
,
0330
0000
0000
0000
;

//---------------dance-single - ----------------
#NOTEDATA:;
#CHARTNAME:;
#CHARTHASH:0:
#STEPSTYPE:dance-single;
#BANNER:;
#DESCRIPTION:;
#CHARTSTYLE:;
#DIFFICULTY:Easy;
#METER:8;
#METERF:0.000000;
#RADARVALUES:0.392986,0.433499,0.247272,0.200909,0.000000,356.000000,324.000000,32.000000,26.000000,0.000000,0.000000,0.000000,0.000000,0.000000,0.392986,0.433499,0.247272,0.200909,0.000000,356.000000,324.000000,32.000000,26.000000,0.000000,0.000000,0.000000,0.000000,0.000000;
#CREDIT:;
#DISPLAYBPM:105.000000:210.000000;
#NOTES:
0000
0000
0000
0000
,
0000
0000
0000
0000
,
0000
0000
0000
0000
,
0000
0000
0000
0000
,
0100
0000
0100
0000
,
0010
0000
0010
0000
,
1000
0001
1000
0100
,
0010
0000
0010
0000
,
1001
0000
0000
0110
,
1001
0000
0000
0110
,
0001
0010
0100
1000
,
0010
0100
0001
1000
,
1001
0000
0000
0110
,
1001
0000
0000
0110
,
1000
0010
0100
0001
,
0010
0100
1000
0001
,
0100
0100
0100
0100
,
0200
0000
0000
0300
,
0110
1000
0001
0100
,
0001
0010
0001
1000
,
0010
0010
0100
0100
,
1000
0001
1000
0001
,
0010
0002
0000
1003
,
0010
2000
0000
3001
,
1100
0000
0101
0000
,
1001
0000
0100
0010
,
1000
0001
1000
0100
,
0010
0001
0100
0010
,
1000
0001
1000
0100
,
0010
0100
1000
0010
,
0100
0002
0000
1003
,
0100
2000
0000
3001
,
0101
0000
1100
0000
,
1001
0000
0010
0100
,
1001
0001
0001
0001
,
0001
0001
0001
0001
,
1001
1000
0010
1000
,
0100
0010
0200
0300
,
0110
0001
0010
1000
,
0100
0010
0100
1000
,
0010
1000
0001
0010
,
0001
1000
0100
0001
,
0010
0001
0100
0001
,
0010
1000
0100
0010
,
0001
1000
0001
0100
,
0101
1100
0010
0010
,
1000
0001
1000
0010
,
1000
0100
0010
0001
,
0100
0010
0100
0001
,
0010
1000
0100
0010
,
0002
0003
2000
3000
,
0020
0030
0200
0300
,
0002
0003
1000
0001
,
0010
0010
0100
0100
,
1000
0010
1000
0100
,
0010
0001
0100
0001
,
1000
0010
1000
0001
,
0100
0010
0100
0010
,
1000
0100
0002
0003
,
0001
0100
2000
3000
,
0010
1000
0001
0100
,
0020
0030
1000
0001
,
0020
0000
0000
0000
0000
0030
0000
0000
,
0002
0000
0000
0000
0000
0003
0000
0000
,
0200
0000
0000
0000
0000
0300
0000
0000
,
0110
1001
0110
1001
,
0000
0100
0200
0300
,
0001
2000
0000
3001
,
1000
0010
1000
0100
,
0010
0010
0001
0001
,
0100
0100
1000
1000
,
0010
0100
0010
1000
,
0100
0010
0100
1000
,
0001
0101
0010
1000
,
2200
3300
1000
0001
,
0010
0200
0000
1300
,
0001
0010
0100
1000
,
0010
0010
1000
1000
,
0100
0100
0001
0001
,
0010
0200
0000
0310
,
1000
0001
1000
0100
,
0010
0010
0100
0100
,
1000
0001
1000
0001
,
1001
0000
0000
0010
,
0010
0000
0000
1000
,
1000
0001
1000
0100
,
0020
0030
0001
1000
,
1001
0000
0000
0110
,
1001
0000
0000
0110
,
1000
0001
1000
0100
,
0010
0010
0001
1000
,
0001
0100
0010
1000
,
0100
0010
0100
1000
,
0010
1000
0001
1000
,
0100
0010
0001
0100
,
0001
0010
1000
0100
,
0010
0100
0010
0001
,
0100
0010
1000
0001
,
1000
0100
0010
0001
,
1000
0001
1000
0220
,
0000
0000
0000
0000
,
0000
0000
0000
0000
,
0330
0000
0000
0000
;

//---------------dance-single - ----------------
#NOTEDATA:;
#CHARTNAME:;
#CHARTHASH:0:
#STEPSTYPE:dance-single;
#BANNER:;
#DESCRIPTION:;
#CHARTSTYLE:;
#DIFFICULTY:Beginner;
#METER:5;
#METERF:0.000000;
#RADARVALUES:0.200909,0.231238,0.077273,0.000000,0.000000,182.000000,172.000000,10.000000,0.000000,0.000000,0.000000,0.000000,0.000000,0.000000,0.200909,0.231238,0.077273,0.000000,0.000000,182.000000,172.000000,10.000000,0.000000,0.000000,0.000000,0.000000,0.000000,0.000000;
#CREDIT:;
#DISPLAYBPM:105.000000:210.000000;
#NOTES:
// measure 0
0000
0000
0000
0000
,  // measure 1
0000
0000
0000
0000
,  // measure 2
0000
0000
0000
0000
,  // measure 3
0000
0000
0000
0000
,  // measure 4
0100
0000
0000
0000
,  // measure 5
0010
0000
0000
0000
,  // measure 6
1000
0000
0001
0000
,  // measure 7
1000
0000
0001
0000
,  // measure 8
1001
0000
0000
0000
,  // measure 9
0110
0000
0000
0000
,  // measure 10
1000
0000
0001
0000
,  // measure 11
0100
0000
0010
0000
,  // measure 12
1001
0000
0000
0000
,  // measure 13
0110
0000
0000
0000
,  // measure 14
0001
0000
0010
0000
,  // measure 15
0100
0000
1000
0000
,  // measure 16
0010
0000
0010
0000
,  // measure 17
0010
0000
0000
0000
,  // measure 18
1000
1000
0000
0000
,  // measure 19
0001
0000
0010
0000
,  // measure 20
0001
0000
0100
0000
,  // measure 21
1000
0000
1000
0000
,  // measure 22
0010
0010
0000
0000
,  // measure 23
0100
0100
0000
0000
,  // measure 24
0001
0000
1000
0000
,  // measure 25
0001
0000
0010
0000
,  // measure 26
0100
0100
0000
0000
,  // measure 27
1000
0000
0001
0000
,  // measure 28
0010
0000
0001
0000
,  // measure 29
0100
0000
0010
0000
,  // measure 30
1000
1000
0000
0000
,  // measure 31
0001
0001
0000
0000
,  // measure 32
0100
0000
0010
0000
,  // measure 33
0100
0000
0001
0000
,  // measure 34
0110
0000
0000
0000
,  // measure 35
0000
0000
0000
0000
,  // measure 36
1001
0000
0000
0000
,  // measure 37
1000
0000
1000
0000
,  // measure 38
0001
0000
0010
0000
,  // measure 39
0001
0000
0100
0000
,  // measure 40
0010
0000
1000
0000
,  // measure 41
0100
0000
0010
0000
,  // measure 42
0001
0000
1000
0000
,  // measure 43
0010
0000
1000
0000
,  // measure 44
0100
0000
0010
0000
,  // measure 45
0001
0000
0100
0000
,  // measure 46
1000
0000
0010
0000
,  // measure 47
1000
0000
0001
0000
,  // measure 48
0010
0000
0100
0000
,  // measure 49
0010
0000
0001
0000
,  // measure 50
0100
0000
0010
0000
,  // measure 51
0100
0000
0001
0000
,  // measure 52
0010
0000
1000
0000
,  // measure 53
0100
0000
0010
0000
,  // measure 54
0001
0000
1000
0000
,  // measure 55
0001
0000
1000
0000
,  // measure 56
0100
0000
0010
0000
,  // measure 57
0001
0000
0100
0000
,  // measure 58
1000
0000
1000
0000
,  // measure 59
0001
0000
0001
0000
,  // measure 60
0010
0000
0001
0000
,  // measure 61
0100
0000
0100
0000
,  // measure 62
1000
0000
0000
0000
,  // measure 63
0001
0000
0000
0000
,  // measure 64
1000
0000
0000
0000
,  // measure 65
0010
0000
0010
0000
,  // measure 66
0000
0000
0000
0000
,  // measure 67
1000
1000
0000
0000
,  // measure 68
0001
0000
0001
0000
,  // measure 69
0100
0000
0010
0000
,  // measure 70
0100
0000
0010
0000
,  // measure 71
1000
0000
0100
0000
,  // measure 72
0010
0000
0001
0000
,  // measure 73
0100
0100
0100
0000
,  // measure 74
0001
0000
1000
0000
,  // measure 75
0010
0010
0000
0000
,  // measure 76
1000
0000
0100
0000
,  // measure 77
1000
0000
0001
0000
,  // measure 78
1000
0000
0001
0000
,  // measure 79
0100
0100
0000
0000
,  // measure 80
0001
0001
0001
0000
,  // measure 81
0010
0000
0100
0000
,  // measure 82
0010
0000
0001
0000
,  // measure 83
1001
0000
0000
0000
,  // measure 84
0000
0000
0000
0000
,  // measure 85
1000
0000
0001
0000
,  // measure 86
0010
0000
0000
0000
,  // measure 87
1001
0000
0000
0000
,  // measure 88
0110
0000
0000
0000
,  // measure 89
1000
0000
0010
0000
,  // measure 90
0100
0000
0001
0000
,  // measure 91
0010
0000
0001
0000
,  // measure 92
0100
0000
0010
0000
,  // measure 93
1000
0000
0100
0000
,  // measure 94
1000
0000
0010
0000
,  // measure 95
0100
0000
0010
0000
,  // measure 96
1000
0000
0001
0000
,  // measure 97
0010
0000
0001
0000
,  // measure 98
0100
0000
1000
0000
,  // measure 99
0010
0000
0000
0110
;
