#TITLE:Yum Yum Sweetie;
#SUBTITLE:;
#ARTIST:t+pazolite;
#TITLETRANSLIT:;
#SUBTITLETRANSLIT:;
#ARTISTTRANSLIT:;
#GENRE:;
#CREDIT:;
#BANNER:Yum Yum Sweetie.png;
#BACKGROUND:Yum Yum Sweetie-bg.png;
#LYRICSPATH:;
#CDTITLE:;
#MUSIC:Yum Yum Sweetie.ogg;
#OFFSET:0.000000;
#SAMPLESTART:23.273001;
#SAMPLELENGTH:20.000000;
#SELECTABLE:YES;
#DISPLAYBPM:165.000000;
#BPMS:0.000000=165.000000
;
#STOPS:
;
#BGCHANGES:;
#KEYSOUNDS:;
#ATTACKS:;

//---------------dance-single - ----------------
#NOTES:
     dance-single:
     :
     Hard:
     15:
     0.736448,0.885914,0.208450,0.304658,0.561212,643.000000,617.000000,26.000000,38.000000,0.000000,0.000000,0.736448,0.885914,0.208450,0.304658,0.561212,643.000000,617.000000,26.000000,38.000000,0.000000,0.000000:
0000
0000
0000
0000
,
0000
0000
0000
0000
,
0000
0000
0000
0000
,
0000
0000
0000
0000
,
0001
1000
0010
0100
0001
0010
0100
1000
,
0010
1000
0100
0010
0001
0100
0001
1000
,
0001
1000
0010
1000
0100
0001
0100
0010
,
1000
0100
1000
0100
0010
0001
0010
0001
,
0100
0000
0010
0000
1000
0010
1000
0010
0000
1000
0001
0000
0100
0000
0100
0000
,
0001
0000
0000
0010
0000
0001
0100
0000
2200
0000
0000
0000
0300
0000
0000
0000
,
3010
0000
1000
0000
0001
0100
0001
0100
0000
0100
0010
0000
1000
0000
0001
0000
,
0010
0000
0000
0001
0000
1000
0001
0000
0100
0010
0100
0010
0100
0010
0100
0000
,
0000
0000
0001
0000
0010
0100
0010
0100
0000
0100
1000
0000
0010
0000
0100
0000
,
0001
0000
0000
0100
0000
0010
0100
0000
0022
0000
0000
0000
0030
0000
0000
0000
,
0103
0000
0100
0000
0001
0010
0001
0010
0000
0100
0000
1000
0010
0000
1000
0000
,
0001
0000
0001
0000
0001
1000
0000
0010
0000
1000
0100
1000
0100
1000
0100
1000
,
0100
0100
0100
0100
,
0100
0100
0100
0100
,
0010
0010
0010
0010
,
0010
0010
0010
0010
,
1000
0001
0010
0100
1000
0010
0001
0000
,
0010
0001
0100
0001
0010
1000
0100
0000
,
1000
0001
0101
0000
0100
0010
1010
0000
,
0010
0100
0010
0100
0001
1000
0001
1000
,
0010
0000
1000
0000
0100
0010
0100
0010
0000
0001
0000
0001
1000
0100
1000
0100
,
0010
0000
0001
0000
0100
0001
0000
0010
0000
0001
0010
0100
1000
0000
1000
0000
,
0010
0000
1000
0000
0001
0010
0001
0010
0000
0100
0000
1000
0010
0100
0010
1000
,
0001
0000
0001
0000
1000
0010
0000
1000
0200
0000
0320
0000
0032
0000
2003
0000
,
3010
0000
0010
0000
1000
0001
0000
0100
0010
0000
0000
0000
1000
0100
0010
0001
,
0100
0000
0100
0000
0010
1000
0000
0001
0100
0000
0000
0001
1000
0010
0100
0001
,
0010
0000
0010
0000
0001
1000
0000
0100
1000
0000
1000
0000
0010
0000
0001
0000
,
0000
0000
1000
0100
1000
0000
0001
0000
0200
0000
0320
0000
2030
0000
3002
0000
,
2003
0000
0000
0000
3000
1000
0100
0010
,
0002
0000
0000
0000
0003
0001
1000
0010
,
0200
0010
1000
0301
,
0020
0000
0000
0000
0030
0010
0100
0001
,
2000
0000
0100
0000
3100
1000
0001
0100
,
0020
0000
0100
0000
0130
0010
1000
0001
,
0200
1000
0001
0310
,
0002
0000
0003
0000
0011
0001
0101
0100
,
0110
0000
0010
1000
0100
0000
0010
0000
0001
0000
1000
0000
0010
0000
0100
0000
,
0001
1000
0100
2200
0300
3001
1001
0000
,
0010
0000
1000
0001
1000
0000
0100
0000
0010
0000
0001
0000
0100
0000
0010
0000
,
1000
0000
0001
0100
0000
0100
0010
0000
1010
0000
0001
0000
1100
0000
0000
0000
,
0001
0000
1000
0100
0010
0000
0001
0000
0100
0000
0010
0000
1000
0000
0001
0000
,
0010
0100
1000
0022
0003
0031
0101
0000
,
0010
0000
1000
0000
1000
0000
0001
0000
1000
0000
0100
0010
0001
0000
0100
0000
,
0010
0100
0001
0010
0100
1000
0100
0010
,
0002
0010
2003
0010
,
3001
1000
0010
0200
0000
0000
0320
0000
,
2030
0010
3002
0010
,
0203
0000
0000
0320
0000
0000
1030
0000
0001
0000
0110
0000
1001
0000
0000
0000
,
0011
0000
0001
1000
0100
0000
0010
0000
1000
0000
0010
0000
0100
0000
0001
0000
,
0010
1000
0001
0202
0003
0310
1001
0000
,
0100
0000
1000
0000
1000
0000
0010
0000
0100
0000
0001
0010
0100
0000
1000
0000
,
0010
1000
0001
0100
0001
0010
0100
1000
,
0010
0010
0010
0010
,
0100
0100
0100
0100
,
0001
1000
1100
0000
0010
0100
0101
0000
,
0001
1000
0100
0010
0100
1000
0010
0001
,
0010
0000
1000
0000
0001
1000
0001
1000
0000
0010
0100
0000
0100
0000
0001
0000
,
0010
0000
0000
0001
0000
0100
0010
0000
2020
0000
0000
0000
3000
0000
0000
0000
,
0130
0000
0010
0000
1000
0100
1000
0100
0000
1000
0001
0000
0001
0000
0010
0000
,
0001
0000
0000
1000
0000
0100
1000
0000
0010
0100
0010
0100
0010
0100
0010
0000
,
1000
0000
0001
0000
0010
0100
0010
0100
0000
0100
1000
0000
0001
0000
0001
0000
,
0100
0000
0000
0001
0000
1000
0100
0000
1000
0010
0100
0010
0100
0000
0000
0000
,
0001
0000
1000
0000
0010
0100
0010
0100
0000
0001
0000
1000
0001
0000
0100
0000
,
0010
0000
0100
0000
0010
1000
0000
0001
0000
1000
0010
1000
0010
0100
0001
0010
,
0000
0000
0001
0000
1000
0100
0010
0001
0000
0100
0010
0000
1000
0000
1000
0000
,
0010
0000
1000
0100
0000
0100
0001
0000
0010
0001
0100
0010
1000
0000
0000
0000
,
0010
0000
1000
0000
0100
1000
0010
0100
0000
0001
1000
0000
0001
0000
0010
0001
,
0100
0000
0001
0010
0000
0010
1000
0000
0001
0010
0100
0010
0001
0010
0100
1000
,
0010
0000
1000
0000
0001
1000
0100
1000
0000
0010
0100
0000
0100
0000
0001
0000
,
1001
0000
1000
0010
0000
0100
0001
0000
0010
0001
0100
0001
1000
0000
0000
0000
,
0010
0000
1000
0000
1000
0100
0010
0001
0000
0001
0100
0001
1000
0000
0010
0000
,
0100
0000
0010
0000
1000
0100
1000
0100
1000
0010
1000
0010
1000
0001
1000
0001
,
0100
0000
0000
0110
0000
0000
0000
0000
0000
0000
0000
0000
0000
0000
0000
0000
,
0010
0000
0000
0110
0000
0000
0000
0000
0000
0000
0000
0000
0000
0000
0000
0000
,
1000
0000
0000
1001
0000
0000
0000
0000
0000
0000
0000
0000
0000
0000
0000
0000
,
0001
0000
0000
1001
0000
0000
0000
0000
0000
0000
0000
0000
0000
0000
0000
0000
,
0010
0000
1000
0000
0100
0000
0010
0000
0001
0100
0001
0000
1000
0100
1000
0000
,
0001
0000
1000
0000
0010
0000
0100
0000
0001
1000
0001
1000
0010
0000
0100
0000
,
0001
0010
0100
1000
0010
0100
0001
1000
,
0100
1000
0010
0100
0001
0010
0100
1000
,
0020
0000
0000
0000
0000
0000
0000
0000
0000
0000
0000
0000
2030
0000
3001
0100
,
0010
0000
0000
0000
;

//---------------dance-single - ----------------
#NOTES:
     dance-single:
     :
     Challenge:
     18:
     1.044542,1.056281,0.513108,0.176381,1.218632,912.000000,848.000000,64.000000,22.000000,0.000000,0.000000,1.044542,1.056281,0.513108,0.176381,1.218632,912.000000,848.000000,64.000000,22.000000,0.000000,0.000000:
0000
0000
0000
0000
,
0000
0000
0000
0000
,
0000
0000
0000
0000
,
0000
0000
0000
0000
,
0010
0000
1000
0100
0000
0000
1000
0001
1000
0010
0100
0001
1000
0100
0010
0001
,
0100
0000
0001
1000
0000
0000
0010
1000
0100
0010
0001
0100
0001
0000
1000
0000
,
0010
0000
1000
0100
0000
1000
0100
0010
0001
0000
0100
0001
0000
1000
0001
0000
,
1000
0100
1000
0100
0001
0100
0001
0100
1000
0010
1000
0010
0001
0010
0001
0010
,
1000
0000
1100
0000
1000
0100
0010
0001
0000
0100
0001
0010
0100
0000
1000
0000
,
1010
0000
1000
0001
0000
0100
0010
0000
1000
0100
0010
0100
1000
0100
0010
0100
,
1000
0000
1001
0000
0001
0100
0010
1000
0000
0100
0001
1000
0001
0010
0100
1000
,
0010
0000
1000
0100
0000
1000
0001
0000
0010
0001
1000
0001
0010
0001
1000
0001
,
0000
0000
0101
0000
0001
1000
0100
0010
0000
0100
1000
0010
0100
0000
0001
0000
,
0011
0000
0010
0100
0000
1000
0001
0000
0010
0100
1000
0100
0010
0001
0100
0001
,
1000
0000
1000
0000
0001
1000
0100
1000
0000
0010
1000
0100
0010
0000
0001
0000
,
0100
0000
0110
0000
0010
1000
0100
0010
0001
0100
1000
0001
0010
0001
0100
1000
,
0001
0000
0000
0000
0001
0000
0000
0000
0001
0000
0000
0000
0001
0010
0001
0010
,
1000
0000
0000
0000
1000
0000
0000
0000
1000
0000
0000
0000
1000
0010
1000
0010
,
0001
0000
0000
0000
0001
0000
0000
0000
0001
0000
0000
0000
0001
0100
0001
0100
,
1000
0000
0000
0000
1000
0000
0000
0000
1000
0000
0000
0000
1000
0100
1000
0100
,
0001
0000
1000
0000
0001
0000
1000
0000
0001
0000
0000
0000
0001
0100
0001
0100
,
1000
0000
0001
0000
1000
0000
0001
0000
1000
0000
0000
0000
1000
0010
1000
0010
,
0001
0000
1000
0000
0010
1000
0000
0100
1000
0000
0010
0000
0100
0001
0000
0010
,
0001
0100
0001
0100
1000
0100
1000
0100
0001
0010
0001
0010
1000
0010
1000
0010
,
0001
0000
0011
0000
0001
0100
0010
1000
0000
1000
0100
1000
0001
0010
0100
1000
,
0010
0000
1010
0000
1000
0100
1000
0001
0000
0100
0010
0100
0010
0000
1001
0000
,
0100
0000
1100
0000
1000
0010
1000
0001
0000
0010
0001
0010
0100
1000
0010
0100
,
0001
0000
0101
0000
0010
1000
0100
0010
0001
0000
0110
0000
1100
0000
1001
0000
,
0010
0000
0101
0000
1000
0001
0010
0100
0000
1000
0100
0000
1000
0001
0010
0100
,
0001
0000
1010
0000
0100
0010
1000
0001
0000
0010
0001
1000
0001
0010
0100
1000
,
0010
0000
0010
0000
0100
0001
0010
0100
1000
0010
1000
0001
0010
0100
1000
0010
,
0100
0000
0000
0000
0000
0000
0001
0000
0000
1000
0000
0000
0001
0000
0000
0000
0000
0000
0100
0000
0000
0000
0000
0000
0010
0000
0000
0000
0000
0000
1000
0000
0001
0000
1000
0000
0001
0000
0000
0000
0000
0000
0010
0000
0000
0000
0000
0000
,
0002
0000
0100
0000
0103
0010
1000
0001
,
2000
0000
0010
0000
3010
0100
0001
1000
,
0020
0100
0001
1030
,
0200
0000
0001
0000
0301
0100
0010
1000
,
0002
0000
1000
0000
1003
0001
0010
0100
,
2000
0000
0100
0000
3100
1000
0001
0100
,
0020
0001
0100
1030
,
0200
0000
0300
0000
0110
1010
1100
0101
,
1001
0000
0010
1000
0100
0000
0001
0000
1001
0000
0100
0010
1000
0000
0001
0000
,
0011
0101
1010
2100
0010
3100
0110
0000
,
1001
0000
1000
0100
0010
0000
0001
0000
1001
0000
0100
0010
1000
0000
0001
0000
,
1001
0000
0010
1000
0100
0010
0001
0000
0100
0000
0101
0000
1100
0000
0000
0000
,
1001
0000
1000
0001
0010
0000
0100
0000
1001
0000
0001
0100
1000
0000
0010
0000
,
0110
1010
1100
1002
0010
0103
0110
0000
,
1001
0000
0100
0010
1000
0000
0001
0000
1001
0000
0010
1000
0001
0000
0100
0000
,
0001
0000
0010
0000
0100
0000
1000
0000
0010
0100
1000
0001
1000
0100
0010
0001
,
0000
0000
0001
1000
0001
0000
0100
0000
0020
0000
0000
0000
1030
0000
0100
0000
,
2000
3020
0230
0302
0000
0000
0203
0000
,
0300
0000
0100
0010
0100
0000
0001
0000
0020
0000
0000
0032
0000
0000
1003
0000
,
0200
0000
0000
2300
0000
0000
3010
0000
1000
0000
1001
0000
0110
0000
0000
0000
,
1001
0000
0100
0001
0010
0000
0100
0000
1001
0000
1000
0010
1000
0000
0001
0000
,
1100
1001
0110
1020
0100
1030
0101
0000
,
1001
0000
0010
1000
0100
0000
0010
0000
1001
0000
0001
1000
0001
0000
0100
0000
,
0010
0000
1000
0000
0001
0000
0100
0000
0010
0001
0100
1000
0001
0100
0010
1000
,
0001
0000
0000
0000
0001
0000
0000
0000
0001
0000
0000
0000
0001
0100
0001
0100
,
1000
0000
0000
0000
1000
0000
0000
0000
1000
0000
0000
0000
1000
0010
1000
0010
,
0001
0000
1000
0000
0100
0010
0000
0010
0001
0000
0100
0000
0001
1000
0000
1000
,
0001
0100
0001
0100
1000
0100
1000
0100
0001
0010
0001
0010
1000
0010
1000
0010
,
0001
0000
1100
0000
1000
0010
0100
0001
0000
0001
0010
0100
1000
0000
0010
0000
,
0110
0000
0100
0001
0000
1000
0010
0000
1000
0001
0010
0100
0010
0100
1000
0000
,
0010
0000
1001
0000
1000
0010
1000
0001
0000
0100
0010
0100
0001
1000
0100
1000
,
0001
0000
0010
0001
0000
1000
0100
0000
0010
0001
1000
0100
1000
0100
0010
0001
,
0000
0000
1010
0000
0100
0001
0010
0100
0000
1000
0100
1000
0010
0000
0001
0000
,
0011
0000
0100
1000
0000
0010
0100
0000
0001
0100
0010
1000
0100
0010
0001
0000
,
0100
0000
0101
0000
1000
0001
0010
0100
0000
1000
0010
0100
0001
0000
0010
0000
,
0001
0000
1000
0000
0010
1000
0100
0001
0100
0010
1000
0001
1000
0010
0001
0100
,
0000
0000
0010
0000
1000
0100
1000
0001
0000
0010
0001
0100
0001
0010
0100
1000
,
0010
1000
0100
1000
0010
1000
0100
0000
0010
0001
0100
0001
0010
0001
0100
0000
,
0001
0000
1000
0000
0100
1000
0010
0100
0000
0001
1000
0100
0010
0100
0001
0100
,
1000
0010
0100
0010
1000
0100
0010
0000
0001
0010
0001
0100
0001
1000
0001
0000
,
0100
0000
0010
0000
1000
0100
0001
1000
0000
0010
1000
0100
0010
0001
1000
0001
,
0100
0010
1000
0010
0100
0010
1000
0000
0001
1000
0010
1000
0001
1000
0010
0000
,
1000
0000
0010
0000
1000
0100
0010
0100
0000
0100
0010
0001
0100
0001
1000
0001
,
0010
1000
0001
0100
0001
0100
1000
0001
0100
0010
1000
0010
0001
1000
0100
0010
,
0001
0000
0000
0101
0000
0000
0010
1000
0100
0010
0100
0010
0001
1000
0001
1000
,
0010
0000
0000
1010
0000
0000
1000
0100
0010
0001
0010
0100
1000
0000
1001
0000
,
1000
0000
0000
0011
0000
0000
0001
1000
0100
0001
0010
0100
1000
0001
0010
1000
,
0100
0000
0000
1100
0000
0000
1000
0010
1000
0100
0010
0001
0100
0000
0110
0000
,
0010
0000
1000
0001
0000
0000
1000
0001
0010
0100
1000
0010
1000
0001
1000
0100
,
0010
0000
0001
0100
0000
0000
0001
1000
0010
1000
0100
0010
0001
0000
0001
0000
,
0010
0000
1000
0100
0000
1000
0001
0010
0100
0000
1000
0001
0000
0010
0100
0000
,
1000
0010
1000
0010
0001
0010
0001
0010
1000
0100
1000
0100
0001
0100
0001
0100
,
2000
0000
0000
0000
0010
0000
0000
0000
0010
0000
0000
0000
3001
0010
0100
1000
,
0010
0000
0000
0000
;

//---------------dance-single - ----------------
#NOTES:
     dance-single:
     :
     Medium:
     13:
     0.537160,0.579251,0.208450,0.513108,0.096208,469.000000,443.000000,26.000000,64.000000,0.000000,0.000000,0.537160,0.579251,0.208450,0.513108,0.096208,469.000000,443.000000,26.000000,64.000000,0.000000,0.000000:
0000
0000
0000
0000
,
0000
0000
0000
0000
,
0000
0000
0000
0000
,
0000
0000
0000
0000
,
0001
0000
0000
0001
0000
0000
0000
0000
0010
0000
0100
0000
1000
0000
0001
0000
,
0100
0000
0000
0100
0000
0000
0000
0000
0010
0000
1000
0000
0001
0000
0010
0000
,
0100
0000
0000
0100
0000
0000
0010
0000
0001
0000
0000
0001
0000
0000
1000
0000
,
0020
0230
0302
2003
,
0000
3001
0100
0010
1000
0100
0010
0001
,
1000
0000
0000
0001
0000
0000
0100
0000
0220
0000
0000
0000
0030
0000
0000
0000
,
0000
0301
1000
0001
0010
0100
1000
0010
,
1000
0000
0000
0010
0000
0000
0100
0000
0202
0000
0000
0000
0300
0000
0000
0000
,
0000
1003
0100
0010
0001
0100
0010
1000
,
0001
0000
0000
0010
0000
0000
0100
0000
2200
0000
0000
0000
0300
0000
0000
0000
,
3010
1000
0010
0100
0001
0010
0100
1000
,
0001
0100
0010
0100
0010
0100
0010
0100
,
0001
0000
0001
0000
0001
0000
0001
0100
,
1000
0000
1000
0000
1000
0000
1000
0100
,
0010
0000
0010
0000
0010
0000
0010
0001
,
0100
0000
0100
0000
0100
0000
0100
0010
,
0001
0100
0001
0100
0001
0000
1001
0000
,
1000
0100
1000
0100
1000
0000
1001
0000
,
0010
1000
0100
0000
0010
0001
0100
0000
,
2020
0000
0030
0000
3001
1000
0001
0100
,
0010
1000
0010
0100
0001
0000
0010
0100
,
1000
0010
1000
0001
0100
0000
0010
0010
,
1000
0001
1000
0010
0100
0000
0001
0010
,
0100
1000
0100
0010
0001
0000
1000
1000
,
0010
1000
0001
0010
0100
0000
2100
0000
,
3010
0100
0001
1000
0010
0000
0201
0000
,
0310
0100
0010
1000
0100
0010
0001
1000
,
0010
0000
0000
0000
0100
0000
0000
0000
0100
0000
0000
0010
1000
0000
0001
0000
,
0022
0000
0030
0000
0000
0013
0001
0100
,
0202
0000
0003
0000
0000
0310
1000
0100
,
2000
3002
0023
0230
,
2300
0000
0000
0000
0000
3010
1000
0001
,
2020
0000
3000
0000
0000
0130
0010
1000
,
2200
0000
0300
0000
0000
3001
1000
0100
,
2000
3002
0023
0230
,
2300
0000
3000
0000
0010
0100
0010
0100
,
0000
0001
0001
0100
0010
1000
0010
0001
,
0010
0100
0001
2000
0000
3000
1100
0000
,
0000
0000
1000
0000
1000
0000
0010
0000
0100
0000
0000
0001
0000
0000
1000
0000
,
0010
0000
0000
0100
0000
0000
0001
0000
0010
0000
0100
0000
0200
0000
0000
0000
,
0000
0010
0310
0100
1000
0010
0001
0010
,
1000
0100
0010
0002
0000
0003
1001
0000
,
0010
1000
1000
0001
0010
0100
0001
0100
,
2000
0000
0010
0000
3010
0001
0100
0000
,
2001
3001
0102
0103
,
1000
0010
0100
0002
0000
0000
1003
0000
,
2010
3100
0012
1003
,
0010
0000
0100
0001
1000
0010
0020
0000
,
0000
1000
1030
0001
0100
1000
0100
0010
,
0100
0001
0010
0200
0000
0300
1100
0000
,
0001
1000
1000
0010
1000
0100
0010
0001
,
0200
0010
1000
0301
,
1000
0000
1000
0000
1000
0000
1000
0100
,
0001
0000
0001
0000
0001
0000
0001
0100
,
0010
0010
0100
0100
,
0220
0000
0030
0000
0301
1000
0001
0100
,
0000
0010
0010
1000
0100
0010
0001
1000
,
0001
0000
0000
1000
0000
0000
0010
0000
2020
0000
0000
0000
0030
0000
0000
0000
,
0000
3100
1000
0001
0010
0100
0100
1000
,
0001
0000
0000
1000
0000
0000
0100
0000
2200
0000
0000
0000
3000
0000
0000
0000
,
0000
0010
0310
0001
0100
0010
1000
0001
,
1000
0000
0000
0100
0000
0000
0010
0000
0022
0000
0000
0000
0003
0000
0000
0000
,
0031
0010
0001
0100
0010
1000
0001
0100
,
0010
1000
0001
1000
0001
1000
0001
1000
,
0000
0100
0010
0001
0100
0010
0010
1000
,
0001
0000
0000
1000
0000
0000
0100
0000
2002
0000
0000
0000
0003
0000
0000
0000
,
0000
0001
3001
0100
0010
1000
0100
0010
,
0001
0000
0000
0100
0000
0000
0010
0000
0202
0000
0000
0000
0300
0000
0000
0000
,
0000
1003
0001
0010
0001
0100
0100
0010
,
1000
0000
0000
0100
0000
0000
0001
0000
0220
0000
0000
0000
0030
0000
0000
0000
,
0301
0010
0100
0010
0001
0100
0010
1000
,
0100
0010
0001
0010
0001
0010
0001
0010
,
0100
0000
0000
0100
0000
0000
0000
0000
0000
0000
0000
0000
0000
0000
0000
0000
,
1000
0000
0000
1000
0000
0000
0000
0000
0000
0000
0000
0000
0000
0000
0000
0000
,
0001
0000
0000
0001
0000
0000
0000
0000
0000
0000
0000
0000
0000
0000
0000
0000
,
0010
0000
0000
0010
0000
0000
0000
0000
0000
0000
0000
0000
0000
0000
0000
0000
,
0001
0000
0000
0001
0000
0000
0000
0000
1000
0000
0010
0000
0100
0000
0001
0000
,
0010
0000
0000
0010
0000
0000
0000
0000
0100
0000
0010
0000
0001
0000
1000
0000
,
0100
0000
0000
0100
0000
0000
0001
0000
1000
0000
0000
1000
0000
0000
0010
0000
,
2000
3002
0203
0320
,
2030
0000
0000
3002
,
0013
0000
0000
0000
;

//---------------dance-single - ----------------
#NOTES:
     dance-single:
     :
     Easy:
     7:
     0.358489,0.442957,0.336727,0.529143,0.000000,313.000000,271.000000,42.000000,66.000000,0.000000,0.000000,0.358489,0.442957,0.336727,0.529143,0.000000,313.000000,271.000000,42.000000,66.000000,0.000000,0.000000:
0000
0000
0000
0000
,
0000
0000
0000
0000
,
0000
0000
0000
0000
,
0000
0000
0000
0000
,
0001
0010
0100
1000
,
0010
0100
0001
1000
,
0100
0100
0010
0010
,
2002
0000
0000
3003
,
0010
1000
0010
0100
,
0001
0001
0022
0033
,
1000
0001
1000
0100
,
0010
0010
0220
0330
,
0100
0010
0001
0100
,
1000
1000
2020
3030
,
0001
0100
0010
1000
,
0002
1000
1000
1003
,
0001
0001
0001
0001
,
1000
1000
1000
1000
,
0001
0001
0001
0001
,
1000
1000
1000
1000
,
0010
0010
0010
0010
,
0100
0100
0100
0100
,
0010
0010
0100
0100
,
2002
0000
0000
3003
,
0001
0100
1000
1010
,
1000
0100
0010
0011
,
0001
1000
0010
0101
,
0010
0001
0100
1010
,
1000
0001
1000
0110
,
0001
0010
0100
1001
,
1000
0010
0100
0001
,
0220
0000
0000
0330
,
2200
0000
0300
3001
,
0202
0000
0003
0310
,
1000
1000
0001
0001
,
2002
0000
3000
0103
,
2020
0000
0030
3001
,
0022
0000
0003
0130
,
1000
1000
0001
0001
,
2002
3003
0100
0100
,
0001
0010
0100
0100
,
1000
0010
2000
3001
,
0100
0010
1000
1000
,
0001
0100
0001
1020
,
1030
0001
0010
0010
,
0001
0100
0020
1030
,
0100
0010
0001
0100
,
2000
0010
0010
3010
,
2000
3000
0002
0003
,
0100
0100
0200
0300
,
0020
0030
2000
3000
,
0001
0001
0100
0210
,
0301
0010
0001
0100
,
0010
1000
0200
0310
,
0001
0010
0100
1000
,
0020
0100
0100
0130
,
0001
0001
0001
0001
,
1000
1000
1000
1000
,
0001
0001
1000
1000
,
2002
0000
0000
3003
,
0010
1000
0100
0010
,
0001
0001
0022
0033
,
0100
0010
1000
1000
,
0001
0100
0202
0303
,
0010
0001
0100
0010
,
1000
1000
2200
3300
,
0010
1000
0001
0100
,
2000
0010
0100
3001
,
0011
0001
0100
0010
,
1010
1010
2020
3030
,
1100
0010
0001
0100
,
0110
0110
0220
0330
,
0101
0010
0001
1000
,
1001
1001
2002
3003
,
0001
0001
1000
0010
,
0200
1000
0001
0310
,
2020
3030
0000
0000
,
0202
0303
0000
0000
,
0022
0033
0000
0000
,
2200
3300
0000
0000
,
0010
0010
1000
0100
,
1000
1000
0010
0100
,
0001
0001
1000
1000
,
2002
0000
0000
3003
,
0220
0000
0330
0002
,
0013
0000
0000
0000
;

//---------------dance-single - ----------------
#NOTES:
     dance-single:
     :
     Beginner:
     4:
     0.179817,0.272589,0.064139,0.048104,0.000000,157.000000,149.000000,8.000000,6.000000,0.000000,0.000000,0.179817,0.272589,0.064139,0.048104,0.000000,157.000000,149.000000,8.000000,6.000000,0.000000,0.000000:
// measure 0
0000
0000
0000
0000
,  // measure 1
0000
0000
0000
0000
,  // measure 2
0000
0000
0000
0000
,  // measure 3
0000
0000
0000
0000
,  // measure 4
0010
0000
0000
0000
,  // measure 5
0100
0000
0000
0000
,  // measure 6
0001
0000
1000
0000
,  // measure 7
1001
0000
0000
0000
,  // measure 8
0001
0000
0001
0000
,  // measure 9
0100
0100
0100
0000
,  // measure 10
0010
0000
0010
0000
,  // measure 11
1000
1000
1000
0000
,  // measure 12
0100
0000
0100
0000
,  // measure 13
0010
0010
0010
0000
,  // measure 14
0001
0000
1000
0000
,  // measure 15
1001
0000
0000
0000
,  // measure 16
0010
0000
0000
0000
,  // measure 17
0100
0000
0000
0000
,  // measure 18
0001
0000
0000
0000
,  // measure 19
1000
0000
0000
0000
,  // measure 20
0001
0000
0001
0000
,  // measure 21
1000
0000
1000
0000
,  // measure 22
0010
0000
0100
0000
,  // measure 23
0110
0000
0000
0000
,  // measure 24
0001
0001
0001
0000
,  // measure 25
0010
0010
0010
0000
,  // measure 26
0100
0100
0100
0000
,  // measure 27
1000
1000
1000
0000
,  // measure 28
0001
0001
0001
0000
,  // measure 29
1000
1000
1000
0000
,  // measure 30
0010
0010
0010
0000
,  // measure 31
0110
0000
0000
0000
,  // measure 32
0002
0000
0003
0000
,  // measure 33
2000
0000
3000
0000
,  // measure 34
0010
0000
1000
0000
,  // measure 35
0200
0000
0300
0000
,  // measure 36
2000
0000
3000
0000
,  // measure 37
0002
0000
0003
0000
,  // measure 38
0100
0000
0001
0000
,  // measure 39
0020
0000
0030
0000
,  // measure 40
0001
0000
1000
0000
,  // measure 41
0010
0010
0010
0000
,  // measure 42
0100
0000
0010
0000
,  // measure 43
1000
1000
1000
0000
,  // measure 44
0100
0000
0010
0000
,  // measure 45
0001
0001
0001
0000
,  // measure 46
0100
0000
0001
0000
,  // measure 47
1000
0000
0000
0000
,  // measure 48
0010
0000
0000
0000
,  // measure 49
0000
0000
0000
0000
,  // measure 50
0100
0000
0000
0000
,  // measure 51
0000
0000
0000
0000
,  // measure 52
1000
0000
0010
0000
,  // measure 53
0100
0100
0100
0000
,  // measure 54
0001
0000
0010
0000
,  // measure 55
0100
0000
0000
0000
,  // measure 56
1000
0000
0001
0000
,  // measure 57
1000
0000
0001
0000
,  // measure 58
0100
0000
0100
0000
,  // measure 59
0110
0000
0000
0000
,  // measure 60
1000
0000
0001
0000
,  // measure 61
1000
1000
1000
0000
,  // measure 62
0010
0000
0100
0000
,  // measure 63
0010
0010
0010
0000
,  // measure 64
1000
0000
0100
0000
,  // measure 65
0001
0001
0001
0000
,  // measure 66
0010
0000
0001
0000
,  // measure 67
0100
0000
0000
0000
,  // measure 68
1000
0000
0010
0000
,  // measure 69
1000
1000
0001
0000
,  // measure 70
0100
0000
0010
0000
,  // measure 71
0100
0100
0001
0000
,  // measure 72
0010
0000
0001
0000
,  // measure 73
1000
1000
0100
0000
,  // measure 74
1000
0000
0010
0000
,  // measure 75
1001
0000
0000
0000
,  // measure 76
0001
0000
0000
0000
,  // measure 77
1000
0000
0000
0000
,  // measure 78
0010
0000
0000
0000
,  // measure 79
0100
0000
0000
0000
,  // measure 80
0010
0000
0000
0000
,  // measure 81
1000
0000
0000
0000
,  // measure 82
0001
0000
0100
0000
,  // measure 83
0110
0000
0000
0000
,  // measure 84
1001
0000
0000
0010
,  // measure 85
0010
0000
0000
0000
;
