#TITLE:Your Angel;
#SUBTITLE:;
#ARTIST:DM Ashura feat. kors k;
#TITLETRANSLIT:;
#SUBTITLETRANSLIT:;
#ARTISTTRANSLIT:;
#GENRE:;
#CREDIT:;
#BANNER:Your Angel.png;
#BACKGROUND:Your Angel-bg.png;
#LYRICSPATH:;
#CDTITLE:;
#MUSIC:Your Angel.ogg;
#OFFSET:0.000000;
#SAMPLESTART:72.709999;
#SAMPLELENGTH:20.000000;
#SELECTABLE:YES;
#DISPLAYBPM:175.000000;
#BPMS:0.000000=174.800003
,4.000000=175.000000
;
#STOPS:
;
#BGCHANGES:;
#KEYSOUNDS:;
#ATTACKS:;

//---------------dance-single - ----------------
#NOTES:
     dance-single:
     :
     Beginner:
     2:
     0.118305,0.207934,0.045007,0.072012,0.000000,92.000000,87.000000,5.000000,8.000000,0.000000,0.000000,0.118305,0.207934,0.045007,0.072012,0.000000,92.000000,87.000000,5.000000,8.000000,0.000000,0.000000:
0000
0000
0000
0000
,
0000
0000
0000
0000
,
0000
0000
0000
0000
,
0000
0000
0000
0000
,
0000
0000
0000
0000
,
2000
0000
0000
3000
,
1000
0000
0000
0000
,
0002
0000
0000
0003
,
0001
0000
0000
0000
,
0010
0000
0000
0000
,
0100
0000
0000
0000
,
0010
0000
0000
0000
,
0100
0000
0000
0000
,
0010
0000
0000
0000
,
0001
0000
0000
0000
,
1000
0000
0000
0000
,
0100
0000
0000
0000
,
1000
0000
0000
0000
,
0001
0000
0000
0000
,
0100
0000
0000
0000
,
0010
0000
0000
0000
,
0200
0000
0000
0300
,
0100
0000
0000
0000
,
0020
0000
0000
0030
,
0010
0000
0000
0000
,
1000
0000
0000
0000
,
0001
0000
0000
0000
,
1000
0000
0000
0000
,
0001
0000
0000
0000
,
0020
0000
0000
0030
,
0010
0000
0000
0000
,
0200
0000
0000
0300
,
0100
0000
0000
0000
,
1001
0000
0000
0000
,
0000
0000
0000
0000
,
0110
0000
0000
0000
,
0000
0000
0000
0000
,
1001
0000
0000
0000
,
0000
0000
0000
0000
,
0110
0000
0000
0000
,
0000
0000
0000
0000
,
1000
0000
0000
0000
,
0000
0000
0000
0000
,
0001
0000
0000
0000
,
0000
0000
0000
0000
,
0010
0010
0010
0000
,
0100
0000
0100
0000
,
1000
1000
1000
0000
,
0001
0000
0001
0000
,
0100
0100
0100
0000
,
0010
0000
0010
0000
,
1000
1000
1000
0000
,
0001
0000
0001
0000
,
0010
0000
0000
0000
,
0100
0000
0000
0000
,
1000
0000
0000
0000
,
0001
0000
0000
0000
,
0100
0000
0000
0000
,
0010
0000
0000
0000
,
1000
0000
0000
0000
,
0001
0000
0000
0000
,
0010
0010
0000
0000
,
0001
0001
0000
0000
,
1000
1000
0000
0000
,
0010
0010
0000
0000
,
0100
0100
0000
0000
,
0001
0001
0000
0000
,
1000
1000
0000
0000
,
0100
0100
0000
0000
,
0010
0000
0000
0000
,
0001
0000
0000
0000
,
0100
0000
0000
0000
,
1000
0000
0000
0000
,
0020
0000
0000
0030
,
0010
0000
0000
0000
,
0200
0000
0000
0300
,
0100
0000
0000
0000
,
1001
0000
0000
0000
,
0000
0000
0000
0000
;

//---------------dance-single - ----------------
#NOTES:
     dance-single:
     :
     Easy:
     4:
     0.174886,0.242590,0.009001,0.126021,0.000000,136.000000,135.000000,1.000000,14.000000,0.000000,0.000000,0.174886,0.242590,0.009001,0.126021,0.000000,136.000000,135.000000,1.000000,14.000000,0.000000,0.000000:
0000
0000
0000
0000
,
0000
0000
0000
0000
,
0000
0000
0000
0000
,
0000
0000
0000
0000
,
0000
0000
0000
0000
,
1000
0000
0100
0000
,
1000
0000
0001
0000
,
0100
0000
0010
0000
,
0200
0000
0300
0000
,
0001
1000
0001
0000
,
1000
0000
0100
0000
,
1000
0001
1000
0000
,
0001
0000
0100
0000
,
1000
0000
0010
0000
,
1000
0000
0100
0000
,
0001
0000
0010
0000
,
0001
0000
0100
0000
,
2000
0000
3000
0000
,
0002
0000
0003
0000
,
0010
0000
0010
0000
,
0100
0000
0100
0000
,
0020
0000
0000
0030
,
0000
0000
0000
0000
,
0001
0000
1000
0000
,
0001
0000
1000
0000
,
0200
0000
0300
0000
,
0020
0000
0030
0000
,
0001
0000
0001
0000
,
1000
0000
1000
0000
,
0020
0000
0000
0030
,
0000
0000
0000
0000
,
0200
0000
0000
0300
,
0000
0000
0000
0000
,
0001
0000
0100
0000
,
1000
0000
0100
0000
,
0001
0000
0000
0000
,
0100
0000
0000
0000
,
1000
0000
0010
0000
,
0001
0000
0010
0000
,
1000
0000
0000
0000
,
0010
0000
0000
0000
,
0001
0000
0010
0000
,
0001
0000
0001
0000
,
1000
0000
0010
0000
,
1000
0000
1000
0000
,
0100
1000
0100
0000
,
0010
0000
0001
0000
,
0100
0001
0100
0000
,
0010
0000
1000
0000
,
0010
1000
0010
0000
,
0100
0000
0001
0000
,
0010
0001
0010
0000
,
0100
0000
1000
0000
,
0010
1000
0001
0001
,
0010
0000
0100
0000
,
0010
0001
1000
1000
,
0010
0000
0100
0000
,
0010
1000
0100
0100
,
1000
0000
0001
0000
,
0010
0001
0100
0100
,
0001
0000
1000
0000
,
0010
0000
1000
0000
,
0001
0000
0010
0000
,
0100
0000
1000
0000
,
0001
0000
0100
0000
,
0010
0000
0100
0000
,
0001
0000
1000
0000
,
0100
0000
0010
0000
,
0001
0000
1000
0000
,
0020
0000
0030
0000
,
0200
0000
0300
0000
,
0001
0000
0010
0000
,
0100
0000
1000
0000
,
0002
0000
0003
0000
,
2000
0000
3000
0000
,
0200
0000
0300
0000
,
0020
0000
0030
0000
,
1001
0000
0000
0000
,
0000
0000
0000
0000
;

//---------------dance-single - ----------------
#NOTES:
     dance-single:
     :
     Medium:
     7:
     0.329197,0.450523,0.171028,0.036006,0.000000,256.000000,237.000000,19.000000,4.000000,0.000000,0.000000,0.329197,0.450523,0.171028,0.036006,0.000000,256.000000,237.000000,19.000000,4.000000,0.000000,0.000000:
0000
0000
0000
0000
,
0000
0000
0000
0000
,
0000
0000
0000
0000
,
0000
0000
0000
0000
,
0000
0000
0000
0000
,
1000
0000
0001
0000
,
1000
0000
0000
0000
0001
0000
0010
0100
,
1000
0000
0001
0000
,
0100
0000
0000
0000
0010
0000
1000
0001
,
0100
0000
0001
0001
0000
1000
1000
0000
,
0100
0010
0001
0100
,
0010
0000
1000
1000
0000
0001
0001
0000
,
0010
0001
1000
0100
,
1000
0000
0010
0010
0000
0100
0100
0000
,
0001
1000
0100
0010
,
0001
0000
0100
0100
0000
0001
0001
0000
,
1000
0001
0010
0100
,
1000
0000
0000
0100
0000
0000
0000
0000
,
0001
0000
0000
0100
0000
0000
0000
0000
,
0010
0000
0000
1000
0000
0001
0000
1000
,
0000
0010
0100
0010
,
0200
0000
0000
0300
,
0000
0000
0000
0000
0000
0000
0000
0001
,
0000
0000
0000
1000
0000
0000
0000
0100
,
0000
0010
0000
0100
0000
0000
0000
0000
,
1000
0000
0000
1100
0000
0000
0000
0000
,
0001
0000
0000
0101
0000
0000
0000
0000
,
1000
0000
0000
0010
0000
0100
0000
0001
,
0000
1000
0010
0100
,
0020
0000
0000
0030
,
0000
0000
1000
0001
,
0100
0000
0000
0000
,
0000
0001
0010
0100
,
1000
0010
0100
0001
,
1000
0000
0010
0000
0100
0000
0001
1000
,
0000
0100
0010
0100
0000
0000
0000
0000
,
0000
1000
0100
0001
,
0100
0000
1000
0001
0000
0010
0100
1000
,
0000
0001
0100
0010
,
0100
0000
0000
0000
0000
0001
0000
0010
,
0000
0100
0000
1000
0000
0000
0000
0000
,
0000
0001
0000
0010
0000
0100
0000
1000
,
0000
0000
0000
0000
,
0010
0010
1000
1000
,
0001
0001
0100
0100
,
0010
0000
0000
1000
0000
0000
0100
0000
,
0010
0001
1000
0001
,
0010
0000
0000
0001
0000
0000
0100
0000
,
0010
1000
0001
1000
,
0100
0000
0000
0010
0000
0000
0001
0000
,
0100
1000
0010
0001
,
0100
0000
0000
0010
0000
0000
1000
0000
,
0100
0001
0010
1000
,
0001
0000
0000
0101
0000
0000
1100
0000
,
0010
0000
0001
0000
0100
0000
0010
1000
,
0100
0000
0000
1100
0000
0000
0101
0000
,
0010
0000
1000
0000
0001
0000
0100
0010
,
1000
0000
0000
1010
0000
0000
0011
0000
,
0100
0000
1000
0000
0001
0000
1000
0001
,
0010
0000
0000
0011
0000
0000
1010
0000
,
0100
0000
0001
0000
1000
0000
0001
0010
,
0100
1001
0010
1001
,
0100
1000
0001
0100
,
0010
1100
0010
0101
,
0010
0000
1000
0000
0001
0000
0010
0010
,
0010
1001
0100
1001
,
0010
0001
1000
0010
,
0100
0101
1000
1100
,
0010
0001
1000
0010
,
0100
0000
0000
0010
0000
0000
0000
0000
,
1000
0000
0000
0001
0000
0000
0000
0000
,
0010
0000
0000
0100
0000
1000
0000
0001
,
0000
0100
0010
0100
,
0020
0000
0000
0030
,
0000
0000
1000
0001
,
0200
0000
0000
0300
,
0001
0010
0100
1000
,
1001
0000
0000
0000
,
0000
0000
0000
0000
;

//---------------dance-single - ----------------
#NOTES:
     dance-single:
     :
     Hard:
     10:
     0.473220,0.589146,0.135022,0.162026,0.000000,368.000000,353.000000,15.000000,18.000000,0.000000,0.000000,0.473220,0.589146,0.135022,0.162026,0.000000,368.000000,353.000000,15.000000,18.000000,0.000000,0.000000:
0000
0000
0000
0000
,
0000
0000
0000
0000
,
0000
0000
0000
0000
,
0000
0000
0000
0000
,
0000
0000
0000
0000
,
0010
0000
1000
0001
0000
1000
0100
0000
,
1000
0010
0000
0100
0001
0000
0010
0100
,
0010
0000
0001
1000
0000
0001
0100
0000
,
0001
0010
0000
0100
1000
0000
0010
0100
,
0010
0000
1000
0001
0000
1000
0100
0000
,
0010
0001
0100
0010
0100
0001
1000
0001
,
0010
0000
0001
1000
0000
0001
0100
0000
,
0010
1000
0001
0010
0100
0010
0001
0100
,
0010
0000
1000
0001
0000
1000
0100
0000
,
0010
0100
1000
0010
0100
0001
0010
0100
,
0010
0000
0001
1000
0000
0001
0100
0000
,
0010
1000
0100
1000
0001
0010
0001
0100
,
0020
0000
1000
2030
0000
0000
0000
0001
,
3002
0000
0000
1003
0000
0000
0000
0001
,
0010
0000
0100
1000
0000
1010
0000
0102
,
0000
1000
0010
0100
,
0023
0000
0000
0000
,
0000
0000
0000
0000
0000
0030
0010
0200
,
0000
0000
1000
2300
0000
0000
0001
3001
,
0000
1100
0000
0101
0000
0000
0000
0000
,
2000
0000
0010
3020
0000
0000
0000
0100
,
0230
0000
0001
0301
0000
0000
0000
0010
,
0001
0000
1000
0100
0000
0011
0000
2100
,
0000
0001
0010
0100
,
3020
0000
0000
0000
,
0000
0030
1000
0100
,
0020
0000
0000
0000
,
0000
0030
0010
0000
0001
0000
1000
0001
,
0000
1000
0100
1000
0001
0010
0001
1000
,
0010
1000
0001
0100
0001
0010
0100
1000
,
0000
0001
1000
0001
0000
0000
0000
0000
,
0000
0010
0100
0010
0001
0100
0010
1000
,
0100
0010
0001
0100
0000
0010
1000
0001
,
0000
0010
0001
1000
0001
0010
0100
1000
,
0010
0000
0000
0000
0000
1000
0010
0100
,
0010
1000
0001
1000
0000
0000
0000
0000
,
0000
0100
0010
0100
1000
0010
0100
0001
,
0000
0000
0000
0000
,
0010
0001
0100
1000
0100
0001
0010
0100
,
1000
0010
1000
0100
0001
0100
1000
0010
,
0100
0000
0001
1000
0000
0010
0100
0000
,
0010
1000
0100
0010
0001
0100
0010
1000
,
0001
0000
0010
0001
0000
0100
0010
0000
,
1000
0100
0000
0010
0100
0000
1000
1000
,
1000
0000
0001
0100
0000
0010
1000
0000
,
0001
0010
0000
0100
1000
0000
0001
0001
,
0001
0000
0100
0010
0000
1000
0001
0000
,
0010
0001
0000
0100
0010
0000
1000
0100
,
1000
0000
0001
0100
0000
1000
0100
0000
,
0001
0100
0010
0001
0010
1000
0100
0010
,
0001
0000
1000
0100
0000
0001
0100
0000
,
1000
0010
0000
0001
0010
0000
1000
1000
,
1000
0000
0100
0010
0000
0001
1000
0000
,
0010
0100
0000
0001
1000
0000
0100
0100
,
0100
0000
0010
0001
0000
0100
1000
0000
,
0100
0001
0000
1000
0100
0000
0001
0100
,
1000
0010
0100
0010
0000
0000
0000
1000
,
0100
0010
0001
0100
0000
0000
0000
0001
,
1000
0010
1000
0100
0010
0001
0100
0001
,
0000
0101
1100
0011
,
2020
0000
0000
0000
,
0000
0000
0000
0000
0030
0000
0100
3100
,
0000
0000
1000
0001
0000
0000
1000
0100
,
0000
0010
0000
0001
0000
0000
0000
0000
,
0100
0010
0100
0001
0010
0100
1000
0000
,
0010
1000
0001
0010
0001
0100
0010
0000
,
1000
0010
0100
0001
0010
0100
1000
0010
,
0100
0101
1010
1100
,
0022
0000
0000
0000
,
0000
0030
1000
0100
,
0020
0000
0000
0033
,
0001
0010
0100
1000
0001
0010
0100
1000
,
1001
0000
0000
0000
,
0000
0000
0000
0000
;

//---------------dance-double - ----------------
#NOTES:
     dance-double:
     :
     Easy:
     4:
     0.174886,0.242590,0.009001,0.126021,0.000000,136.000000,135.000000,1.000000,14.000000,0.000000,0.000000,0.174886,0.242590,0.009001,0.126021,0.000000,136.000000,135.000000,1.000000,14.000000,0.000000,0.000000:
00000000
00000000
00000000
00000000
,
00000000
00000000
00000000
00000000
,
00000000
00000000
00000000
00000000
,
00000000
00000000
00000000
00000000
,
00000000
00000000
00000000
00000000
,
00000010
00000000
00000001
00000000
,
00000010
00000000
00000001
00000000
,
00000100
00000000
00001000
00000000
,
00020000
00000000
00030000
00000000
,
00000100
00000010
00000100
00000000
,
00001000
00000000
00000001
00000000
,
00000100
00000010
00000100
00000000
,
00001000
00000000
00010000
00000000
,
01000000
00000000
00100000
00000000
,
00010000
00000000
10000000
00000000
,
00100000
00000000
01000000
00000000
,
00001000
00000000
00010000
00000000
,
00000200
00000000
00000300
00000000
,
00000020
00000000
00000030
00000000
,
00000001
00000000
00000001
00000000
,
00001000
00000000
00001000
00000000
,
00000020
00000000
00000000
00000030
,
00000000
00000000
00000000
00000000
,
00010000
00000000
00001000
00000000
,
00010000
00000000
00001000
00000000
,
00200000
00000000
00300000
00000000
,
02000000
00000000
03000000
00000000
,
10000000
00000000
10000000
00000000
,
00010000
00000000
00010000
00000000
,
02000000
00000000
00000000
03000000
,
00000000
00000000
00000000
00000000
,
00200000
00000000
00000000
00300000
,
00000000
00000000
00000000
00000000
,
10000000
00000000
00100000
00000000
,
00010000
00000000
00001000
00000000
,
00010000
00000000
00000000
00000000
,
00001000
00000000
00000000
00000000
,
00000010
00000000
00000100
00000000
,
00000010
00000000
00000100
00000000
,
00001000
00000000
00000000
00000000
,
00000001
00000000
00000000
00000000
,
00000100
00000000
00000010
00000000
,
00000100
00000000
00000010
00000000
,
00001000
00000000
00000100
00000000
,
00010000
00000000
00001000
00000000
,
01000000
01000000
01000000
00000000
,
00100000
00000000
10000000
00000000
,
01000000
01000000
01000000
00000000
,
00100000
00000000
00001000
00000000
,
00010000
00010000
00010000
00000000
,
00000010
00000000
00000100
00000000
,
00000001
00000001
00000001
00000000
,
00000010
00000000
00000100
00000000
,
00001000
00000100
00001000
00001000
,
00000001
00000000
00000100
00000000
,
00000010
00010000
00001000
00001000
,
00100000
00000000
00010000
00000000
,
01000000
00100000
10000000
10000000
,
01000000
00000000
00100000
00000000
,
00001000
00010000
00000100
00000100
,
00001000
00000000
00000010
00000000
,
00000100
00000000
00000001
00000000
,
00000010
00000000
00001000
00000000
,
00010000
00000000
00100000
00000000
,
10000000
00000000
01000000
00000000
,
00100000
00000000
00001000
00000000
,
00010000
00000000
00000010
00000000
,
00000100
00000000
00000001
00000000
,
00001000
00000000
00000100
00000000
,
00000020
00000000
00000030
00000000
,
00000002
00000000
00000003
00000000
,
00000100
00000000
00001000
00000000
,
00010000
00000000
01000000
00000000
,
20000000
00000000
30000000
00000000
,
00200000
00000000
00300000
00000000
,
02000000
00000000
03000000
00000000
,
00020000
00000000
00030000
00000000
,
10010000
00000000
00000000
00000000
,
00000000
00000000
00000000
00000000
;

//---------------dance-double - ----------------
#NOTES:
     dance-double:
     :
     Medium:
     7:
     0.322767,0.450523,0.108018,0.045007,0.000000,251.000000,239.000000,12.000000,5.000000,0.000000,0.000000,0.322767,0.450523,0.108018,0.045007,0.000000,251.000000,239.000000,12.000000,5.000000,0.000000,0.000000:
00000000
00000000
00000000
00000000
,
00000000
00000000
00000000
00000000
,
00000000
00000000
00000000
00000000
,
00000000
00000000
00000000
00000000
,
00000000
00000000
00000000
00000000
,
00100000
00000000
01000000
00000000
,
00100000
00000000
00000000
00000000
10000000
00000000
01000000
00100000
,
01000000
00000000
00100000
00000000
,
00001000
00000000
00000000
00000000
00010000
00000000
00000100
00000010
,
00000100
00000000
00001000
00000001
00000000
00000001
00001000
00000000
,
00000100
00000010
00000001
00000100
,
00001000
00000000
00010000
00001000
00000000
00001000
00010000
00000000
,
01000000
10000000
00010000
01000000
,
00100000
00000000
10000000
00010000
00000000
00010000
10000000
00000000
,
00100000
10000000
01000000
00100000
,
00001000
00000000
00010000
00001000
00000000
00001000
00010000
00000000
,
00000010
00000100
00000001
00000010
,
00000100
00000000
00000000
00010000
00000000
00000000
00000000
00000000
,
00001000
00000000
00000000
01000000
00000000
00000000
00000000
00000000
,
00100000
00000000
00000000
10000000
00000000
10000000
00000000
10000000
,
00000000
01000000
00100000
00001000
,
00020000
00000000
00000000
00030000
,
00000000
00000000
00000000
00000000
00000000
00000000
00000000
00000100
,
00000000
00000000
00000000
00000010
00000000
00000000
00000000
00001001
,
00000000
00001001
00000000
00001001
00000000
00000000
00000000
00000000
,
00000001
00000000
00000001
00000100
00000000
00000000
00000000
00000000
,
00000100
00000000
00000100
00001000
00000000
00000000
00000000
00000000
,
00010000
00000000
00000000
00001000
00000000
00001000
00000000
00001000
,
00000000
00010000
01000000
10000000
,
00200000
00000000
00000000
00300000
,
00000000
00000000
10000000
00010000
,
00200000
00000000
00000000
00300000
,
00000000
00001000
00010000
00000010
,
00000100
00000001
00000010
00000100
,
00010000
00000000
00001000
00000000
00100000
00000000
01000000
10000000
,
00000000
00010000
10000000
00010000
00000000
00000000
00000000
00000000
,
00000000
01000000
00100000
10000000
,
00010000
00000000
10000000
01000000
00000000
00100000
00001000
00010000
,
00000000
00001000
00100000
01000000
,
00100000
00000000
00000000
00000000
00000000
01000000
00000000
10000000
,
00000000
00100000
00000000
00010000
00000000
00000000
00000000
00000000
,
00000000
00001000
00000000
00000010
00000000
00000001
00000000
00000100
,
00000000
00000000
00000000
00000000
,
00000010
00001000
00000010
00001000
,
00000001
00000100
00000001
00000100
,
00000010
00000000
00000000
00010000
00000000
00000000
00001000
00000000
,
00100000
00100000
01000000
01000000
,
10000000
00000000
00000000
00010000
00000000
00000000
01000000
00000000
,
00001000
00001000
00010000
00010000
,
00000100
00000000
00000000
00000010
00000000
00000000
00000001
00000000
,
00000100
00000100
00000010
00000010
,
00001000
00000000
00000000
00000001
00000000
00000000
00000100
00000000
,
00001000
00001000
00010000
00010000
,
00001000
00000000
00000000
00100000
00000000
00000000
00010000
00000000
,
01000000
00000000
00100000
00000000
10000000
00000000
00010000
10000000
,
01000000
00000000
00000000
00100000
00000000
00000000
00001000
00000000
,
00010000
00000000
01000000
00000000
10000000
00000000
00100000
01000000
,
00001000
00000000
00000000
00010000
00000000
00000000
00000100
00000000
,
00000010
00000000
00000001
00000000
00001000
00000000
00000001
00000100
,
00000010
00000000
00000000
00010000
00000000
00000000
00001000
00000000
,
00000010
00000000
00000001
00000000
00000100
00000000
00001000
00010000
,
00000100
00001100
00001000
00001001
,
00000001
00000100
00000010
00001000
,
00000100
00010100
00010000
00011000
,
00001000
00000000
00100000
00000000
00010000
00000000
01000000
01000000
,
01000000
01001000
00001000
00101000
,
00100000
00010000
10000000
01000000
,
00010000
00011000
00001000
01001000
,
01000000
00100000
10000000
01000000
,
00010000
00000000
00000000
00001000
00000000
00000000
00000000
00000000
,
00000100
00000000
00000000
00000001
00000000
00000000
00000000
00000000
,
00000010
00000000
00000000
00000001
00000000
00001000
00000000
00000001
,
00000000
00000100
00000010
00000100
,
00000020
00000000
00000000
00000030
,
00000000
00000000
00010000
00001000
,
00200000
00000000
00000000
00300000
,
00001000
00010000
01000000
10000000
,
10010000
00000000
00000000
00000000
,
00000000
00000000
00000000
00000000
;

//---------------dance-double - ----------------
#NOTES:
     dance-double:
     :
     Hard:
     11:
     0.473220,0.589146,0.045007,0.081013,0.000000,368.000000,363.000000,5.000000,9.000000,0.000000,0.000000,0.473220,0.589146,0.045007,0.081013,0.000000,368.000000,363.000000,5.000000,9.000000,0.000000,0.000000:
00000000
00000000
00000000
00000000
,
00000000
00000000
00000000
00000000
,
00000000
00000000
00000000
00000000
,
00000000
00000000
00000000
00000000
,
00000000
00000000
00000000
00000000
,
10000000
00000000
10000000
00100000
00000000
00100000
01000000
00000000
,
01000000
00001000
00000000
00001000
00010000
00000000
00010000
00000100
,
00000010
00000000
00000010
00000001
00000000
00000001
00000100
00000000
,
00000100
00000010
00000000
00000010
00010000
00000000
00010000
00000010
,
00000100
00000000
00000001
00000100
00000000
00000010
00001000
00000000
,
00000100
00000010
00000000
00000001
00001000
00000000
00000010
00010000
,
00001000
00000000
00100000
01000000
00000000
00100000
00001000
00000000
,
01000000
00100000
00000000
10000000
01000000
00000000
00100000
00001000
,
01000000
00000000
00100000
00010000
00000000
00001000
00100000
00000000
,
01000000
10000000
00000000
00100000
01000000
00000000
00001000
00010000
,
00000100
00000000
00000010
00000100
00000000
00010000
00000010
00000000
,
00000100
00000001
00000000
00000010
00000100
00000000
00001000
00000001
,
00000100
00000000
00000010
00000100
00000000
00000000
00000000
00000010
,
00010000
00000000
00000000
00001000
00000000
00000000
00000000
00100000
,
00001000
00000000
01000000
00100000
00000000
10000000
00000000
02000000
,
00000000
00010000
10000000
03010000
,
00002000
00000000
00000000
00000000
,
00000000
00000000
00000000
00000000
00000000
00000000
00013000
00000010
,
00000000
00000000
00000100
00000001
00000000
00000000
00000010
00000100
,
00000000
00001000
00000000
00000100
00000000
00000000
00000000
00000000
,
00000100
00000000
00010000
00001000
00000000
00000000
00000000
00100000
,
01000000
00000000
10000000
00100000
00000000
00000000
00000000
00010000
,
00001000
00000000
00010000
00000010
00000000
00001000
00000000
00000200
,
00000000
00000010
00010000
00000310
,
00000002
00000000
00000000
00000000
,
00000000
00000000
00000103
00001000
,
00020000
00000000
00000000
00030000
,
00000000
00000000
00000100
00000000
00000010
00000000
00000001
00000100
,
00000000
00000010
00001000
00000100
00010000
00000100
00001000
00000010
,
00010000
00001000
00100000
00001000
00010000
00000100
00010000
00001000
,
00000000
00100000
01000000
10000000
00000000
00000000
00000000
00000000
,
00000000
00100000
01000000
00001000
00100000
01000000
00010000
01000000
,
10000000
00100000
01000000
00001000
00000000
00010000
00000100
00000010
,
00000000
00000001
00001000
00000001
00000100
00001000
00000100
00000010
,
00010000
00000000
00000000
00000000
00000000
00001000
00100000
01000000
,
00010000
01000000
10000000
00010000
00000000
00000000
00000000
00000000
,
00000000
01000000
00100000
01000000
10000000
01000000
00001000
00010000
,
00000000
00000000
00000000
00000000
,
00000100
00000010
00000100
00010000
00001000
00010000
00000010
00000100
,
00000001
00001000
00000001
00000010
00000100
00010000
00001000
01000000
,
00100000
00000000
10000000
01000000
00000000
00100000
00001000
00000000
,
01000000
10000000
01000000
00100000
10000000
01000000
00100000
00001000
,
01000000
00000000
00100000
10000000
00000000
01000000
00010000
00000000
,
00001000
00000100
00000010
00001000
00000100
00000010
00000001
00000001
,
00000001
00000000
00000100
00000010
00000000
00001000
00000001
00000000
,
00000010
00000001
00000100
00000010
00010000
00001000
00010000
00000100
,
00000010
00000000
00000001
00000100
00000000
00000010
00010000
00000000
,
00000010
00001000
00000100
00010000
00001000
01000000
00100000
10000000
,
01000000
00000000
00010000
01000000
00000000
00100000
00001000
00000000
,
00010000
00100000
10000000
00010000
00100000
10000000
00100000
00010000
,
01000000
00000000
10000000
01000000
00000000
00010000
00100000
00000000
,
01000000
00100000
00001000
00010000
00000010
00010000
00000100
00000100
,
00000100
00000000
00000010
00000001
00000000
00001000
00000010
00000000
,
00000100
00000001
00000010
00001000
00010000
00001000
01000000
00100000
,
01000000
00000000
00100000
10000000
00000000
01000000
00010000
00000000
,
01000000
00100000
00001000
00010000
00100000
00010000
00001000
00100000
,
01000000
10000000
00010000
01000000
00000000
00000000
00000000
00100000
,
01000000
00001000
00010000
00001000
00000000
00000000
00000000
00010000
,
00000010
00001000
00000100
00000001
00000100
00000010
00000001
00000100
,
00000000
00000001
00000010
00001000
,
00020000
00100000
00001000
00100000
,
00001000
00000000
00100000
00000000
00001000
00000000
00100000
00130000
,
00000000
00000000
10000000
01000000
00000000
00000000
10000000
00100000
,
00000000
01000000
00000000
00001000
00000000
00000000
00000000
00000000
,
00010000
00000100
00000010
00000100
00001000
00000001
00001000
00000000
,
00000010
00010000
00000010
00000100
00000001
00000010
00000001
00000000
,
00000100
00001000
00010000
00001000
00100000
00010000
01000000
00100000
,
10000000
01010000
10100000
11000000
,
00202000
00000000
00000000
00000000
,
00000000
00300000
01000000
00010000
,
00200000
00000000
00000000
00303000
,
00001000
00100000
00001000
00010000
00000010
00010000
00000100
00001000
,
00001001
00000000
00000000
00000000
,
00000000
00000000
00000000
00000000
;

//---------------dance-single - ----------------
#NOTES:
     dance-single:
     :
     Challenge:
     13:
     0.651963,0.625827,0.324053,0.126021,0.000000,507.000000,471.000000,36.000000,14.000000,0.000000,0.000000,0.651963,0.625827,0.324053,0.126021,0.000000,507.000000,471.000000,36.000000,14.000000,0.000000,0.000000:
// measure 0
0000
0000
0000
0000
,  // measure 1
0000
0000
0000
0000
,  // measure 2
0000
0000
0000
0000
,  // measure 3
0000
0000
0000
0000
,  // measure 4
0000
0000
0000
0000
,  // measure 5
1001
0000
1000
1100
0000
0001
0011
0000
,  // measure 6
0100
0101
0000
0010
1010
0000
0110
0001
,  // measure 7
1000
0000
0010
0100
0001
1000
0100
0000
,  // measure 8
0010
1000
0100
0001
1000
0001
0100
0010
,  // measure 9
1001
0000
0100
0010
1000
0001
0100
0000
,  // measure 10
0001
0010
1000
0010
0100
0010
1000
0010
,  // measure 11
0011
0000
0001
0100
0010
1000
0001
0000
,  // measure 12
1000
0100
0001
0100
0010
0001
0100
0010
,  // measure 13
1010
0000
1000
0001
1000
0100
0010
0000
,  // measure 14
0001
0100
1000
0100
0010
0100
0001
1000
,  // measure 15
1010
0000
0010
1000
0100
0010
0001
0000
,  // measure 16
1000
0001
0010
1000
0010
0100
0010
0001
,  // measure 17
1000
0001
0100
0020
0000
0000
0000
1030
,  // measure 18
0010
1000
0100
0002
0000
0000
0000
1003
,  // measure 19
0001
0010
0100
1000
0010
0100
0001
2000
,  // measure 20
0000
0100
3100
0000
1100
0000
0110
0000
,  // measure 21
0022
0000
0000
0000
,  // measure 22
0000
0000
0000
0000
0030
0000
1003
0002
,  // measure 23
0000
0103
0010
2000
0000
3100
0010
0001
,  // measure 24
0000
0101
0000
1100
0000
0000
0000
0010
,  // measure 25
0100
0010
0001
1000
0200
0000
0000
0310
,  // measure 26
0001
1000
0001
0100
0020
0000
0000
1030
,  // measure 27
0010
1000
0001
1000
0100
0010
0001
2000
,  // measure 28
0000
0010
3010
0000
0101
0000
1001
0000
,  // measure 29
2100
0001
0100
0100
,  // measure 30
0010
0000
3100
0000
1000
0100
0001
0000
,  // measure 31
0020
0001
1000
0100
,  // measure 32
0031
0100
0010
1000
0100
0010
0001
0000
,  // measure 33
0011
0001
0100
0010
1000
0100
0010
0001
,  // measure 34
0100
0010
1000
0001
0010
0100
1000
0001
,  // measure 35
0100
0010
1000
0001
0000
0001
0100
0000
,  // measure 36
0000
0100
0010
1000
0100
0001
0100
0010
,  // measure 37
0001
0100
0010
1000
0100
0010
0001
1000
,  // measure 38
0000
1000
0001
0100
0010
1000
0001
0100
,  // measure 39
1010
0000
0001
0000
0000
0001
1000
0100
,  // measure 40
0010
1000
0010
0001
0100
0010
1000
0000
,  // measure 41
0000
0110
0010
1000
0100
0010
0001
1000
,  // measure 42
0010
1000
0001
1000
0100
0100
0001
0010
,  // measure 43
0001
1000
0100
0100
0001
0010
1000
0010
,  // measure 44
0001
0010
0100
1000
1000
0001
0100
0010
,  // measure 45
1001
0000
0010
1000
0001
1000
0100
0000
,  // measure 46
0010
0001
0100
1000
0100
0010
1000
0001
,  // measure 47
0011
0000
0100
0001
0010
0100
1000
0000
,  // measure 48
0010
1000
0001
0010
1000
0010
0100
1000
,  // measure 49
1010
0000
0001
1000
0100
0010
0001
0000
,  // measure 50
0010
1000
0010
0100
0010
0001
0100
0010
,  // measure 51
0110
0000
0100
1000
0100
0001
0010
0000
,  // measure 52
1000
0001
1000
0010
0100
1000
0100
0001
,  // measure 53
1001
0000
0100
0010
0001
0010
1000
0000
,  // measure 54
0010
1000
0001
0010
1000
0010
0100
1000
,  // measure 55
1010
0000
0001
0010
1000
0100
0010
0000
,  // measure 56
0001
0100
0010
0001
0010
1000
0100
0010
,  // measure 57
0011
0000
0100
0001
1000
0100
0010
0000
,  // measure 58
0001
0100
0010
0100
1000
0100
0001
0010
,  // measure 59
0110
0000
1000
0100
0010
0001
0100
0000
,  // measure 60
0010
1000
0100
0010
0001
0100
0001
1000
,  // measure 61
0010
1000
0100
0010
0001
0100
1000
0000
,  // measure 62
0001
1000
0010
1000
0100
0010
0001
0000
,  // measure 63
0100
0010
1000
0010
0100
0010
0001
0100
,  // measure 64
0010
1000
0001
1000
0100
0010
0001
0000
,  // measure 65
0101
0000
1000
0001
0010
0100
1000
0000
,  // measure 66
0010
1000
0100
0010
0001
0100
0010
1000
,  // measure 67
0100
0010
0001
1000
0010
1000
0100
0010
,  // measure 68
0001
0100
0001
1000
0100
0010
0001
0000
,  // measure 69
1100
1000
0010
1000
0100
0010
0001
0000
,  // measure 70
0011
0001
1000
0100
1000
0010
0100
0000
,  // measure 71
0110
0010
1000
0001
0010
1000
0010
0100
,  // measure 72
0010
0001
1000
0000
0001
0100
1000
0000
,  // measure 73
2010
0001
0100
0010
,  // measure 74
0100
0000
3001
0000
1000
0100
0020
0000
,  // measure 75
0031
0100
0010
1000
0100
0010
1000
0001
,  // measure 76
0100
1000
0010
0001
1000
0100
0001
0010
,  // measure 77
0110
1001
0000
0000
;
