#TITLE:Yeah! Yeah!;
#ARTIST:CLUB SPICE;
#BANNER:Yeah! Yeah!.png;
#BACKGROUND:Yeah! Yeah!-bg.png;
#JACKET:Yeah! Yeah!-jacket.png;
#MUSIC:Yeah! Yeah!.ogg;
#SAMPLESTART:60.806;
#SAMPLELENGTH:20;
#DISPLAYBPM:150;
#BPMS:0=150;
#BGCHANGES:;

//---------------dance-single - ----------------
#NOTES:
     dance-single:
     :
     Beginner:
     2:
     :
0000
0000
0000
0000
,
0000
0000
0000
0000
,
0000
0000
0000
0000
,
0000
0000
0000
0000
,
0000
0000
0000
0000
,
0010
0000
0000
0001
,
0000
0000
0000
0000
,
0000
0000
0000
0000
,
0000
0000
0010
0000
,
0000
0001
0000
0000
,
0000
0010
0000
0000
,
1000
0000
0000
0000
,
0001
0000
0001
0000
,
1000
1000
1000
0010
,
0000
0010
0000
0100
,
0100
0100
0100
0100
,
0100
0000
0001
0000
,
0010
0010
0010
0010
,
0000
1000
0000
0100
,
0100
0100
0100
0100
,
0000
0000
0000
0000
,
0000
0000
0000
0000
,
0000
0000
0000
0000
,
0000
0000
0001
0001
,
0001
0000
1000
0000
,
0010
0010
0010
0010
,
0000
0001
0000
0100
,
0100
0100
0100
0100
,
0100
0000
0001
0000
,
0010
0010
0010
0010
,
0000
1000
0000
0001
,
0001
0001
0001
0001
,
1001
0000
0000
0000
,
0000
0000
0000
0000
,
0000
0000
0000
0000
,
0000
0000
1000
1000
,
1000
0000
0100
0000
,
0001
0000
0000
0000
,
0010
0000
0001
0001
,
0001
0001
0000
0100
,
0000
0010
0010
0010
,
0010
0000
1000
0000
,
1000
1000
1000
1000
,
0000
0100
0000
0100
,
0100
0100
0100
0000
,
0000
0001
0000
0010
,
0010
0010
0000
1000
,
0000
0100
0100
0100
,
0100
0000
0000
0010
,
0000
0100
0100
0100
,
0100
0000
0010
0000
,
0100
0000
0100
0000
,
0100
0000
0100
0000
,
0001
0000
0001
0000
,
0001
0000
0001
0000
,
1000
0000
1000
0000
,
1000
0000
1000
0000
,
0010
0010
0010
0010
,
0020
0000
0000
0000
,
0000
0000
0000
0000
,
0000
0000
0000
0030
,
0000
0000
0000
0000
;

//---------------dance-single - ----------------
#NOTES:
     dance-single:
     :
     Easy:
     6:
     :
0000
0000
0000
0000
,
0000
0000
0000
0000
,
0000
0000
0000
0000
,
0000
0000
0000
0000
,
0000
0000
0000
0000
,
2000
0000
0000
0000
,
0000
0000
3000
0000
,
0020
0000
2030
0000
,
3002
0000
1003
0100
,
0010
0001
1000
0001
,
1000
0001
0010
0100
,
1000
0001
1000
0001
,
1000
0100
1000
0001
,
0010
0000
0000
0001
,
0100
0001
1000
0010
,
0000
0000
1001
0110
,
1000
0100
1000
0001
,
0100
0000
0000
0001
,
0100
0001
1000
0100
,
0000
0000
0110
1001
,
0020
0000
0030
0200
,
0000
0000
0300
0002
,
0000
0003
2000
0000
,
0000
3000
1001
0110
,
0001
0100
0001
0010
,
0100
0100
0100
1000
,
0100
1000
0010
0100
,
0100
0100
1001
0110
,
0001
0010
0100
1000
,
0100
0001
0100
1000
,
0100
0010
0001
0100
,
1000
0100
0110
1001
,
2000
0000
0000
0000
,
0000
0000
0000
3200
,
0000
0000
0000
0000
,
0000
0300
0010
0010
,
1001
0110
1001
0110
,
0000
0000
0000
0000
,
1000
0100
0010
0001
,
0100
0001
0100
0001
,
0010
0100
1000
0010
,
1000
0010
1000
0100
,
0010
0001
1000
0001
,
1000
0001
0010
0100
,
1000
0100
1000
0100
,
1000
0010
0100
0001
,
0010
0100
0010
0001
,
0100
0010
1000
0010
,
0100
0010
1000
0001
,
0100
0010
1000
0001
,
1000
0010
0100
0001
,
0010
0100
0010
0100
,
1000
0001
1000
0001
,
0100
0010
0100
0010
,
1000
0001
1000
0001
,
0010
0110
1000
0001
,
0100
0110
1000
0001
,
0110
1001
0110
1001
,
0220
0000
0000
0000
,
0000
0000
0000
0000
,
0000
0000
0000
0330
,
0000
0000
0000
0000
;

//---------------dance-single - ----------------
#NOTES:
     dance-single:
     :
     Medium:
     9:
     :
0000
0000
0000
0000
,
0000
0000
0000
0000
,
0000
0000
0000
0000
,
0000
0000
0000
0000
,
0000
0000
0000
0000
,
1000
0010
1000
0001
,
1000
0000
0100
0000
1000
0001
0010
0000
,
0000
0000
0000
0000
,
0000
0000
0001
0010
,
0001
1000
0001
0100
,
0010
1000
0001
0000
0010
0000
0001
0000
,
1000
0000
0001
0000
0100
0000
0010
1000
,
0001
0000
0100
0000
0010
0000
1000
0100
,
1000
0001
0100
0010
,
1000
0000
0100
0000
0010
0001
0010
0000
,
0100
1000
1001
0110
,
1000
0000
0100
0000
0010
0000
0001
0100
,
0001
0010
0010
0001
,
0010
0000
0100
0000
1000
0010
1000
0000
,
0100
0100
0110
1001
,
0002
0010
0013
0200
,
1000
0010
1300
0002
,
0100
0103
2000
0001
,
0100
3001
0110
1001
,
0010
0000
1000
0000
0100
0000
0010
0001
,
0100
0010
0010
0100
,
0001
0000
0010
0000
0100
1000
0010
0000
,
0100
0100
1001
0110
,
0002
0000
1000
0000
0103
0000
0010
1000
,
0100
0010
0001
2000
,
0001
0000
3100
0000
0010
0001
0100
0000
,
0010
1000
0101
1010
,
0200
0000
0000
0000
,
0000
0000
0300
0020
,
0000
0000
0000
0000
,
0000
0030
0001
1000
,
0011
1100
0011
1100
,
0001
0000
0001
0000
0010
0100
1000
0000
,
0010
0100
0001
0010
,
0100
0000
0010
0000
0001
0100
0010
0000
,
1000
0100
0010
0010
,
0010
0000
0001
1000
0100
0000
0010
0000
,
0001
0100
1000
0100
,
0001
0010
0100
0000
1000
0000
0010
0000
,
0100
0000
0100
0000
0100
0000
0001
1000
,
0100
0010
0001
2100
,
0100
0000
0100
0000
3100
0010
0001
0000
,
1000
0100
0012
0010
,
0010
0000
0013
0100
1000
0000
0001
0000
,
0100
1020
1000
1000
,
1030
0100
0010
0000
0001
0000
0100
0000
,
0010
0000
0010
0000
0010
0000
0010
1000
,
0100
0000
0100
0000
0100
0000
0100
0010
,
0001
0000
0001
0000
0001
0000
0001
1000
,
0010
0000
0010
0000
0010
0000
0010
0100
,
0001
0101
1000
1100
,
0010
0011
0100
1100
,
1001
0110
1001
0110
,
2002
0000
0000
0000
,
0000
0000
0000
0000
,
0000
0000
0000
3003
,
0000
0000
0000
0000
;

//---------------dance-single - ----------------
#NOTES:
     dance-single:
     :
     Hard:
     12:
     :
0000
0000
0000
0000
,
0000
0000
0000
0000
,
0000
0000
0000
0000
,
0000
0000
0000
0000
,
0000
0000
0000
0000
,
1000
0000
0000
0010
0000
0000
1000
0000
0000
0100
0000
0000
0010
0000
0000
0001
,
0000
0000
0010
0000
0000
0100
0000
0000
1000
0000
0001
0000
0000
0000
0000
0000
,
0000
0000
0000
0000
,
0000
0000
0000
0000
0000
0000
0000
0000
0001
0000
0000
0010
0000
0000
0001
0000
,
0000
0100
0000
0000
0010
0000
0000
1000
0000
0000
0010
0000
0000
0100
0000
0000
,
0001
0000
1000
0000
0010
0000
0000
1000
0000
0000
0001
0000
0000
0010
0000
0000
,
0100
0000
0000
1000
0000
0000
0100
0000
0000
0010
0000
0000
0001
0000
1000
0000
,
0010
0000
1000
0100
1000
0000
0100
0000
1000
0000
0010
0000
0100
0000
0001
1000
,
0001
0000
0000
0001
0000
0000
0001
0000
0010
0000
0000
0000
0001
0000
1000
0000
,
0010
0000
0001
0000
0010
0000
1000
0000
0001
0000
0100
0010
0100
0000
0000
0001
,
0000
0001
0100
0000
1001
0000
0110
0000
,
1000
0000
0010
0100
0010
0000
0100
0000
0001
0000
0010
0000
0100
0000
1000
0001
,
1000
0000
0000
1000
0000
0000
1000
0000
0010
0000
0000
0000
1000
0000
0001
0000
,
0010
0000
1000
0000
0010
0000
0001
0000
0100
0000
0010
1000
0010
0000
0000
1000
,
0000
0001
1000
0000
1100
0000
0011
0000
,
1000
0000
0000
0000
0100
0000
0000
0000
1000
0000
0000
0000
0010
0000
0100
0001
,
0100
0000
0001
0000
0000
0001
0000
0000
0100
0000
0001
0000
1000
0010
1000
0000
,
0010
0000
0000
0000
1000
0000
0000
0000
0100
0000
1000
0000
0001
0000
0000
0001
,
0000
0001
0010
0000
1001
0000
0110
0000
,
0001
0010
0100
1000
0001
1000
0010
0100
,
0001
0000
0000
0100
0000
0000
0001
0000
1000
0000
0100
0010
0100
0000
1000
0000
,
0010
0000
0100
0000
0001
0000
1000
0000
0100
0000
0010
0100
0000
0000
0001
0000
,
0000
0010
0000
0000
0001
0000
0000
0000
1100
0000
0000
0000
0011
0000
0000
0000
,
0010
0000
0100
0010
0100
0000
0001
0000
1000
0000
0001
0000
0010
0000
0100
0000
,
1000
0000
0000
0001
0000
0000
0100
0000
0001
0000
0100
0010
0100
0000
0001
0000
,
0010
0000
0100
0000
0001
0000
0100
0000
1000
0000
0010
0000
1000
0000
0000
0010
,
0000
0001
0010
0000
0110
0000
0110
0000
,
2000
0000
3000
0020
,
0000
0000
0030
2000
,
0000
3000
0002
0000
,
0000
0003
0110
1001
,
0011
1100
0011
1100
,
0021
0130
2100
3010
,
0100
0000
0000
0001
0000
0000
0010
0000
0000
0001
0000
0000
0100
0000
0000
1000
,
0000
0000
0100
0000
0000
1000
0000
0000
0100
0000
0010
0000
1000
0000
0000
0100
,
0000
0000
1000
0000
0000
0001
0000
0000
0010
0000
0000
0010
0000
0000
0010
0000
,
0000
0010
0000
0000
0010
0000
0001
0000
1000
0000
0000
0010
0000
0000
1000
0000
,
0000
0100
0000
0000
0010
0000
0000
0001
0000
0000
0010
0000
0000
0100
0000
0000
,
0010
0000
0001
0000
1000
0000
0000
0010
0000
0000
1000
0000
0000
0001
0000
0000
,
0100
0000
0000
0100
0000
0000
0100
0000
0000
0100
0000
0000
0100
0000
0010
0000
,
1000
0000
0001
0010
0001
0000
1000
0000
0000
0001
0000
0000
1020
0000
0000
1000
,
0000
0000
1000
0000
0000
1030
0000
0000
0010
0000
0100
0000
0001
0000
0010
0100
,
0010
0000
0001
0000
0000
1000
0000
0000
0102
0000
0000
0100
0000
0000
0100
0000
,
0000
0103
0000
0000
0010
0000
1000
0000
0001
0000
1000
0100
1000
0000
0001
0000
,
0000
1000
0000
0000
0201
0000
0000
0001
0000
0000
0001
0000
0000
0301
0000
0000
,
0010
0000
0100
0000
1000
0000
0010
0100
0010
0000
1000
0000
0000
0001
0000
0000
,
0210
0010
0010
0310
,
0012
0010
0010
0013
,
2010
0010
0010
3010
,
0210
0010
0010
0310
,
0011
0110
1010
0110
,
0001
0010
0100
1000
0100
1000
0001
1000
,
0010
0001
0010
1000
0100
0001
0100
1000
,
2002
0000
0000
0000
,
0000
0000
0000
0000
,
0000
0000
0000
3003
,
0000
0000
0000
0000
;

//---------------dance-single - ----------------
#NOTES:
     dance-single:
     :
     Challenge:
     16:
     :
0000
0000
0000
0000
,
0000
0000
0000
0000
,
0000
0000
0000
0000
,
0000
0000
0000
0000
,
0000
0000
0000
0000
,
1010
0000
0000
0101
0000
0000
0011
0000
0000
1100
0000
0000
0101
0000
0000
1010
,
0000
0000
1100
0000
0000
0011
0000
0000
1001
0000
0110
0000
0010
1000
0010
1000
,
0001
0100
0001
0100
0010
1000
0010
1000
0001
0100
0001
0100
0010
1000
0010
1000
,
0010
1000
0001
0100
0001
0100
0001
0100
0010
1000
0000
1000
0100
0000
0100
0010
,
0000
0010
0001
0000
0001
0100
0000
0100
0010
0000
0010
1000
0000
1000
0100
0000
,
1000
0000
0001
0000
0100
0001
0000
0001
0010
0000
0010
0100
0000
0100
1000
0000
,
1000
0010
0000
0010
0100
0000
0100
0001
0000
0001
1000
0000
0010
0000
0100
0000
,
0001
0010
0000
0100
0000
1000
0010
0000
0100
0000
0001
0000
1000
0100
1000
0001
,
0000
0000
0010
0001
0000
0001
0100
0000
0100
0010
0000
0000
1000
0010
0100
0001
,
0000
0001
0010
0000
0001
0100
0010
0000
1000
0001
1000
0100
0000
0000
1000
0010
,
0000
0010
0100
0000
0100
0001
0000
0001
0010
0000
1001
0000
0010
0000
1001
0000
,
0010
1000
0000
0001
0000
1000
0100
0000
0010
0000
0001
0000
0100
0010
1000
0001
,
0000
0001
0100
0000
0100
0010
0000
0010
1000
0001
0000
0100
0001
0010
0100
1000
,
0100
0010
0001
0000
1000
0001
1000
0000
0010
0100
0001
1000
0000
0000
0010
0100
,
0000
0100
0001
0000
0001
1000
0000
1000
0010
0000
1001
0000
0010
0000
1001
0000
,
1000
0100
0000
0001
0000
0010
0001
0010
0001
0100
0010
0000
1000
0100
1000
0001
,
0000
0000
0010
0001
0000
1000
0100
0000
0010
0100
0000
1000
0001
0100
0010
0100
,
0010
1000
0100
0000
0010
0001
1000
0000
0001
0100
0010
0100
0000
0001
1000
0000
,
1000
0100
0000
0100
0010
0001
0000
0000
1100
0000
0010
0000
1100
0000
0010
0000
,
0100
0001
0010
0100
0010
0001
1000
0000
0010
1000
0010
0100
0001
0010
0100
1000
,
0000
1000
0010
0000
0010
0100
0000
0100
0001
0000
1000
0100
0001
0010
0001
1000
,
0001
0100
0010
0000
1000
0100
1000
0000
0010
0100
0001
1000
0000
0000
0100
0010
,
0000
0010
0001
0000
0001
1000
0000
1000
0010
0000
1001
0000
0010
0000
1001
0000
,
1000
0100
0010
0001
0010
0100
1000
0000
0010
0100
0010
0000
1000
0001
1000
0100
,
0000
0000
0010
0001
0000
0001
1000
0000
0010
0000
1000
0100
0010
0001
0010
0100
,
0010
0001
1000
0000
0010
0100
0010
1000
0100
0010
0001
1000
0000
0000
0010
0100
,
0010
1000
0001
0000
1000
0100
0010
0001
0100
0000
1010
0000
0100
0000
1010
0000
,
1001
0000
0000
0101
0000
0000
1010
0000
0000
1000
0100
0000
0100
0000
0100
0010
,
0000
0000
0011
0000
0000
0101
0000
0000
1000
0010
0000
0000
0101
0000
0000
0011
,
0000
0000
0110
0000
0000
0010
0001
0000
0001
0000
0001
1000
0000
0000
0010
1000
,
0000
1000
0100
0000
1000
0001
0100
0000
0001
0010
1000
0000
0001
0010
1000
0000
,
0110
0000
0000
0001
1000
0001
0000
0001
1000
0001
0000
0001
1000
0001
0000
0001
,
0100
0010
0100
0010
1000
0100
1000
0100
0001
0010
0001
0010
1000
0001
1000
0001
,
0100
0010
0000
0010
1000
0000
1000
0100
0000
0100
0010
0000
0010
0001
0000
0001
,
1000
0000
1000
0001
0000
0001
0100
0000
0100
0010
1000
0001
1000
0100
0000
0100
,
0010
0000
0010
0001
0000
0001
0100
0000
0100
0001
0000
0001
1000
0000
1000
0100
,
0000
0100
0010
0000
0010
0001
0010
0100
1000
0001
0000
0001
0100
0000
0100
0010
,
0000
0010
1000
0000
1000
0100
0000
0100
0010
0000
0010
0001
0000
0001
1000
0000
,
1000
0001
0010
0100
0010
0001
0000
0001
1000
0000
1000
0010
0000
0010
0100
0000
,
0100
0001
0000
0001
1000
0000
1000
0100
0000
0100
0010
0000
0010
0100
1000
0001
,
0100
0010
0000
1000
0001
0000
0010
0001
0000
0100
1000
0000
0010
1000
0000
0100
,
0001
0000
1000
0010
0000
0001
0100
0000
0010
0100
0001
1000
0100
1000
0000
0001
,
0010
0000
0001
1000
0000
0100
0010
0000
0001
0100
0000
0010
1000
0000
0100
1000
,
0000
0010
0001
0000
1000
0010
0100
0001
0010
0100
0000
1000
0001
0000
0100
0001
,
0000
0010
1000
0000
0001
0010
0000
1000
0100
0000
1000
0001
0000
0100
0010
0000
,
1000
0100
0010
0001
0100
0001
0000
1000
0010
0000
1000
0100
0000
0010
0001
0000
,
1000
0010
0000
0100
0010
0000
1000
0010
0000
0100
0010
0000
1000
0010
0000
0100
,
0010
0000
1000
0010
0000
0100
0010
0000
1000
0100
0010
0001
0010
0100
1000
0000
,
0001
0100
0000
0001
0010
0000
0001
0100
0000
0001
0010
0000
0001
0100
0000
0001
,
0010
0000
0001
0100
0000
0001
0010
0000
0001
1000
0010
0100
0001
1000
0010
0000
,
0100
0001
0010
0001
0100
0000
0010
1000
0100
1000
0010
0000
0100
0001
0010
0001
,
0100
0000
0010
1000
0100
1000
0010
0000
1000
0001
0010
0001
0010
0001
1000
0000
,
0100
1000
0100
1000
0010
1000
0010
1000
0001
0010
0001
0010
0001
0100
0001
0100
,
2002
0000
0000
0000
,
0000
0000
0000
0000
,
3003
0000
0000
0000
;

//---------------dance-double - ----------------
#NOTES:
     dance-double:
     :
     Easy:
     6:
     :
00000000
00000000
00000000
00000000
,
00000000
00000000
00000000
00000000
,
00000000
00000000
00000000
00000000
,
00000000
00000000
00000000
00000000
,
00000000
00000000
00000000
00000000
,
00002000
00000000
00000000
00000000
,
00000000
00000000
00003000
00000000
,
00000010
00000001
00001000
00000001
,
00000100
00001000
00010000
01000000
,
10000000
00100000
00010000
00001000
,
00010000
00001000
00000100
00000001
,
00000010
00001000
00010000
00001000
,
00010000
00100000
10000000
01000000
,
00010000
00000000
00000000
00001000
,
00010000
00100000
00010000
00001000
,
00000000
00000000
00011000
00011000
,
00000010
00000001
00000010
00000100
,
00001000
00000000
00000000
00000001
,
00000100
00001000
00010000
01000000
,
00000000
00000000
10010000
10010000
,
00200000
00000000
00300000
20000000
,
00000000
00000000
30000000
00200000
,
00000000
00300000
00020000
00000000
,
00000000
00030000
00011000
00011000
,
00000010
00000001
00000010
00000100
,
00001000
00001000
00001000
00000001
,
00000100
00001000
00010000
01000000
,
01000000
01000000
10010000
01100000
,
00010000
00100000
01000000
10000000
,
01000000
00010000
01000000
10000000
,
00100000
00010000
00001000
00000010
,
00000001
00001000
00000110
00000110
,
00000002
00000000
00000000
00000000
,
00000000
00000000
00000000
00000203
,
00000000
00000000
00000000
00000000
,
00000000
00000300
00001000
00010000
,
01000000
10010000
00100000
10010000
,
01000000
01000000
00100000
00100000
,
10000000
01000000
00010000
00001000
,
00001000
00001000
00000100
00000001
,
00000010
00001000
00010000
00010000
,
00010000
01000000
10000000
00100000
,
00010000
00001000
00001000
00001000
,
00000100
00000001
00000010
00001000
,
00010000
00010000
00010000
01000000
,
10000000
00100000
00010000
00001000
,
00010000
00100000
00010000
00001000
,
00000010
00000001
00000100
00001000
,
00000100
00000001
00000010
00001000
,
00010000
00100000
00010000
00001000
,
00010000
01000000
10000000
00100000
,
01000000
01000000
00010000
00010000
,
00100000
01000000
00010000
00001000
,
00000100
00000100
00000001
00000001
,
00000010
00001000
00010000
01000000
,
10000000
01100000
00010000
01100000
,
00010000
00011000
00001000
00011000
,
00000010
00001001
00000100
00001001
,
00000020
00000000
00000000
00000000
,
00000000
00000000
00000000
00000000
,
00000000
00000000
00000000
00000030
,
00000000
00000000
00000000
00000000
;

//---------------dance-double - ----------------
#NOTES:
     dance-double:
     :
     Medium:
     9:
     :
00000000
00000000
00000000
00000000
,
00000000
00000000
00000000
00000000
,
00000000
00000000
00000000
00000000
,
00000000
00000000
00000000
00000000
,
00000000
00000000
00000000
00000000
,
00010000
00000000
00000000
00000000
00000010
00000000
00000000
00000000
00001000
00000000
00000000
00000000
00000100
00000000
00000000
00100000
,
00000000
00000000
00001000
00000000
00000000
00010000
00000000
00000000
00001000
00000000
00000010
00000000
00000001
00000000
00000000
00000000
,
00000000
00000000
00000000
00000000
,
00000000
00000000
00000100
00001000
,
00000100
00000011
00000001
00000100
,
00001000
00010000
00100000
00000000
01000000
00000000
00100000
00000000
,
10100000
00000000
10000000
00000000
01000000
00000000
00010000
00001000
,
00000100
00000000
00000001
00000000
00001000
00000000
00000100
00010000
,
00000100
00001000
00000001
00000100
,
00001000
00000000
00010000
00000000
00001000
00000010
00001000
00000000
,
00010000
01000000
00110000
01100000
,
01000000
00000000
10000000
00000000
00010000
00000000
01000000
00001000
,
01000000
00010000
10000000
01000000
,
00010000
00000000
00001000
00000000
00010000
00100000
00010000
00000000
,
00001000
00000100
00001001
00000110
,
00000200
00000010
00000310
00000002
,
00000010
00000010
00000013
00002000
,
00010000
00013000
02000000
00100000
,
00100000
03100000
11000000
00110000
,
00010000
00000000
10000000
00000000
01000000
00000000
00010000
00001000
,
00010000
00100000
00010000
00001000
,
00000100
00000000
00000010
00000000
00010000
00001000
00010000
00000000
,
00001000
00000100
00000011
00001100
,
00001000
00000000
00000001
00000000
00000100
00000000
00001000
00010000
,
00001000
00000010
00001000
00010000
,
00100000
00000000
10000000
00000000
01000000
00010000
00001000
00000000
,
00010000
01000000
10010000
01100000
,
20000000
00000000
00000000
00000000
,
00000000
00000000
30000000
02000000
,
00000000
00000000
00000000
00000000
,
00000000
03000000
00010000
00001000
,
00000011
00000100
00001010
00000100
,
00000010
00000000
00000001
00000000
00000100
00001000
00010000
00000000
,
01000000
10000000
00010000
10100000
,
01000000
00000000
10000000
00000000
00100000
00010000
00001000
00000000
,
00000100
00000001
00000010
00000010
,
00000010
00000000
00000001
00000100
00001000
00000000
00010000
00000000
,
01000000
10100000
00100000
10000000
,
01000000
00010000
00001000
00000000
00000100
00000000
00000001
00000000
,
00000010
00000000
00000010
00000000
00000010
00000000
00000001
00000100
,
00001000
00000000
00000000
00010000
00000000
00000000
00001000
00000000
00000000
01000000
00000000
00000000
20010000
00000000
00000000
00000000
,
00100000
00000000
00000000
00000000
00100000
00000000
00000000
00000000
31000000
00000000
00010000
00000000
00001000
00000000
00000000
00000100
,
00000000
00000000
00000010
00000000
00000000
00000010
00000000
00000000
00001002
00000000
00000000
00000000
00000100
00000000
00000000
00000000
,
00000100
00000000
00000000
00000000
00000013
00000000
00001000
00000000
00010000
00000000
00000000
01000000
00000000
00000000
10000000
00000000
,
00000000
00010000
00000000
00000000
00120000
00000000
00000000
00000000
10000000
00000000
00000000
00000000
01000000
00000000
00000000
00000000
,
00130000
00000000
01000000
00000000
00010000
00000000
00000000
00001000
00000000
00000000
00010000
00000000
00000000
00000100
00000000
00000000
,
00001002
00000000
00000010
00000000
00000013
00000000
00000010
00001000
,
00020000
00000000
00001000
00000000
00031000
00000000
00010000
00100000
,
20000000
00000000
00010000
00000000
30100000
00000000
00100000
01000000
,
00020000
00000000
10000000
00000000
01030000
00000000
01000000
00100000
,
00010000
00011000
00000010
00000011
,
00000100
00001010
00000001
00000110
,
00011000
00110000
01100000
11000000
,
02200000
00000000
00000000
00000000
,
00000000
00000000
00000000
00000000
,
00000000
00000000
00000000
03300000
,
00000000
00000000
00000000
00000000
;

//---------------dance-double - ----------------
#NOTES:
     dance-double:
     :
     Hard:
     12:
     :
00000000
00000000
00000000
00000000
,
00000000
00000000
00000000
00000000
,
00000000
00000000
00000000
00000000
,
00000000
00000000
00000000
00000000
,
00000000
00000000
00000000
00000000
,
00001000
00000000
00000000
00000010
00000000
00000000
00001000
00000000
00000000
00010000
00000000
00000000
00100000
00000000
00000000
10000000
,
00000000
00000000
00100000
00000000
00000000
00010000
00000000
00000000
00001000
00000000
00000010
00000000
00000000
00000000
00000000
00000000
,
00000010
00000000
00000010
00000000
,
00000010
00000000
00000000
00000000
00000000
00000000
00000000
00000000
00000001
00000000
00000000
00000010
00000000
00000000
00000001
00000000
,
00000000
00000100
00000000
00000000
00001000
00000000
00000000
00010000
00000000
00000000
00001000
00000000
00000000
00000010
00000000
00000000
,
00001000
00000000
00010000
00000000
00100000
00000000
00000000
10000000
00000000
00000000
00100000
00000000
00000000
00010000
00000000
00000000
,
00001000
00000000
00000000
00000100
00000000
00000000
00001000
00000000
00000000
00010000
00000000
00000000
00001000
00000000
00000010
00000000
,
00000001
00000000
00000100
00000010
00000100
00000000
00000001
00000000
00000100
00000000
00001000
00000000
00010000
00000000
00001000
00000000
,
00001000
00000000
00000000
00010000
00000000
00000000
00001000
00000000
00110000
00000000
00000000
00000000
00100000
00000000
00001000
00000000
,
00100000
00000000
00010000
00000000
00100000
00000000
10000000
00000000
00100000
00000000
00010000
00000000
10000000
00000000
00000000
01000000
,
00000000
10000000
00100000
00000000
01010000
00000000
00011000
00000000
,
00000100
00000001
00000100
00000010
00000001
00000100
00001000
00010000
,
00010000
00000000
00000000
00001000
00000000
00000000
00010000
00000000
00001000
00000000
00000000
00000000
00000100
00000000
00000001
00000100
,
00000001
00000000
00000100
00000000
00000001
00000000
00000100
00000000
00001000
00000000
00010000
00000000
00001000
00000000
00000000
00010000
,
00000000
00000100
00001000
00000000
00001010
00000000
00010100
00000000
,
00001000
00000000
00010000
00000000
00100000
00000000
00010000
00000000
00001000
00010000
00000000
00000000
00010000
00000000
00100000
00000000
,
01000000
00000000
00000000
00100000
00000000
00000000
00010000
00000000
00001000
00000000
00000000
00000000
00010000
00000000
00001000
00000000
,
00010000
00000000
00100000
00000000
00010000
00000000
00001000
00000000
00010000
00000000
00000010
00000000
00010000
00000000
00000000
00001000
,
00000000
00010000
00000100
00000000
00001100
00000000
00000011
00000000
,
00001000
00000000
00000010
00000100
00000010
00000000
00000100
00000000
00000001
00000000
00000010
00000000
00000100
00000000
00010000
00000000
,
00001000
00000000
00000000
00001000
00000000
00000000
00010000
00000000
01000000
00000000
10000000
01000000
10000000
00000000
01000000
00000000
,
10000000
00000000
00010000
00000000
10000000
00000000
01000000
00000000
00010000
00000000
00001000
00000000
00010000
00000000
00000000
00001000
,
00000000
00000010
00000100
00000000
00001010
00000000
00000101
00000000
,
00001000
00000000
00010000
00001000
00010000
00000000
00000010
00000000
00001000
00000000
00000100
00000000
00010000
00000000
00001000
00000000
,
00010000
00000000
00000000
00100000
00000000
00000000
10000000
00000000
01000000
00000000
10000000
01000000
10000000
00000000
01000000
00000000
,
00010000
00000000
00001000
00000000
00010000
00000000
00100000
00000000
00010000
00000000
00001000
00000000
00000100
00000000
00000000
00000010
,
00000000
00000100
00000010
00000000
00001001
00000000
00000110
00000000
,
00002000
00000000
00000000
00000000
00000000
00000000
00000000
00000000
00003001
00000000
00000000
00000000
00000200
00000000
00000000
00000001
,
00000000
00000000
00000001
00000000
00000000
00000001
00000000
00000000
00000301
00000000
00000000
00000000
00002000
00000000
00000000
00000000
,
00000000
00000000
00000000
00000000
00013000
00000000
00000000
00000000
02000000
00000000
00000000
00010000
00000000
00000000
00010000
00000000
,
00000000
00010000
00000000
00000000
03010000
00000000
00000000
00000000
10000000
00000000
00000000
00000000
00100000
00000000
00000000
00000000
,
01000000
00000000
00000000
00001000
00010000
00000000
00000000
00010000
00000100
00000000
00000000
00001000
00000001
00000000
00000000
00000000
,
00000002
00002003
00003020
00020030
,
00030010
00000000
00000000
00010000
00000000
00000000
00001000
00000000
00000000
00010000
00000000
00000000
00010000
00000000
00000000
00000100
,
00001000
00000000
00000001
00000000
00000000
00000010
00000000
00000000
00000001
00000000
00000100
00000000
00001000
00000000
00000000
00010000
,
00000000
00000000
01000000
00000000
00000000
10000000
00000000
00000000
00100000
00000000
00000000
00100000
01000000
00000000
00100000
00000000
,
00000000
00100000
00000000
00000000
00100000
00000000
00010000
00000000
00001000
00000000
00000000
00000010
00000000
00000000
00001000
00000000
,
00000000
00010000
00000000
00000000
00001000
00000000
00000000
00000010
00000100
00000000
00001000
00000000
00000000
00000100
00000000
00000000
,
00000001
00000000
00000100
00000000
00001000
00000000
00000000
00000001
00000000
00000000
00000100
00000000
00000000
00001000
00000000
00000000
,
00010000
00000000
00000000
01000000
00100000
00000000
00010000
00000000
00000000
10000000
00000000
00000000
01000000
00000000
00100000
00000000
,
00010000
00000000
00000000
00100000
00000000
00000000
00010000
00000000
00000000
10000000
00000000
00000000
10200000
00000000
00000000
01000000
,
00000000
00000000
01000000
00000000
00000000
01300000
00000000
00000000
00010000
00000000
00001000
00000000
00000010
00000000
00000000
00000001
,
00000000
00000000
00001000
00000000
00000000
00000001
00000000
00000000
00000120
00000000
00000000
00001000
00000000
00000000
00001000
00000000
,
00000000
00001030
00000000
00000000
00000100
00000000
00001000
00000000
00010000
00000000
00000000
01000000
00100000
00000000
01000000
00000000
,
00000000
00010000
00000000
00000000
20100000
00000000
00000000
00010000
00000000
00000000
00010000
00000000
00000000
30010000
00000000
00000000
,
00010000
00000000
00100000
00000000
00010000
00000000
01000000
00100000
00000000
00000000
00010000
00000000
00000000
00001000
00000000
00000000
,
00001020
00001000
00001000
00001030
,
00000102
00000100
00000100
00000103
,
00001020
00000130
00001200
00000310
,
00000102
00001003
00000120
00001030
,
00011000
01100000
10010000
01100000
,
00010000
00001000
00000100
00000010
00000001
00000010
00000100
00001000
,
00010000
01000000
00100000
10000000
00100000
00010000
00100000
00000000
,
00022000
00000000
00000000
00000000
,
00000000
00000000
00000000
00000000
,
00000000
00000000
00000000
00033000
,
00000000
00000000
00000000
00000000
;
