#TITLE:YOU CAN'T HURRY LOVE;
#SUBTITLE:;
#ARTIST:JUDY CRYSTAL;
#TITLETRANSLIT:;
#SUBTITLETRANSLIT:;
#ARTISTTRANSLIT:;
#GENRE:;
#CREDIT:;
#BANNER:YOU CAN'T HURRY LOVE-bn.png;
#BACKGROUND:YOU CAN'T HURRY LOVE-bg.png;
#LYRICSPATH:;
#CDTITLE:;
#MUSIC:YOU CAN'T HURRY LOVE.ogg;
#OFFSET:-0.500000;
#SAMPLESTART:51.264057;
#SAMPLELENGTH:20.226906;
#SELECTABLE:YES;
#DISPLAYBPM:169.000000;
#BPMS:0.000000=169.020004
;
#STOPS:
;
#BGCHANGES:;
#KEYSOUNDS:;
#ATTACKS:;

//---------------dance-single - x scale 11----------------
#NOTES:
     dance-single:
     :
     Hard:
     11:
     0.464972,0.557967,0.293667,0.016315,0.175384,399.000000,363.000000,36.000000,2.000000,0.000000,0.000000,0.464972,0.557967,0.293667,0.016315,0.175384,399.000000,363.000000,36.000000,2.000000,0.000000,0.000000:
0000
0000
0000
0000
,
0000
0000
0000
0000
,
0000
0000
0000
0000
,
0000
0000
0000
0000
,
0000
0000
0000
0000
,
0000
0000
0000
0000
,
0000
0000
0000
0000
,
0000
0000
0000
0000
,
0010
0000
0000
0010
0000
0000
0010
0000
0000
0000
0000
1000
,
0000
0000
0001
0000
0000
1000
0100
0000
0000
0000
0000
0000
,
0100
0000
0000
0100
0000
0000
0100
0000
0000
0000
0000
1000
,
0000
0000
0001
0000
0000
1000
0010
0000
0000
0000
0000
0000
,
0001
0000
0000
0001
0000
0000
0001
0000
0000
0000
0000
0010
,
0000
0000
0100
0000
0000
0010
0100
0000
0000
0000
0000
0000
,
1000
0000
0000
1000
0000
0000
1000
0000
0000
0000
0000
0100
,
0000
0000
0010
0000
0000
0100
0010
0000
0000
0000
0000
0000
,
0100
0000
0000
0010
0000
0000
0100
0000
0000
0000
0000
0001
,
0000
0000
1000
0000
0000
0001
1000
0000
0000
0000
0000
0000
,
1000
0000
0000
0001
0000
0000
1000
0000
0000
0000
0000
0010
,
0000
0000
0100
0000
0000
0010
0100
0000
0000
0000
0000
0000
,
1000
0000
0000
1000
0000
0000
0001
0000
0000
0000
0000
0010
,
0000
0000
0010
0000
0000
0100
0001
0000
0000
0000
0000
0000
,
0010
0000
0000
1000
0000
0000
0001
0000
0000
0000
0000
0001
,
0000
0000
0100
0000
0000
0100
0010
0000
0000
0000
0000
0000
,
0100
0000
0000
0100
0000
0000
0010
0000
0000
0000
0000
1000
,
0000
0000
0001
0000
0000
0010
0001
0000
0000
0000
0000
0000
,
0001
0000
0000
0100
0000
0000
1000
0000
0000
0000
0000
0010
,
0000
0000
0010
0000
0000
0100
0001
0000
0000
0000
0000
0000
,
0010
0000
1000
0100
0001
0100
1000
0000
,
0010
0000
0100
0000
0001
0010
0100
0000
,
1000
0000
0010
0100
0001
0100
0010
0000
,
1000
0000
0001
0000
0100
1000
0001
0000
,
0001
0000
0100
1000
0010
1000
0100
0000
,
0001
0000
0010
0000
1000
0001
0010
0000
,
0100
0000
0001
0000
1000
0001
0100
0020
,
0000
0000
0000
1030
,
0001
0000
0001
0000
1000
0010
0100
0000
,
1000
0000
0011
0000
0100
0010
0001
0000
,
0010
0000
0010
0000
1000
0100
0001
0000
,
0010
0000
1100
0000
1000
0001
0100
0000
,
0001
0010
1000
0000
1000
0010
0001
0000
,
0100
0010
1000
0000
1000
0010
0100
0000
,
1001
1010
0101
0110
,
1000
0010
0000
0010
0000
0010
1000
0000
,
0100
0000
0100
0000
0010
0001
1000
0000
,
0100
0000
1010
0000
1000
0001
0010
0000
,
1000
0000
1000
0000
0100
0001
0010
0000
,
0001
0000
0110
0000
0100
0010
1000
0000
,
0100
1000
0001
0000
0001
1000
0100
0000
,
0010
0001
0100
0000
0100
0001
0010
0000
,
0011
1100
1001
0101
,
0100
0001
0000
0001
0000
0001
0100
0000
,
1000
0100
0010
0001
,
0100
0010
1000
0001
,
0010
0000
0100
0000
0010
0000
0000
0000
1000
0000
0000
1000
0000
0000
1000
0000
,
0000
0000
1000
0000
0001
0000
0000
0000
0100
0000
0000
0100
0000
0000
0100
0000
,
0000
0000
0100
0000
0001
0000
0000
0000
0010
0000
0000
0010
0000
0000
0010
0000
,
0000
0000
0010
0000
1000
0000
0000
0000
0001
0000
0000
0001
0000
0000
0001
0000
,
0000
0000
0001
0000
0100
0000
0000
0000
0010
0000
0000
0010
0000
0000
0010
0000
,
0000
0000
0010
0000
1000
0000
0000
0000
0100
0000
0000
0100
0000
0000
0100
0000
,
1000
0000
0001
0000
1000
0000
0000
0000
0010
0000
0000
0010
0000
0000
0010
0000
,
0000
0000
0100
0000
0010
0000
0000
0000
1000
0000
0000
1000
0000
0000
1000
0000
,
0000
0000
0001
0000
1000
0000
0000
0000
0100
0000
0000
0100
0000
0000
0100
0000
,
0000
0000
0001
0000
0010
0000
0000
0000
0001
0000
0000
0001
0000
0000
0001
0000
,
0100
0010
0100
0000
0010
0100
0010
0000
,
1000
0001
1000
0000
0001
1000
0001
0000
,
1000
0100
0010
0000
1000
0001
0100
0020
,
0000
0000
0000
0130
,
1001
1010
1100
0110
,
1000
0100
0010
0000
0100
0010
0001
0000
,
0011
0101
1100
0101
,
0010
1000
0100
0000
0100
0001
0010
0000
,
0011
1010
0110
1001
,
0010
1000
0001
0000
0001
1000
0100
0000
,
1000
0100
0010
0100
1000
0001
0010
0000
,
0100
1000
0000
1000
0000
1000
0100
0000
,
0101
1100
0011
1010
,
0100
0010
1000
0000
0010
0001
1000
0000
,
0110
1001
0110
1001
,
1000
0001
0100
0000
1000
0010
0100
0000
,
0011
0101
1010
1100
,
0100
0010
0001
0000
1000
0001
1000
0000
,
0010
0001
0100
0001
1000
0100
0010
0000
,
0001
0010
0000
0010
0000
0010
0001
0000
,
1000
0000
0000
0001
0000
0000
0100
0000
0000
0000
0000
0010
,
0000
0000
0100
0000
0000
0001
1000
0000
0000
0000
0000
0000
;

//---------------dance-single - x scale 13----------------
#NOTES:
     dance-single:
     :
     Challenge:
     13:
     0.630451,0.592839,0.636278,0.024472,0.256958,541.000000,463.000000,78.000000,3.000000,0.000000,0.000000,0.630451,0.592839,0.636278,0.024472,0.256958,541.000000,463.000000,78.000000,3.000000,0.000000,0.000000:
// measure 0
0000
0000
0000
0000
,  // measure 1
0000
0000
0000
0000
,  // measure 2
0000
0000
0000
0000
,  // measure 3
0000
0000
0000
0000
,  // measure 4
0000
0000
0000
0000
,  // measure 5
0000
0000
0000
0000
,  // measure 6
0000
0000
0000
0000
,  // measure 7
0000
0000
0000
0000
,  // measure 8
1001
0000
0000
1100
0000
0000
0011
0000
0000
0100
0000
0010
,  // measure 9
0000
0000
0010
0000
0000
1000
0001
0000
0000
1001
0000
0000
,  // measure 10
1010
0000
0000
0101
0000
0000
0110
0000
0000
1000
0000
0001
,  // measure 11
0000
0000
0001
0000
0000
0100
0010
0000
0000
0110
0000
0000
,  // measure 12
1100
0000
0000
1010
0000
0000
1001
0000
0000
0001
0000
0010
,  // measure 13
0000
0000
0010
0000
0000
0100
1000
0000
0000
1100
0000
0000
,  // measure 14
0011
0000
0000
0101
0000
0000
1001
0000
0000
0000
0000
1000
,  // measure 15
0000
0000
0001
0000
0000
0100
0010
0000
0000
0011
0000
0000
,  // measure 16
1100
0000
0000
0101
0000
0000
1100
0000
0000
0000
0000
0110
,  // measure 17
0000
0000
1001
0000
0000
0100
0010
0000
0000
0000
0000
0000
,  // measure 18
0101
0000
0000
1100
0000
0000
0101
0000
0000
0000
0000
1001
,  // measure 19
0000
0000
0110
0000
0000
1000
0001
0000
0100
0010
0000
0000
,  // measure 20
2100
0000
0000
3001
0000
0000
0101
0000
1000
0000
0000
1001
,  // measure 21
0000
0000
1010
0000
0000
1000
0100
0000
0010
0001
0000
0000
,  // measure 22
0110
0000
0000
0101
0000
0000
0001
0000
0100
0010
0000
1000
,  // measure 23
0000
0000
0000
1010
0000
0000
0011
0000
0000
0100
0000
0001
,  // measure 24
2000
0000
0000
3001
0000
0000
0200
0000
0310
0000
0000
0011
,  // measure 25
0000
0000
1100
0000
0000
1000
0001
0000
0100
0010
0000
0000
,  // measure 26
0110
0000
0000
0011
0000
0000
1001
0000
0000
0100
0000
0010
,  // measure 27
0000
0000
1000
0001
0000
0001
0100
0000
0010
0100
0000
0000
,  // measure 28
1000
0100
0010
0001
0010
0100
1000
0000
,  // measure 29
0001
0010
0100
1000
0100
0010
0001
0000
,  // measure 30
0100
0010
1000
0001
1000
0010
0100
0000
,  // measure 31
0010
0100
0001
1000
0001
0100
0010
0000
,  // measure 32
0100
0001
0100
0010
0100
1000
0100
0000
,  // measure 33
0010
1000
0010
0100
0010
0001
0010
0000
,  // measure 34
1000
0100
1000
0001
0100
0001
0010
0110
,  // measure 35
0000
1001
0000
0110
0000
0100
0010
0000
,  // measure 36
0010
0100
0010
0100
1000
0100
0010
0000
,  // measure 37
0001
0010
0011
0000
0100
1000
1001
0000
,  // measure 38
0100
0001
0100
0001
0010
1000
0010
0000
,  // measure 39
0100
1000
1010
0000
0010
0001
0011
0000
,  // measure 40
0100
0010
0100
1000
0001
1000
0001
0000
,  // measure 41
0010
1000
0100
0000
0010
0001
0100
0000
,  // measure 42
0001
0100
0010
1000
0100
0010
0001
0000
,  // measure 43
1001
0000
0001
0000
0000
0000
1001
0000
0000
0000
0100
0010
0100
0000
0000
0000
,  // measure 44
0010
0001
1000
0010
1000
0100
0001
0000
,  // measure 45
0010
0100
0101
0000
0001
1000
1100
0000
,  // measure 46
1000
0100
0001
0100
1000
0001
1000
0000
,  // measure 47
0001
1000
0101
0000
0010
0100
1001
0000
,  // measure 48
0010
1000
0100
0001
1000
0010
0100
0000
,  // measure 49
0001
0010
0001
0000
1000
0100
1000
0000
,  // measure 50
0010
0001
0010
1000
0010
0100
1000
0000
,  // measure 51
0011
0000
0100
0000
0000
0000
0011
0000
0000
0000
0001
1000
0001
0000
0000
0000
,  // measure 52
1000
0100
0010
0001
0010
0100
1000
0000
,  // measure 53
0001
0010
0100
1000
0100
0010
0001
0000
,  // measure 54
1000
0000
0010
0000
0010
0100
0000
0000
0001
0000
0000
0001
0000
0000
0001
0000
,  // measure 55
0000
0000
0001
0000
0001
1000
0000
0000
0100
0000
0000
0100
0000
0000
0100
0000
,  // measure 56
0000
0000
0100
0000
0100
1000
0000
0000
0010
0000
0000
0010
0000
0000
0010
0000
,  // measure 57
0000
0000
1000
0000
1000
0001
0000
0000
1000
0000
0000
1000
0000
0000
1000
0000
,  // measure 58
0000
0000
0010
0000
0010
0001
0000
0000
0100
0000
0000
0100
0000
0000
0100
0000
,  // measure 59
0000
0000
0010
0000
0010
1000
0000
0000
0001
0000
0000
0001
0000
0000
0001
0000
,  // measure 60
0010
0000
0001
0000
0001
1000
0000
0000
0100
0000
0000
0100
0000
0000
0100
0000
,  // measure 61
0000
0000
0100
0000
0100
0010
0000
0000
1000
0000
0000
1000
0000
0000
1000
0000
,  // measure 62
0000
0000
0001
0000
0001
0010
0000
0000
0001
0000
0000
0001
0000
0000
0001
0000
,  // measure 63
0000
0000
1000
0000
1000
0001
0000
0000
0010
0000
0000
0010
0000
0000
0010
0000
,  // measure 64
1000
0100
0001
1000
0100
0010
0001
0000
,  // measure 65
0001
0010
1000
0001
0100
0010
1000
0000
,  // measure 66
0001
0010
0001
1000
0010
1000
0100
1100
,  // measure 67
0000
0101
0000
1001
0000
0101
0000
0100
,  // measure 68
0010
1000
0010
0001
1000
0100
0010
0000
,  // measure 69
0010
1000
0011
0000
0001
0100
1010
0000
,  // measure 70
0010
0001
0100
1000
0100
0010
0001
0000
,  // measure 71
1000
0100
0110
0000
0001
0010
0101
0000
,  // measure 72
1000
0001
0100
0001
0010
1000
0001
0000
,  // measure 73
1000
0001
1010
0000
0100
0010
0110
0000
,  // measure 74
0010
0001
0100
0001
0010
0100
1000
0000
,  // measure 75
0110
0000
0100
0000
0000
0000
0110
0000
0000
0000
1000
0100
1000
0000
0000
0000
,  // measure 76
0010
0001
0100
0010
0001
1000
0100
0000
,  // measure 77
0100
0010
1100
0000
0001
1000
1010
0000
,  // measure 78
0010
0100
1000
0100
1000
0001
0010
0000
,  // measure 79
0100
1000
1010
0000
0001
0010
1100
0000
,  // measure 80
0100
0010
0100
0010
1000
0001
1000
0000
,  // measure 81
0010
0001
0110
0000
0100
1000
0011
0000
,  // measure 82
1000
0100
0001
0010
1000
0001
0100
0000
,  // measure 83
0101
0000
1000
0000
0000
0000
0100
0000
0000
0000
0010
0001
0010
0000
0000
0000
,  // measure 84
1010
0000
0000
0011
0000
0000
1010
0000
0000
0000
0000
0110
,  // measure 85
0000
0000
1001
0000
0000
1000
0001
0000
0000
0000
0000
0000
;

//---------------dance-single - ----------------
#NOTES:
     dance-single:
     :
     Medium:
     9:
     0.417193,0.488221,0.236565,0.978889,0.057102,358.000000,329.000000,29.000000,120.000000,0.000000,0.000000,0.417193,0.488221,0.236565,0.978889,0.057102,358.000000,329.000000,29.000000,120.000000,0.000000,0.000000:
0000
0000
0000
0000
,
0000
0000
0000
0000
,
0000
0000
0000
0000
,
0000
0000
0000
0000
,
0000
0000
0000
0000
,
0000
0000
0000
0000
,
0000
0000
0000
0000
,
0000
0000
0000
0000
,
0002
0023
0230
2300
,
0000
3020
0000
0230
,
0320
2030
3002
0203
,
0000
0000
0000
0000
0000
0000
0301
0000
0100
0000
0000
0010
,
2000
3002
0203
0320
,
0000
2030
0000
3002
,
0203
0000
0000
0302
0000
0000
2003
0000
0000
0000
0000
3020
,
0000
0000
2030
0000
0000
3200
0000
0000
0000
0320
0000
0000
,
0032
0000
0000
1000
0000
0000
1003
0000
0000
0000
0000
0010
,
0000
0000
0100
0000
0000
0010
0100
0000
0000
0000
0000
0000
,
0001
0000
0000
1000
0000
0000
0100
0000
0000
0000
0000
1000
,
0000
0000
0001
0000
0000
0100
0010
0000
0000
0000
0000
0000
,
2000
0100
0002
3003
,
0100
0010
1000
0001
,
1000
0020
1000
0230
,
0300
0100
0001
1000
,
0002
1000
0200
0303
,
0010
2000
3020
0130
,
0001
0010
1000
0000
,
0010
0000
0100
0000
0001
1000
0000
0000
,
1001
0000
0100
0000
0010
1000
0010
0000
,
1000
0000
0001
0000
0100
0010
0100
0000
,
0001
0000
0010
0000
0100
1000
0100
0000
,
1000
0000
0001
0000
0010
0001
0010
0000
,
0001
0000
0100
0000
0010
0100
0001
0000
,
1000
0000
0100
0000
0001
0100
1000
0000
,
0010
0000
0100
0000
0001
0010
0100
2000
,
0000
0000
3000
1002
,
0203
0320
2030
3002
,
0013
0021
0130
0201
,
0302
0023
0230
2300
,
3010
0000
1100
0000
0001
1000
0100
0000
,
2000
3002
0023
0230
,
1300
1002
0013
0021
,
0032
0203
0320
2030
,
3200
2000
0300
0010
3000
0000
0110
0000
,
2000
3002
0203
0320
,
0130
0110
0100
0110
,
2000
3020
0230
0302
,
0013
0000
1100
0000
0001
1000
0100
0000
,
2000
3020
0230
0302
,
1003
0101
1000
0012
,
0203
0000
0320
0000
2030
0000
0001
3002
,
0000
2003
0000
3020
0000
0100
0230
0000
,
0301
0010
0100
1000
,
0010
0100
0001
1000
,
0010
1000
0100
0000
0001
0000
1001
0000
,
0001
0100
1000
0000
0010
0000
0101
0000
,
0010
0100
1000
0000
0100
0000
0011
0000
,
1000
0001
0100
0000
0010
0000
1001
0000
,
1000
0001
0100
0000
0010
0000
1100
0000
,
1000
0100
0010
0000
0001
0000
1001
0000
,
0010
1000
0001
0000
0100
0000
0011
0000
,
0001
0010
0100
0000
1000
0000
0110
0000
,
1000
0010
0001
0000
0100
0000
1010
0000
,
0100
0010
1000
0000
0001
0000
1100
0000
,
0010
0100
1000
0000
0010
0100
0001
0000
,
1000
0001
0100
0000
0001
0010
1000
0000
,
0010
0100
0010
0000
1000
0001
1000
0000
,
0002
0023
0230
2300
,
3020
2030
3002
0203
,
0310
0000
1001
0000
1000
0100
0001
0000
,
2000
3200
0320
0032
,
1003
0000
0101
0000
0010
0100
0001
0000
,
0200
0320
2030
3002
,
0103
0000
1010
0000
0001
0010
1000
0000
,
2000
3002
2003
3002
,
0203
0320
0000
0230
0000
0000
0320
0000
,
2030
3020
0032
0203
,
1300
0000
0011
0000
0100
0001
0010
0000
,
0002
2003
3200
0320
,
0031
0000
1010
0000
1000
0010
0100
0000
,
0020
0230
0302
2003
,
3001
0000
0110
0000
1000
0010
0100
0000
,
0002
0203
0302
2003
,
3020
0230
0000
0320
0000
0000
2030
0000
,
3001
0000
0000
0001
0000
0000
0001
0000
0000
0000
0000
1000
,
0000
0000
0100
0000
0000
1000
0100
0000
0000
0000
0000
0000
;

//---------------dance-single - ----------------
#NOTES:
     dance-single:
     :
     Easy:
     6:
     0.326296,0.383602,0.252880,0.016315,0.000000,280.000000,249.000000,31.000000,2.000000,0.000000,0.000000,0.326296,0.383602,0.252880,0.016315,0.000000,280.000000,249.000000,31.000000,2.000000,0.000000,0.000000:
0000
0000
0000
0000
,
0000
0000
0000
0000
,
0000
0000
0000
0000
,
0000
0000
0000
0000
,
0000
0000
0000
0000
,
0000
0000
0000
0000
,
0000
0000
0000
0000
,
0000
0000
0000
0000
,
0100
1000
0100
1000
,
0000
0001
0000
0001
,
0100
0010
0100
0010
,
0000
0000
1000
0000
,
0001
0010
0001
0010
,
0000
0100
0000
0100
,
1000
0001
1000
0000
,
0010
0100
0010
0000
,
1000
1000
1000
0000
,
0001
0001
0001
0000
,
0100
0100
0100
0000
,
0010
0010
0010
0000
,
1000
0100
0001
0000
,
0100
0010
1000
0000
,
0001
1000
0010
0000
,
0010
0100
0001
0000
,
1000
0100
0001
0000
,
0010
0100
1000
0000
,
0100
0001
0010
0000
,
0010
0001
1000
0000
,
1001
0100
1001
0000
,
0010
1000
0100
0010
,
0001
1100
1000
0101
,
0000
0010
0010
0010
,
0110
1000
0110
0000
,
0001
0100
1000
0001
,
0010
0100
0010
1000
,
2002
0000
0000
3003
,
0010
0100
0001
1000
,
0000
1100
0000
0101
,
0001
0010
0100
1000
,
0000
1100
0000
0101
,
1000
0100
0010
0001
,
0000
0011
0000
1010
,
1000
1000
0001
0001
,
0100
0010
0100
0010
,
1000
0010
0100
0001
,
0000
0110
0000
1001
,
0100
0010
1000
0001
,
0000
1001
0000
0110
,
0010
1000
0100
0001
,
0000
0011
0000
1010
,
0010
0010
0100
0100
,
0001
1000
0001
1000
,
0001
0001
1000
1000
,
0010
0000
1000
0100
,
1000
0001
0100
0100
,
0000
0010
1000
0010
,
0001
0010
0100
1000
,
0000
0100
1000
0100
,
0010
1000
0001
0100
,
0000
0001
0010
0001
,
0100
0010
1000
0001
,
0000
0001
0100
0001
,
0010
0100
1000
0001
,
0000
0100
0010
0100
,
0001
0001
0001
0000
,
1000
1000
1000
0000
,
0010
0010
0010
0000
,
0100
0100
0100
0000
,
0001
1000
0100
0010
,
0000
0011
0000
1100
,
1000
0010
0001
0100
,
0000
0110
0000
1001
,
1000
0100
0001
0010
,
0000
0101
0000
1010
,
1000
1000
0100
0100
,
0010
0001
0010
0001
,
0010
0100
0001
1000
,
0000
1100
0000
1001
,
0010
0100
1000
0001
,
0000
0101
0000
1010
,
0100
0010
0001
1000
,
0000
0110
0000
0011
,
0001
0001
0100
0100
,
0010
1000
0010
1000
,
0010
0010
0010
0000
,
0100
0100
0100
0000
;

//---------------dance-single - ----------------
#NOTES:
     dance-single:
     :
     Beginner:
     2:
     0.170140,0.209237,0.008157,0.032630,0.000000,146.000000,145.000000,1.000000,4.000000,0.000000,0.000000,0.170140,0.209237,0.008157,0.032630,0.000000,146.000000,145.000000,1.000000,4.000000,0.000000,0.000000:
0000
0000
0000
0000
,
0000
0000
0000
0000
,
0000
0000
0000
0000
,
0000
0000
0000
0000
,
0000
0000
0000
0000
,
0000
0000
0000
0000
,
0000
0000
0000
0000
,
0000
0000
0000
0000
,
1000
1000
1000
1000
,
0000
0000
0000
0000
,
0001
0001
0001
0001
,
0000
0000
0000
0000
,
0100
0100
0100
0100
,
0000
0000
0000
0000
,
0010
0000
0010
0000
,
0010
0000
0010
0000
,
1000
0000
0001
0000
,
0100
0000
0000
0000
,
0001
0000
1000
0000
,
0010
0000
0000
0000
,
1000
0000
1000
0000
,
1000
0000
0000
0000
,
0100
0000
0100
0000
,
0100
0000
0000
0000
,
0010
0000
0010
0000
,
0010
0000
0000
0000
,
0001
0000
0001
0000
,
0001
0000
0000
0000
,
0010
0000
0010
0000
,
0100
0000
0100
0000
,
0001
0000
0001
0000
,
1000
0000
1000
0000
,
0010
0000
0100
0000
,
0001
0000
1000
0000
,
0100
0000
0010
0000
,
1001
0000
0000
0000
,
0001
0001
0001
0001
,
0000
0000
0000
0000
,
0010
0010
0010
0010
,
0000
0000
0000
0000
,
0100
0100
0100
0100
,
0000
0000
0000
0000
,
1000
0000
1000
0000
,
1000
0000
1000
0000
,
0100
0100
0100
0100
,
0000
0000
0000
0000
,
0010
0010
0010
0010
,
0000
0000
0000
0000
,
1000
1000
1000
1000
,
0000
0000
0000
0000
,
0001
0000
0001
0000
,
0001
0000
0001
0000
,
0010
0000
0100
0000
,
0001
0000
1000
0000
,
0001
0000
0001
0000
,
0010
0000
0010
0000
,
0100
0000
0100
0000
,
1000
0000
1000
0000
,
0100
0000
1000
0000
,
0010
0000
0001
0000
,
0010
0000
0010
0000
,
0001
0000
0001
0000
,
1000
0000
1000
0000
,
0100
0000
0100
0000
,
2000
0000
3000
0000
,
0002
0000
0003
0000
,
0200
0000
0300
0000
,
0020
0000
0030
0000
,
0010
0010
0010
0010
,
0000
0000
0000
0000
,
1000
1000
1000
1000
,
0000
0000
0000
0000
,
0100
0100
0100
0100
,
0000
0000
0000
0000
,
0001
0000
0001
0000
,
0001
0000
0001
0000
,
1000
1000
1000
1000
,
0000
0000
0000
0000
,
0100
0100
0100
0100
,
0000
0000
0000
0000
,
0010
0010
0010
0010
,
0000
0000
0000
0000
,
0001
0000
0001
0000
,
0001
0000
0001
0000
,
0100
0000
0010
0000
,
1000
0000
0001
0000
;
