#VERSION:0.83;
#TITLE:Without Me;
#SUBTITLE:;
#ARTIST:Eminem;
#TITLETRANSLIT:;
#SUBTITLETRANSLIT:;
#ARTISTTRANSLIT:;
#GENRE:;
#ORIGIN:;
#TAGS:;
#CREDIT:;
#BANNER:Without Me-bn.png;
#BACKGROUND:Without Me-bg.png;
#PREVIEWVID:;
#JACKET:Without Me-jacket.png;
#CDIMAGE:;
#DISCIMAGE:;
#LYRICSPATH:;
#CDTITLE:;
#MUSIC:Without Me.ogg;
#OFFSET:1.000000;
#SAMPLESTART:90.710999;
#SAMPLELENGTH:20.000000;
#SELECTABLE:YES;
#DISPLAYBPM:111.000000:113.000000;
#BPMS:0.000000=112.099998,
44.000000=113.000000,
52.000000=112.199997,
60.000000=112.000000,
76.000000=112.699997,
84.000000=112.000000,
88.000000=111.000000,
92.000000=112.260002,
100.000000=112.500000,
108.000000=112.099998,
140.000000=113.000000,
148.000000=112.300003,
164.000000=111.750000,
172.000000=112.400002,
176.000000=112.500000,
188.000000=112.333336,
192.000000=112.760002,
204.000000=112.449997,
212.000000=112.000000,
228.000000=112.250000;
#STOPS:;
#DELAYS:;
#WARPS:;
#TIMESIGNATURES:0.000000=4=4;
#TICKCOUNTS:0.000000=4;
#COMBOS:0.000000=1;
#SPEEDS:0.000000=1.000000=0.000000=0;
#SCROLLS:0.000000=1.000000;
#FAKES:;
#LABELS:0.000000=Song Start;
#BGCHANGES:;
#KEYSOUNDS:;
#ATTACKS:
;

//---------------dance-single - ----------------
#NOTEDATA:;
#CHARTNAME:;
#CHARTHASH:0:
#STEPSTYPE:dance-single;
#BANNER:;
#DESCRIPTION:;
#CHARTSTYLE:;
#DIFFICULTY:Beginner;
#METER:3;
#METERF:0.000000;
#RADARVALUES:0.135760,0.176595,0.074828,0.000000,0.000000,127.000000,117.000000,10.000000,0.000000,0.000000,0.000000,0.000000,0.000000,0.000000,0.135760,0.176595,0.074828,0.000000,0.000000,127.000000,117.000000,10.000000,0.000000,0.000000,0.000000,0.000000,0.000000,0.000000;
#CREDIT:;
#DISPLAYBPM:111.000000:113.000000;
#NOTES:
0000
0000
0000
0000
,
0000
0000
0000
0000
,
0000
0000
0000
0000
,
0010
0010
0010
0000
,
1000
0000
0001
0000
,
1000
0000
0010
0000
,
0100
0000
0001
0000
,
0100
0100
0100
0000
,
0001
0000
1000
0000
,
0010
0000
0100
0000
,
0001
0000
1000
0000
,
0000
1001
0000
0000
,
0000
0110
0000
0000
,
0000
1001
0000
0000
,
0000
0110
0000
0000
,
0000
1000
0000
0001
,
0000
1000
0000
0001
,
0000
0100
0000
0010
,
0000
0100
0000
0010
,
0000
1000
0000
1000
,
0000
0010
0000
0010
,
0000
0100
0000
0001
,
0000
0000
0000
0000
,
0010
0000
1000
0000
,
0100
0000
1000
0000
,
0000
0001
0001
0000
,
0000
0100
0100
0000
,
0110
0000
0010
0000
,
1000
0000
0100
0000
,
1001
0000
0001
0000
,
0100
0000
1000
0000
,
0000
0010
0000
0010
,
0000
1000
0000
0001
,
0000
0010
0010
0000
,
0001
0001
0001
0000
,
1000
1000
1000
0000
,
0001
0001
0001
0000
,
0100
0100
0100
0000
,
0010
0010
0010
0000
,
0000
1000
1000
0000
,
0001
0000
0010
0000
,
0001
0000
0100
0000
,
0110
0000
1001
0000
,
0010
0010
0010
0000
,
1000
0000
0001
0000
,
1000
0000
0001
0000
,
0100
0100
0100
0000
,
0001
0001
0001
0000
,
0100
0000
0010
0000
,
0100
0000
0010
0000
,
1000
1000
1000
0000
,
0110
0000
0000
0001
,
0001
0000
0000
1000
,
1000
0000
0000
0010
,
0010
0000
0000
0100
,
0100
0000
0000
0010
,
0010
0000
0000
1000
,
1000
0000
0000
0001
,
0001
0000
0000
0000
,
1001
0000
0000
0000
;

//---------------dance-single - ----------------
#NOTEDATA:;
#CHARTNAME:;
#CHARTHASH:0:
#STEPSTYPE:dance-single;
#BANNER:;
#DESCRIPTION:;
#CHARTSTYLE:;
#DIFFICULTY:Easy;
#METER:7;
#METERF:0.000000;
#RADARVALUES:0.260831,0.312970,0.059863,0.074828,0.000000,244.000000,236.000000,8.000000,10.000000,0.000000,0.000000,0.000000,0.000000,0.000000,0.260831,0.312970,0.059863,0.074828,0.000000,244.000000,236.000000,8.000000,10.000000,0.000000,0.000000,0.000000,0.000000,0.000000;
#CREDIT:;
#DISPLAYBPM:111.000000:113.000000;
#NOTES:
0000
0000
0000
0000
,
0000
0000
0000
0000
,
0000
0000
0000
0000
,
0010
1000
0001
0100
,
0001
0010
0100
1000
,
0010
1000
0100
0001
,
0010
0100
1000
0001
,
1000
0010
0100
0001
,
0010
0100
0010
0001
,
1000
0010
1000
0001
,
0010
0100
1000
0001
,
0000
1000
0100
1000
0000
0000
0000
0000
,
0000
0001
0100
0001
0000
0000
0000
0000
,
0000
1000
0010
1000
0000
0000
0000
0000
,
0000
0001
0010
0001
0000
0000
0000
0000
,
0000
0010
0000
0010
0000
1000
0000
1000
,
0000
0001
0000
0001
0000
0100
0000
0100
,
0000
0001
0000
0001
0000
0010
0000
0010
,
0000
0100
0000
0100
0000
1000
0001
1000
,
0000
0010
0000
0100
0000
0010
0000
0100
,
0000
0010
0000
0100
0000
0001
1000
0001
,
0000
0100
0000
0010
0000
0100
0000
0010
,
0220
0000
0000
0330
,
1001
0100
0010
1000
,
0100
0001
0010
1000
,
0000
0001
1000
0000
0010
0000
0100
0000
,
0000
0001
0010
0000
0100
0000
1000
0000
,
1100
0000
0001
0000
0100
0000
0010
1000
,
0010
0000
1000
0000
0100
0000
0010
0001
,
0010
0001
0100
1000
,
0010
1000
0010
0000
0001
0100
0001
0000
,
0000
0001
0101
0000
1000
0000
0100
0000
,
1000
0010
1000
0000
0100
0000
0010
0000
,
0000
0001
0001
0000
0100
0010
1000
0000
,
0001
0000
1000
0000
0100
0010
0001
0000
,
1000
1000
1000
0000
0010
0000
0100
0000
,
0001
0001
0001
0000
1000
0000
0010
0000
,
0100
0100
0100
0000
0010
0000
1000
0000
,
0001
0000
0010
0000
0001
1000
0100
0000
,
0000
1000
1000
0000
0001
0001
0000
0100
,
0100
0010
1000
0000
0001
0100
0010
0000
,
0110
0000
0010
0000
1000
0001
0100
0000
,
0001
0010
0001
0000
1001
0100
0010
0000
,
1000
0001
2000
0000
0010
0000
3100
0000
,
0001
2000
0000
0000
0100
0000
3010
0000
,
1000
0002
0000
0000
0010
0000
0103
0000
,
0001
0000
0010
0000
1000
0100
0010
0000
,
0001
0100
0002
0000
0010
0000
1003
0000
,
0010
0200
0000
0000
1000
0000
0301
0000
,
0100
0020
0000
0000
0001
0000
1030
0000
,
0010
1000
0100
0000
0010
0001
0100
0000
,
0001
1000
0000
0000
0000
0000
0100
0000
,
1000
0010
0000
0000
0000
0000
1000
0000
,
0001
0010
0000
0000
0000
0000
0010
0100
,
1000
0000
0000
0000
0000
0000
0001
1000
,
0001
1000
0000
0000
0000
0000
0010
0000
,
1000
0100
0000
0000
0000
0000
1000
0000
,
0001
0100
0000
0000
0000
0000
0001
0010
,
0100
0000
0000
0000
0000
0110
0000
0000
,
1000
2002
0000
0000
0000
0000
3003
0000
;

//---------------dance-single - ----------------
#NOTEDATA:;
#CHARTNAME:;
#CHARTHASH:0:
#STEPSTYPE:dance-single;
#BANNER:;
#DESCRIPTION:;
#CHARTSTYLE:;
#DIFFICULTY:Medium;
#METER:10;
#METERF:0.000000;
#RADARVALUES:0.390177,0.402390,0.179588,0.037414,0.000000,365.000000,341.000000,24.000000,5.000000,0.000000,0.000000,0.000000,0.000000,0.000000,0.390177,0.402390,0.179588,0.037414,0.000000,365.000000,341.000000,24.000000,5.000000,0.000000,0.000000,0.000000,0.000000,0.000000;
#CREDIT:;
#DISPLAYBPM:111.000000:113.000000;
#NOTES:
0000
0000
0000
0000
,
0000
0000
0000
0000
,
0000
0000
0000
0000
0000
0000
0000
0010
,
1000
0100
0010
0001
0100
0010
1000
0000
,
0001
0100
0001
0000
1000
0100
1000
0000
,
0000
0010
1000
0000
1000
0100
0000
0100
,
0001
0000
0001
0010
0000
0000
0000
0010
,
0001
1000
0001
0100
0010
1000
0001
0000
,
1000
0010
1000
0000
0001
0010
0001
0000
,
0000
1000
0100
0000
0100
0001
0000
0001
,
0010
0000
0010
1000
0020
0000
0230
0000
,
0301
1000
0001
1000
0000
0010
0000
0100
,
0000
0001
0010
0001
0000
0100
0000
1000
,
0000
0010
0100
0010
0000
1000
0000
0001
,
0000
0010
0001
1000
0000
0010
0000
0100
,
0000
0001
0010
0001
0000
1000
0010
1000
,
0000
0001
0100
0001
0000
1000
0100
1000
,
0000
0010
0100
0010
0000
1000
0001
1000
,
0000
0100
0010
0001
0000
1000
0010
0100
,
0000
0101
0000
1100
0000
0101
0000
1100
,
0000
0101
0000
1100
0000
0001
1000
0100
,
0000
1010
0000
0011
0000
1010
0000
0011
,
2002
0000
0000
0000
3003
1000
0001
1000
,
0010
0100
0001
0000
0010
0100
1000
0000
,
0001
0100
0010
0000
1000
0001
0100
0010
,
0000
0110
0001
1000
0100
0010
0001
0100
,
0000
0110
0010
1000
0001
1000
0100
0010
,
0001
0100
0010
0000
1000
0100
0001
0000
,
0010
0100
1000
0000
0010
0100
0001
1000
,
0100
0010
0001
1000
0010
0100
0001
0000
,
0010
0001
0100
0001
1000
0010
0100
1001
,
0000
0001
0101
0000
1000
0010
0100
0001
,
0010
0100
1000
0000
0010
1000
0001
0100
,
0000
1010
0001
0100
0010
1000
0001
0000
,
0010
0001
0100
0010
1000
0100
0001
0000
,
1000
1000
1000
0010
0100
0001
0100
0000
,
0001
0001
0001
0010
0100
1000
0010
0000
,
0100
0100
0100
0010
1000
0001
1000
0010
,
1000
0100
0010
0001
0100
0010
1000
0001
,
0000
0011
1000
0000
1100
0001
0000
0101
,
0101
1000
0010
0000
0100
0001
0010
0100
,
1100
0000
1000
0001
0010
0100
1000
0000
,
0001
0100
0010
1000
1001
0100
0001
0000
,
0010
0001
0010
0001
1000
0100
0010
0000
,
0001
1000
0000
1000
0010
1000
0100
0000
,
0010
0001
0000
0001
0100
0010
1000
0000
,
0001
0010
0001
1000
0010
0100
0001
0000
,
1000
0100
1000
0100
0010
0001
0100
0000
,
0010
1000
0000
1000
0001
0010
0100
0000
,
0010
0001
0000
1000
0010
1000
0001
0000
,
0010
0100
1000
0001
0100
0010
1000
0001
,
1000
0010
0000
0000
0000
0010
0100
0001
,
0100
0010
0000
0000
0000
1000
0001
0010
,
0001
1000
0000
0000
0000
0100
0010
0001
,
0101
0000
1000
0000
0001
0100
0010
1000
,
0100
0010
0000
0000
0000
0001
0100
0010
,
0100
0001
0000
0000
0000
1000
0001
0010
,
0001
0100
0000
0000
0000
0100
0010
1000
,
0001
0000
1000
0000
0010
0110
0001
1000
,
0010
0200
0000
0000
0000
0000
0300
0000
;

//---------------dance-single - ----------------
#NOTEDATA:;
#CHARTNAME:;
#CHARTHASH:0:
#STEPSTYPE:dance-single;
#BANNER:;
#DESCRIPTION:;
#CHARTSTYLE:;
#DIFFICULTY:Hard;
#METER:13;
#METERF:0.000000;
#RADARVALUES:0.528075,0.553029,0.284348,0.179588,0.273124,494.000000,456.000000,38.000000,24.000000,0.000000,0.000000,0.000000,0.000000,0.000000,0.528075,0.553029,0.284348,0.179588,0.273124,494.000000,456.000000,38.000000,24.000000,0.000000,0.000000,0.000000,0.000000,0.000000;
#CREDIT:;
#DISPLAYBPM:111.000000:113.000000;
#NOTES:
// measure 0
0000
0000
0000
0000
,  // measure 1
0000
0000
0000
0000
,  // measure 2
0000
0000
0000
0000
0000
0000
0000
0010
,  // measure 3
0001
1000
0001
0000
0100
0000
0010
0000
1000
0000
0100
0000
1001
0000
0000
0000
,  // measure 4
0001
0100
0001
0000
0101
0000
0000
0000
1000
0100
1000
0000
1100
0000
0000
0000
,  // measure 5
0002
0100
0103
0020
1000
1030
0200
0010
,  // measure 6
0310
0002
1000
1003
0010
0100
0001
1000
,  // measure 7
0010
0100
0010
0000
1000
0000
0100
0000
0010
0000
0001
0000
0110
0000
0000
0000
,  // measure 8
0001
0010
0001
0000
0011
0000
0000
0000
1000
0010
1000
0000
1010
0000
0000
0000
,  // measure 9
0200
1000
1300
0002
0010
0013
2000
0001
,  // measure 10
3001
0020
0100
0130
0002
0023
0230
2300
,  // measure 11
3010
0100
0001
0001
0000
0010
1000
0100
,  // measure 12
0000
0001
1000
1000
0000
0100
0001
0010
,  // measure 13
0000
1000
0010
0010
0000
0001
1000
0100
,  // measure 14
0000
0001
0100
0100
0000
1000
0001
1000
,  // measure 15
0200
0010
0010
0310
0002
1000
1000
1003
,  // measure 16
0200
1000
1000
1300
0020
0100
0100
0130
,  // measure 17
0002
0010
0010
0013
2000
0100
0100
3100
,  // measure 18
0010
1000
0001
1000
0000
0010
0010
0010
,  // measure 19
1000
0100
0010
0001
0000
0100
0010
1000
,  // measure 20
0000
0100
0010
0001
0000
1000
1000
1000
,  // measure 21
0001
0010
0100
1000
0000
0010
0100
0001
,  // measure 22
2002
0000
0000
0000
3003
0010
0100
0001
,  // measure 23
1001
0000
0010
0000
0100
0000
0001
0000
1000
0000
0010
0100
0000
0001
1000
0000
,  // measure 24
0100
0000
0010
0000
0001
0000
0100
0000
0010
0000
1000
0100
0000
1000
0001
0000
,  // measure 25
0000
0001
0010
0001
0010
0000
0100
0000
1000
0000
0010
1000
0000
1000
0100
0000
,  // measure 26
0000
0000
1000
0010
1000
0010
1000
0000
0100
0000
0010
0001
0000
0001
1000
0000
,  // measure 27
0110
0000
0110
0000
0001
0000
0100
0010
0000
0010
1000
0000
0001
0000
0100
0000
,  // measure 28
1010
0000
1000
0000
0100
0010
0000
0010
0000
0001
1000
0000
0010
0100
0010
0000
,  // measure 29
0101
0000
0001
0000
0010
0000
0100
0000
1000
0000
0010
0100
0000
0001
1000
0000
,  // measure 30
1100
0000
0010
0000
0001
1000
0001
1000
0001
0000
0010
0100
0000
2200
0000
0000
,  // measure 31
3300
0000
0001
1000
0001
1000
0000
0010
0100
0000
0001
0000
0010
0000
0100
1000
,  // measure 32
0100
0000
0010
0000
0001
0000
0100
0000
0001
0000
1000
0010
0000
0010
1000
0000
,  // measure 33
0000
0000
0101
0000
1010
0000
0001
0010
0001
0000
0100
0010
0000
1000
0100
0000
,  // measure 34
0010
0000
0001
0000
0100
0000
0010
0000
1000
0000
0100
1000
0000
1000
0001
0000
,  // measure 35
0011
0000
0011
0000
0011
0000
0100
0000
1000
0000
0001
0100
0000
0001
0100
0000
,  // measure 36
0110
0000
0110
0000
0110
0000
0001
0000
1000
0000
0010
0100
0000
0000
0000
0010
,  // measure 37
1000
0001
1000
0001
0100
0000
0010
0000
1000
0000
0001
0000
0100
0000
0010
0000
,  // measure 38
1000
0000
0100
0000
1001
0000
0100
0000
0001
0010
0000
0002
0000
0000
0103
0000
,  // measure 39
0000
0000
0010
1000
0010
1000
0000
0000
0001
0100
0001
0100
0000
0000
0010
0000
,  // measure 40
1010
0000
0001
0010
0001
0010
0000
0000
0100
1000
0100
1000
0000
0000
1100
0000
,  // measure 41
0001
1000
0000
0000
0010
0000
1000
0000
0100
0000
0010
0001
0000
1000
0001
0000
,  // measure 42
0010
0001
0010
0001
0100
0000
0100
0000
0210
0000
0001
0000
0301
0000
1000
0000
,  // measure 43
0010
0010
0010
0100
0001
0010
0100
1000
,  // measure 44
0010
0100
0010
0100
0000
0000
0001
0000
0010
0000
0001
0000
1000
0000
0100
0000
,  // measure 45
1000
0010
1000
0010
0000
0000
0100
0000
0001
0000
0010
0000
0100
0000
1000
0001
,  // measure 46
1000
0000
0010
0000
0101
0000
1000
0000
0010
0100
0000
0001
0000
0000
1000
0000
,  // measure 47
0100
0100
0100
0010
0001
1000
0001
0100
,  // measure 48
0010
1000
0010
1000
0000
0000
0100
0000
0010
0000
0001
0000
0100
0000
0001
0000
,  // measure 49
1000
0100
1000
0100
0000
0000
0010
0000
0001
0000
1000
0000
0001
0000
0100
0000
,  // measure 50
0010
0100
1010
0001
1000
0100
0010
0001
,  // measure 51
1001
0100
0010
0000
0010
1000
0100
0001
,  // measure 52
0011
0010
0100
0000
0100
1000
0001
0010
,  // measure 53
0110
1000
0001
0000
0001
0100
0010
1000
,  // measure 54
1100
0000
0001
0000
1000
0010
1000
0100
,  // measure 55
1010
0001
0010
0000
0010
0001
0100
1000
,  // measure 56
0101
0010
1000
0000
1000
0001
0010
0100
,  // measure 57
1001
0010
0100
0000
0100
0001
1000
0010
,  // measure 58
1100
0000
0001
0000
0001
0110
1000
0001
,  // measure 59
1001
0010
0000
0000
0000
0000
0000
0000
;

//---------------dance-single - ----------------
#NOTEDATA:;
#CHARTNAME:;
#CHARTHASH:0:
#STEPSTYPE:dance-single;
#BANNER:;
#DESCRIPTION:;
#CHARTSTYLE:;
#DIFFICULTY:Challenge;
#METER:15;
#METERF:0.000000;
#RADARVALUES:0.663835,0.648295,0.613593,0.261900,0.535023,621.000000,539.000000,82.000000,35.000000,0.000000,0.000000,0.000000,0.000000,0.000000,0.663835,0.648295,0.613593,0.261900,0.535023,621.000000,539.000000,82.000000,35.000000,0.000000,0.000000,0.000000,0.000000,0.000000;
#CREDIT:;
#DISPLAYBPM:111.000000:113.000000;
#NOTES:
0000
0000
0000
0000
,
0000
0000
0000
0000
,
0000
0000
0000
0000
0000
0000
0000
0010
,
0010
0001
1000
0000
1000
0000
0100
0010
0000
0001
0100
0000
0100
0000
0000
0000
,
0001
1000
0001
0000
0100
0000
0000
0000
1000
0001
1000
0000
0010
0000
0000
0000
,
1000
0000
1100
0000
1100
0000
0001
0000
0101
0000
0101
0000
0100
0010
0100
0010
,
1000
1001
1001
0001
0010
0100
1000
0001
,
0001
0010
0100
0000
0100
0000
1000
0010
0000
1000
0100
0000
0100
0000
0000
0000
,
1000
0010
1000
0000
0001
0000
0000
0000
0001
0010
0001
0000
0100
0000
0000
0000
,
0010
0000
1010
0000
1010
0000
0001
0000
0011
0000
0011
0000
1000
0100
1000
0100
,
0010
0110
0110
1000
0002
0203
0320
2030
,
3001
0010
0110
1100
1000
0001
1000
0010
,
0100
0001
0011
0101
1000
0010
0100
0001
,
0010
1001
1010
0100
0001
1000
0100
0010
,
0001
1000
1100
0110
0001
0100
0010
1000
,
0001
0010
0011
0011
1000
0100
1100
1100
,
1000
0010
1010
1010
0001
0100
0101
0101
,
0100
0010
1001
1001
0001
1000
0110
0110
,
0010
1000
1100
0101
0001
0200
0320
2030
,
3001
0100
0010
0100
1000
0100
0010
0100
,
1000
0100
0001
0100
0010
2000
3002
0203
,
0301
0010
1000
0010
0100
0010
0001
1001
,
0220
0000
0330
0001
1000
0200
0320
0032
,
1003
0001
1000
0010
0000
0010
0000
0000
0100
0001
0100
0001
0000
1000
0010
0100
,
0000
0010
1000
0001
0000
0001
1000
0000
0001
0010
0100
1000
0000
0010
0100
0000
,
0101
0000
1000
0010
1000
0000
0110
0000
0001
0010
0001
1000
0000
1000
0010
0000
,
0100
0001
0100
0010
1000
0100
2000
0000
3001
1000
0010
0100
0000
0100
0001
0010
,
0100
0000
1000
0001
0100
0001
1000
0010
0000
0010
0100
0000
0001
1000
0001
1000
,
0100
0000
0010
0001
1000
0010
0000
1010
0000
1000
0100
0000
0010
0001
0010
0100
,
1000
0000
0001
0100
0010
1000
0000
1000
0100
0000
0100
0010
0000
0010
0001
0000
,
0110
0000
0100
0001
0010
0001
1000
0100
0010
0000
0001
1000
0000
1000
0020
0000
,
0130
0010
0100
0001
1000
0001
0000
1000
0100
0000
0010
0001
0000
1000
0001
0100
,
0010
0000
0010
1000
0001
1000
0000
0100
0010
0000
0001
1000
0000
0001
0100
0000
,
0000
0010
2000
0000
3001
1000
0100
0010
0001
0000
0100
0010
0000
0010
1000
0001
,
1000
0000
0100
0010
0000
0001
0000
0100
0010
0000
1000
0001
0000
0010
0100
1000
,
0001
0000
1100
0000
0011
0000
1100
0000
0101
0000
1000
0010
0000
0100
0001
0000
,
1001
0000
0110
0000
1001
0000
0010
0000
1010
0000
1000
0100
0010
0000
0000
0001
,
0100
1000
0100
0001
0100
0000
0010
0000
1000
0000
0001
0010
0000
0000
0001
1000
,
0001
0000
0100
0000
0101
0000
1010
0000
1000
0001
0000
0010
0000
0100
1000
0000
,
0110
0000
0001
0100
0010
1000
0000
0000
1000
0100
0010
0001
0000
0000
1100
0000
,
0011
0000
1000
0001
0100
0010
0000
0010
0100
0001
1000
0001
0000
1000
0100
0000
,
0010
0001
0000
0001
0100
0000
1010
0000
0001
1000
0100
1000
0000
0010
0100
0000
,
0001
0010
0100
1000
0010
0000
0101
0000
1100
0000
0001
1000
0000
0010
0100
0000
,
0001
0000
0001
0000
1001
0000
1001
0000
1010
0000
1000
0100
0000
0100
0010
0000
,
0001
0100
1000
0100
0001
0000
0011
0000
0011
0000
0010
0100
0000
0100
1000
0001
,
1000
0010
0001
0010
1000
0000
0101
0000
0001
0010
0000
0001
0000
1000
0010
0100
,
0001
0000
1000
0000
1100
0000
0011
0000
0100
0010
0000
1000
0000
0010
0100
0000
,
0010
0000
0010
0000
0110
0000
0110
0000
0101
0000
0001
1000
0000
1000
0010
0000
,
1000
0100
0001
0100
1000
0000
1100
0000
1100
0000
0010
0001
0000
0100
0001
0010
,
0100
0001
0100
1000
0010
0000
1001
0000
1000
0010
0000
0100
0000
0001
1000
0001
,
0010
0100
1100
0101
0010
0200
0302
1003
,
1010
0100
0001
0010
0100
2000
3002
0013
,
0011
1000
0100
0010
0001
2000
3200
0301
,
0110
0001
0100
0010
1000
0002
0023
0130
,
1100
0010
1000
0001
1000
0020
0230
0301
,
0101
1000
0100
0001
0010
0200
2300
3010
,
1100
1000
0001
0010
0001
2000
3020
0130
,
1001
0001
1000
0010
0100
0002
2003
3100
,
1100
0001
0100
0010
1000
0110
0001
0100
,
1001
0020
0000
0000
0000
0000
0030
0000
;
