#TITLE:Wings of an Angel (Fly With Me);
#ARTIST:J-Mi & Midi-D;
#BANNER:Wings of an Angel (Fly With Me).png;
#BACKGROUND:Wings of an Angel (Fly With Me)-bg.png;
#JACKET:Wings of an Angel (Fly With Me)-jacket.png;
#MUSIC:Wings of an Angel (Fly With Me).ogg;
#SAMPLESTART:79.56;
#SAMPLELENGTH:20;
#BPMS:0=175;
#BGCHANGES:;

//---------------dance-single - ----------------
#NOTES:
     dance-single:
     :
     Beginner:
     2:
     :
0000
0000
0000
0000
,
0000
0000
0000
0000
,
0000
0000
0000
0000
,
0000
0000
0000
0000
,
0000
0000
0000
0000
,
1000
0000
0000
0000
,
0001
0000
0000
0000
,
1000
0000
0000
0000
,
0000
0000
0000
0000
,
0001
0000
0000
0000
,
0001
0000
0000
0000
,
1000
0000
0000
0000
,
1000
0000
0000
0000
,
0001
0000
0000
0000
,
0001
0000
0000
0000
,
1000
0000
0000
0000
,
1000
0000
0000
0000
,
0001
0000
0001
0000
,
0001
0000
0000
0000
,
1000
0000
1000
0000
,
1000
0000
0000
0000
,
0001
0000
0001
0000
,
0001
0000
0000
0000
,
1000
0000
1000
0000
,
1000
0000
0000
0000
,
0000
0000
0000
0000
,
0010
0000
0000
0000
,
0010
0000
0000
0000
,
0010
0000
0000
0000
,
0010
0000
0000
0000
,
0100
0000
0000
0000
,
0100
0000
0000
0000
,
0100
0000
0000
0000
,
0100
0000
0000
0000
,
0002
0000
0000
0003
,
0000
0000
0000
0000
,
2000
0000
0000
3000
,
0000
0000
0000
0000
,
0002
0000
0000
0003
,
0000
0000
0000
0000
,
2000
0000
0000
3000
,
0000
0000
0000
0000
,
0001
0000
1000
0000
,
0001
0000
0000
0000
,
0010
0000
0100
0000
,
0010
0000
0000
0000
,
0001
0000
1000
0000
,
0001
0000
0000
0000
,
0010
0000
0100
0000
,
0010
0000
0000
0000
,
1000
0000
0001
0000
,
1000
0000
0000
0000
,
0010
0000
0100
0000
,
0010
0000
0000
0000
,
1000
0000
0001
0000
,
1000
0000
0000
0000
,
0010
0000
0100
0000
,
0010
0000
0000
0000
,
0001
0000
0000
0000
,
0001
0000
0000
0000
,
1000
0000
0000
0000
,
1000
0000
0000
0000
,
0001
0000
0000
0000
,
0001
0000
0000
0000
,
1000
0000
0000
0000
,
1000
0000
0000
0000
,
0002
0000
0000
0000
,
0000
0000
0003
0000
,
2000
0000
0000
0000
,
0000
0000
3000
0000
,
0002
0000
0000
0000
,
0000
0000
0003
0000
,
2000
0000
0000
0000
,
0000
0000
3000
0000
,
2002
0000
0000
0000
,
0000
0000
0000
3003
,
0000
0000
0000
0000
;

//---------------dance-single - ----------------
#NOTES:
     dance-single:
     :
     Easy:
     4:
     :
0000
0000
0000
0000
,
0000
0000
0000
0000
,
0000
0000
0000
0000
,
0000
0000
0000
0000
,
0000
0000
0000
0000
,
1000
1000
1000
0000
,
0001
0001
0001
0000
,
0010
0010
0010
0000
,
0000
0000
0000
0000
,
1000
0000
0001
0000
,
1000
0000
0100
0000
,
1000
0000
0010
0000
,
2000
0000
3000
0000
,
0001
0000
1000
0000
,
0001
0000
0100
0000
,
0001
0000
0010
0000
,
0002
0000
0003
0000
,
1000
0000
0001
0000
,
1000
0000
0100
0000
,
1000
0000
0010
0000
,
2000
0000
3000
0000
,
0001
0000
1000
0000
,
0001
0000
0100
0000
,
0001
0000
0010
0000
,
0002
0000
0003
0000
,
0000
0000
0000
0000
,
1000
0000
0000
0000
,
0000
0000
0000
0000
,
0001
0000
0000
0000
,
0000
0000
0000
0000
,
1000
0000
0000
0000
,
0000
0000
0000
0000
,
0001
0000
0000
0000
,
0000
0000
0000
0000
,
2000
0000
0000
0000
,
0000
0000
0000
3000
,
0002
0000
0000
0000
,
0000
0000
0000
0003
,
2000
0000
0000
0000
,
0000
0000
0000
3000
,
0002
0000
0000
0000
,
0000
0000
0003
0000
,
1000
0001
1000
1000
,
0001
0000
0000
0000
,
0100
0010
0100
0100
,
0010
0000
0000
0000
,
0001
1000
0001
0001
,
1000
0000
0000
0000
,
0100
0010
0100
0100
,
0010
0000
0000
0000
,
1000
0001
1000
0001
,
1001
0000
0000
0000
,
0100
0010
0100
0010
,
0110
0000
0000
0000
,
0001
1000
0001
1000
,
1001
0000
0000
0000
,
0100
0010
0100
0010
,
0110
0000
0000
0000
,
1000
0000
0001
0000
,
1000
0000
0100
0000
,
1000
0000
0010
0000
,
2000
0000
3000
0000
,
0001
0000
1000
0000
,
0001
0000
0100
0000
,
0001
0000
0010
0000
,
0002
0000
0003
0000
,
2000
0000
0000
3000
,
0200
0000
0000
0300
,
0020
0000
0000
0030
,
0002
0000
0000
0003
,
2000
0000
0000
3000
,
0020
0000
0000
0030
,
0200
0000
0000
0300
,
0002
0000
0000
0003
,
2002
0000
0000
0000
,
0000
0000
0000
3003
,
0000
0000
0000
0000
;

//---------------dance-single - ----------------
#NOTES:
     dance-single:
     :
     Medium:
     8:
     :
0000
0000
0000
0000
,
0000
0000
0000
0000
,
0000
0000
0000
0000
,
0000
0000
0000
0000
,
0000
0000
0000
0000
,
1000
1000
0100
1000
,
0100
0100
0010
0100
,
0010
0010
0001
0010
,
0001
1000
0001
1000
0001
0000
1001
0000
,
1000
0010
1000
0010
,
0100
0001
0001
1000
,
0100
0010
0001
0000
0100
0000
0100
0000
,
0020
0100
0130
0000
,
0001
0010
0001
0010
,
0100
1000
1000
0001
,
0100
0010
1000
0000
0100
0000
0100
0000
,
1001
0110
1001
0000
,
1000
0010
1000
0001
,
0100
0010
0001
1000
,
0100
0010
0001
0000
1000
0000
0100
0000
,
0020
0001
0130
0000
,
0001
0010
0001
1000
,
0100
0010
1000
0001
,
0100
0010
1000
0000
0001
0000
0100
0000
,
1001
0110
1001
0110
,
0000
0000
0000
0000
,
0001
0000
0001
0000
0001
0000
0000
1000
,
0000
1000
0000
1000
1000
0000
0000
0000
,
0010
0000
0010
0000
0010
0000
0000
0100
,
0000
0100
0000
0100
0100
0000
0000
0000
,
0001
0000
0100
0000
0001
0000
0000
1000
,
0000
0010
0000
1000
1000
0000
0000
0000
,
0010
0000
1000
0000
0010
0000
0000
0100
,
0000
0001
0000
0100
0100
0000
0000
0000
,
0002
0000
0000
0000
,
2000
0003
0000
0000
,
0020
3000
0000
0000
,
0200
0030
0000
0310
,
2000
0000
0000
0000
,
0002
3000
0000
0000
,
0020
0003
0000
0000
,
0100
0100
0100
0130
,
1000
0001
0000
0100
0000
0100
0000
0010
,
0000
1000
0000
0001
0000
1000
0000
0100
,
0010
0100
0000
0010
0000
0010
0000
1000
,
0000
0100
0000
0001
0000
0100
0000
1000
,
0001
1000
0000
0100
0000
0100
0000
0010
,
0000
0001
0000
1000
0000
0001
0000
0100
,
0010
0100
0000
0010
0000
0010
0000
0001
,
0000
0100
0000
1000
0000
0100
0000
0001
,
1000
0001
0000
0100
0000
0110
0000
0010
,
0000
1000
0000
1001
0000
1000
0000
0100
,
0010
0100
0000
0010
0000
0110
0000
1000
,
0000
0100
0000
1001
0000
0100
0000
1000
,
0001
1000
0000
0100
0000
0110
0000
0010
,
0000
0001
0000
1001
0000
0001
0000
0100
,
0010
0100
0000
0010
0000
0110
0000
0001
,
1000
0000
0000
0000
,
1000
0010
0001
0010
,
0100
0001
0010
1000
,
0100
0001
0100
0100
,
0120
0100
0130
0000
,
0001
1000
0001
0010
,
0100
1000
0010
0001
,
0100
1000
0100
0100
,
1000
0001
1000
0000
0001
1000
0001
0000
,
2000
0000
0000
0000
,
3020
0000
0000
0000
,
0032
0000
0000
0000
,
0203
0000
0000
0300
,
0002
0000
0000
0000
,
0023
0000
0000
0000
,
2030
0000
0000
0000
,
3200
0000
0000
0300
,
2002
0000
0000
0000
,
0000
0000
0000
3003
,
0000
0000
0000
0000
;

//---------------dance-single - ----------------
#NOTES:
     dance-single:
     :
     Hard:
     12:
     :
0000
0000
0000
0000
,
0000
0000
0000
0000
,
0000
0000
0000
0000
,
0000
0000
0000
0000
,
0000
0000
0000
0000
,
1010
1000
1000
1000
,
0110
0010
0010
0010
,
0101
0001
0001
0001
,
0100
0100
0010
0010
0100
0000
0110
0000
,
1000
0000
0010
0000
1000
0100
0010
0000
,
0001
0100
0001
0010
0001
0000
1000
0000
,
0100
0010
0001
0000
0010
0100
0001
0000
,
0020
0100
0031
0000
,
0001
0000
0010
0000
0001
0100
0010
0000
,
1000
0100
1000
0010
1000
0000
0001
0000
,
0100
0010
1000
0000
0010
0100
1000
0000
,
0110
1001
0110
0000
,
1000
0000
0010
0001
1000
0100
0010
0000
,
0001
0100
0001
0010
0001
0100
1000
0000
,
0100
0010
0001
0000
0010
0100
0001
0100
,
0020
0100
0031
1001
,
0001
0000
0010
1000
0001
0100
0010
0000
,
1000
0100
1000
0010
1000
0100
0001
0000
,
0100
0010
1000
0000
0010
0100
1000
0100
,
0110
1001
0110
1001
,
0100
0000
0000
0000
,
1000
0000
0100
0000
0010
0000
0000
0001
,
0000
1000
0000
0001
0001
0000
0000
0000
,
0100
0000
0010
0000
0001
0000
0000
1000
,
0000
0100
0000
1000
1000
0000
0000
0000
,
0001
0000
0100
0000
0020
0000
0000
1000
,
0000
0001
0000
1000
2000
0000
3030
0000
,
0100
0000
0010
0000
2000
0000
0000
0001
,
0000
0100
0000
0001
0002
0000
3003
0000
,
0020
0000
0000
0000
,
2000
0000
0000
0030
,
0002
0000
0000
3000
,
0200
0000
0000
0000
0003
0000
0310
0100
,
0020
0000
0000
0000
,
2000
0000
0000
0030
,
0002
0000
0000
3000
,
0103
0010
0100
0010
1000
0001
1000
0001
,
1000
0000
1000
0000
0000
0000
0100
0000
0000
0000
0100
0000
0000
0000
1000
0100
,
1000
0000
0001
0100
0001
0000
1000
0100
0010
0000
0010
0000
0010
0000
0000
0000
,
0100
0000
0100
0000
0000
0000
0001
0000
0000
0000
0001
0000
0000
0000
0100
0010
,
0100
0000
0001
1000
0001
0000
0100
0000
0010
0000
0010
0000
0000
0000
0100
0000
,
0001
0000
0001
0000
0000
0000
0100
0000
0000
0000
0100
0000
0000
0000
0001
0100
,
0001
0000
1000
0100
1000
0000
0001
0100
0010
0000
0010
0000
0010
0000
0000
0000
,
0100
0000
0100
0000
0000
0000
1000
0000
0000
0000
0011
0000
0000
0000
0100
0010
,
0100
0000
1000
0001
1000
0000
0100
0000
0010
0000
0010
0000
0100
0000
0100
0000
,
0001
0000
0001
0000
0000
0000
0100
0000
0000
0000
0110
0000
0000
0000
0001
0100
,
0001
0000
1000
0100
1000
0000
0001
1000
0010
0000
0010
0000
0010
0000
0000
0000
,
0100
0000
0100
0000
0000
0000
1000
0000
0000
0000
1010
0000
0000
0000
0100
0010
,
0100
0000
1000
0001
1000
0000
0100
0000
0010
0000
0010
0000
0000
0000
0110
0000
,
1000
0000
1000
0000
0000
0000
0100
0000
0000
0000
0110
0000
0000
0000
1000
0100
,
1000
0000
0001
0100
0001
0000
1000
0001
0010
0000
0010
0000
0010
0000
0000
0000
,
0100
0000
0100
0000
0000
0000
0001
0000
0000
0000
1001
0000
0000
0000
0100
0010
,
0100
0000
0001
1000
0001
0000
0100
0000
0010
0000
0010
0000
0110
0000
0000
0000
,
1000
0001
0010
0000
1000
0100
0010
0000
,
0001
0100
0001
0000
0001
0000
1000
0000
,
0100
0010
0001
1000
0010
0100
0001
0000
,
0020
0100
0031
1100
,
0001
1000
0010
0000
0001
0100
0010
0000
,
1000
0100
1000
0000
1000
0000
0001
0000
,
0100
0010
1000
0001
0010
0100
1000
0000
,
0001
0100
0001
0100
0010
1000
0010
1000
,
0200
0000
0010
0010
,
2300
0000
0100
0100
,
3002
0000
0010
0010
,
0203
0010
0310
0000
,
0200
0000
0010
0010
,
0302
0000
0100
0100
,
2003
0000
0010
0010
,
3200
0010
0310
0100
,
2002
0000
0000
0000
,
0000
0000
0000
3003
,
0000
0000
0000
0000
;

//---------------dance-single - ----------------
#NOTES:
     dance-single:
     :
     Challenge:
     16:
     :
0000
0000
0000
0000
,
0000
0000
0000
0000
,
0000
0000
0000
0000
,
0000
0000
0000
0000
,
0000
0000
0000
0000
,
0001
0000
1000
0100
1000
0000
0002
0000
0000
0000
0000
0000
0013
0000
0100
0000
,
1001
0000
0000
0001
1000
0000
0200
0000
0000
0000
0000
0000
0310
0000
0100
0000
,
1000
0001
0010
0100
1000
0010
0100
0001
,
0010
0001
0010
0001
1000
0100
1000
0100
1000
0010
1000
0010
0100
0001
0100
0001
,
0010
0000
0001
0100
0001
0000
1000
0000
0010
0000
0100
0000
0102
0000
0000
0000
,
1003
0000
0010
0100
0010
0000
2000
0000
0001
0000
0000
0000
3100
0000
1000
0000
,
0010
0100
0010
0001
0010
0100
0010
1000
,
0100
0000
0001
0000
0100
0000
0010
0000
0100
0000
1000
0000
0010
0100
0001
1000
,
0100
0000
0010
0000
0001
0000
1000
0100
1000
0000
0010
0000
0120
0000
0000
0000
,
0130
0000
0001
0010
0001
0000
1000
0000
0200
0000
0000
0000
1300
0000
0001
0000
,
0100
1000
0100
0001
0100
1000
0100
0010
,
1000
0000
0100
0000
0010
0000
0001
0000
0100
0010
0100
0010
1000
0001
1000
0001
,
0010
0000
0001
1000
0001
0000
0100
0000
0010
0000
1000
0100
1000
0000
0001
0000
,
0010
0000
0100
1000
0100
0000
0010
0000
0001
0000
1000
0010
1000
0000
0100
0000
,
0010
1000
0010
0001
0100
1000
0100
0001
,
0010
0000
0100
0000
1000
0000
0010
0000
0001
0000
0010
0000
1000
0100
0010
0001
,
0100
0000
0010
0000
1000
0000
0001
0000
0010
0000
0100
1000
0100
0000
0001
0000
,
0100
0000
1000
0000
0001
0000
0100
0000
0010
0000
1000
0001
1000
0000
0100
0000
,
0010
1000
0010
0100
0001
0100
1000
0010
,
0100
0000
0001
0000
1000
0000
0100
0000
0010
0001
0010
0001
1000
0010
1000
0100
,
2000
0000
0001
0001
0000
0100
0000
3001
,
1100
0000
1100
0000
2100
0000
3001
0011
,
0000
0011
0000
0011
0011
0100
0010
1000
,
1001
0000
1001
0000
1001
1000
0100
0110
,
0000
0110
0000
0110
0110
0010
0001
1000
,
0101
0000
0101
0000
0101
0100
0010
1010
,
0000
0101
0000
1100
0000
0001
1000
0100
,
1010
0000
1010
0000
1010
0001
1000
1100
,
0000
0000
0101
0000
0000
0000
1001
0000
1001
0000
0010
0000
1000
0100
1000
0100
,
0010
0000
0001
0100
0001
0000
1000
0000
0010
0000
0100
0000
0002
0000
0000
0000
,
0013
0000
0100
0000
1000
0010
1000
0000
0001
0000
0100
0010
1000
0000
0001
1000
,
0001
0010
1000
0010
0100
0010
0001
0100
,
0010
0000
1000
0000
0100
0000
0001
0000
0100
0000
1000
0010
1000
0000
0001
0010
,
0001
0000
0100
0000
0010
0000
1000
0000
0100
0000
1000
0001
0020
0000
0000
0000
,
0031
0000
0100
0000
0001
1000
0001
0000
0010
0000
0100
1000
0100
0000
1000
0001
,
0100
0000
0010
0000
1000
0000
0001
0000
0010
0000
1000
0000
0010
0000
0001
0100
,
0001
0000
1000
0100
1000
0000
0001
0010
0001
0000
1000
0010
1000
0000
0100
0010
,
0001
0000
0001
0000
0100
0000
0010
0000
1000
0000
0100
0000
1000
0000
0010
0100
,
0001
0000
0010
0100
1000
0000
0001
0100
0010
0000
1001
0000
1001
0000
1000
0100
,
1000
0000
0010
0000
0100
0000
0001
0000
0010
0000
1000
0000
0010
0000
0001
0100
,
0001
0000
0010
0100
1000
0000
0100
1000
0001
0000
0001
0000
0010
0100
1000
0000
,
1100
0000
1100
0000
0010
0000
0100
0000
1000
0000
0100
0000
0001
0000
0010
0100
,
0010
0000
0001
1000
0100
0000
1000
0010
0100
0000
0110
0000
0110
0000
0001
1000
,
0100
0000
0010
0000
0001
0000
0100
0000
1000
0000
0100
0000
0001
0000
1000
0100
,
0010
0000
0001
0100
0001
0000
0010
0100
1000
0010
1000
0010
0100
0001
1000
0100
,
0010
0000
0010
0000
0001
0000
0100
0000
0010
0000
1000
0000
0100
0000
1000
0001
,
0010
0000
0100
0010
0001
0000
1000
0100
0010
0000
0011
0000
0011
0000
1000
0010
,
0100
0000
0100
0000
0001
0000
0010
0000
1000
0000
0010
0000
0001
0000
1000
0100
,
0010
0000
0001
0100
0010
0000
1000
0001
0010
0000
0010
0000
0010
0001
0100
0000
,
0110
0000
0110
0000
1000
0000
0010
0000
1000
0000
0100
1000
0001
0000
0010
0100
,
1000
0000
0001
1000
0010
0000
1000
0100
0010
0000
1001
0000
1001
0000
0010
1000
,
0100
0000
0100
0000
0010
0000
0001
0000
0100
0000
1000
0000
0100
0000
0001
0010
,
0100
0000
1000
0001
0100
0000
0010
1000
0100
0010
0100
0010
0001
0100
0010
1000
,
0001
0000
0010
0100
1000
0000
0010
0000
1000
0000
0001
0000
1020
0000
0000
0000
,
0130
0000
0010
1000
0001
0000
2000
0000
0100
0000
0000
0000
3001
0000
1000
0000
,
0010
0100
0010
0001
0010
1000
0100
0001
,
0100
0000
0010
0000
0100
0000
1000
0000
0010
0000
0001
0000
0010
1000
0000
1000
,
0100
0000
0010
0000
0001
0000
0100
0000
1000
0000
0100
0001
0010
0000
0100
0000
,
1000
0000
0010
0000
0100
0000
0001
0000
0010
0000
0001
1000
0100
0000
0010
0000
,
0001
0100
0010
0001
0010
1000
0100
0010
,
1000
0000
0010
0000
0001
0000
0100
0000
0010
0000
1000
0000
0100
0010
0001
0100
,
0020
0000
0000
0000
1030
0000
0001
0000
0010
0000
0100
1000
0000
0100
1000
0000
,
0001
0000
0100
0000
0010
1000
0000
0000
1000
0000
0001
0100
0000
0001
0100
0000
,
0000
0010
1000
0001
0010
0100
1000
0001
,
0100
0000
0010
0000
1000
0001
1000
0000
0010
0000
1000
0100
0000
0010
0001
0000
,
0100
0000
0010
0000
1000
0001
1000
0000
0010
0000
0000
0010
0000
0000
0010
0000
,
0000
0000
0100
0000
0001
0010
0001
0000
1000
0000
0000
1000
0000
0000
1000
0000
,
0010
1000
0100
0001
0100
0010
0100
1000
,
0010
0100
0001
1000
0100
0010
0001
1000
,
2002
0000
0000
0000
,
0000
0000
0000
0000
,
3003
0000
0000
0000
;

//---------------dance-double - ----------------
#NOTES:
     dance-double:
     :
     Easy:
     5:
     :
00000000
00000000
00000000
00000000
,
00000000
00000000
00000000
00000000
,
00000000
00000000
00000000
00000000
,
00000000
00000000
00000000
00000000
,
00000000
00000000
00000000
00000000
,
10000000
00000000
01000000
00000000
,
00100000
00000000
00001000
00000000
,
00010000
00000000
00000010
00000000
,
00000100
00000100
00000110
00000000
,
00000001
00000000
00001000
00000000
,
00000100
00000100
00000100
00000000
,
00010000
00000000
00001000
00000000
,
00100000
00100000
01000000
00000000
,
10000000
00000000
00010000
00000000
,
01000000
01000000
01000000
00000000
,
00001000
00000000
00010000
00000000
,
00000010
00000010
00000010
00000010
,
00000100
00000000
00000001
00000000
,
00000100
00000010
00000100
00000000
,
00001000
00000000
00010000
00000000
,
01000000
00100000
01100000
00000000
,
01000000
00000000
10000000
00000000
,
01000000
00100000
01000000
00000000
,
00010000
00000000
00001000
00000000
,
00000100
00000100
00000010
00000010
,
00000100
00000000
00000000
00000000
,
00000001
00000000
00000000
00000000
,
00000100
00000000
00000000
00000000
,
00001000
00000000
00000000
00000000
,
00010000
00000000
00000000
00000000
,
00100000
00000000
00000000
00000000
,
10000000
00000000
00000000
00000000
,
01000000
00000000
00000000
00000000
,
00010000
00000000
00000000
00000000
,
00001000
00000000
00010000
00000000
,
00010000
00000000
00001000
00000000
,
00001000
00000000
00000100
00000000
,
00000001
00000000
00000010
00001000
,
00010000
00000000
00001000
00000000
,
00001000
00000000
00010000
00000000
,
00010000
00000000
01000000
00000000
,
10000000
00010000
10000000
00010000
,
20000000
00000000
00000000
30000000
,
01000000
00100000
00010000
00000000
,
00200000
00000000
00000000
00300000
,
00001000
00001000
00000100
00000000
,
00000002
00000000
00000000
00000003
,
00000100
00000010
00001000
00000000
,
00000020
00000000
00000000
00000030
,
00010000
00010000
01000000
01000000
,
20000000
00000000
00000000
30000000
,
00100000
01000000
00010000
00000000
,
02000000
00000000
00000000
03000000
,
00001000
00001000
00000010
00000000
,
00000002
00000000
00000000
00000003
,
00000010
00000100
00001000
00000000
,
00000200
00000000
00000000
00000300
,
00010000
00010000
00100000
00100000
,
10000000
00000000
00010000
00000000
,
01000000
01000000
01000000
00000000
,
00001000
00000000
00010000
00000000
,
00000010
00000010
00000100
00000000
,
00000001
00000000
00001000
00000000
,
00000100
00000100
00000100
00000000
,
00010000
00000000
00001000
00000000
,
00100000
00100000
00100000
00100000
,
02000000
00000000
00000000
00000000
,
03020000
00000000
00000000
00000000
,
00032000
00000000
00000000
00000000
,
00003100
00000000
00000010
00000000
,
00000200
00000000
00000000
00000000
,
00002300
00000000
00000000
00000000
,
00023000
00000000
00000000
00000000
,
01030000
00000000
00100000
00000000
,
20020000
00000000
00000000
00000000
,
00000000
00000000
00000000
30030000
,
00000000
00000000
00000000
00000000
;

//---------------dance-double - ----------------
#NOTES:
     dance-double:
     :
     Medium:
     8:
     :
00000000
00000000
00000000
00000000
,
00000000
00000000
00000000
00000000
,
00000000
00000000
00000000
00000000
,
00000000
00000000
00000000
00000000
,
00000000
00000000
00000000
00000000
,
00000001
00000100
00000001
00000100
,
00001000
00010000
00001000
00010000
,
00100000
01000000
00100000
01000000
,
00010000
10000000
20020000
30030000
,
10000000
01000000
00100000
00001000
,
00010000
00001000
00010000
00000000
00000010
00000000
00000010
00000000
,
00000100
00000001
00000100
00001000
,
00010000
00001000
00000100
00000110
,
00000001
00000100
00000010
00010000
,
00001000
00010000
00001000
00000000
00100000
00000000
00100000
00000000
,
01000000
10000000
01000000
00010000
,
00001000
00000000
00010000
00000000
01000000
00100000
01000000
00100000
,
00010000
00000000
10000000
00000000
01000000
00000000
00100000
00010000
,
00100000
00000000
00001000
00000000
00000100
00000010
00000100
00000000
,
00000001
00001000
00000100
00010000
,
00000010
00001000
00000100
00001001
,
00001000
00000000
00000001
00000000
00000100
00000000
00000010
00001000
,
00000010
00000000
00010000
00000000
01000000
00100000
01000000
00000000
,
10000000
00010000
01000000
00001000
,
00100000
00000000
00010000
00000000
01000000
00100000
01000000
00100000
,
01000000
00000000
00000000
00000000
,
00010000
00100000
00100000
00000000
,
00001000
00000100
00000100
00000000
,
00001000
00100000
00100000
00000000
,
00010000
00000010
00000010
00000000
,
00001000
00000001
00000001
00000000
,
00000100
00010000
00010000
00000000
,
01000000
00100000
00100000
00000000
,
00010000
10000000
10000000
00000000
,
01000000
01000000
01000000
01000000
,
00100000
00100000
00100000
00100000
,
00010000
00010000
00010000
00010000
,
00001000
00001000
00001000
00001000
,
00000100
00000100
00000100
00000100
,
00000010
00000010
00000010
00000010
,
00001000
00001000
00001000
00001000
,
00010000
00001000
00010000
00011000
,
00100000
00010000
00000000
01000000
00000000
01000000
00000000
00100000
,
00000000
00010000
00000000
00001000
00000000
00000100
00000000
00000001
,
00000010
00000001
00000000
00000010
00000000
00000010
00000000
00001000
,
00000000
00100000
00000000
00001000
00000000
00010000
00000000
00000010
,
00000010
00001000
00000000
00000100
00000000
00000100
00000000
00000010
,
00000000
00001000
00000000
00010000
00000000
01000000
00000000
10000000
,
00100000
10000000
00000000
00100000
00000000
00100000
00000000
00010000
,
00000000
00000010
00000000
00010000
00000000
00001000
00000000
00001000
,
01000000
00010000
00000000
00100000
00000000
00100000
00000000
01000000
,
00000000
00010000
00000000
00001000
00000000
00000010
00000000
00000001
,
00000100
00000001
00000000
00000100
00000000
00000100
00000000
00001000
,
00000000
01000000
00000000
00001000
00000000
00010000
00000000
00000100
,
00000100
00001000
00000000
00000010
00000000
00000010
00000000
00000100
,
00000000
00001000
00000000
00010000
00000000
00100000
00000000
10000000
,
01000000
10000000
00000000
01000000
00000000
01000000
00000000
00010000
,
00000000
00000100
00000000
00001000
00000001
00001000
00000001
00001000
,
00000001
00000100
00000010
00010000
,
00001000
00010000
00001000
00000000
00100000
00000000
00100000
00000000
,
01000000
10000000
01000000
00010000
,
00001000
00010000
01000000
01100000
,
10000000
01000000
00100000
00001000
,
00010000
00001000
00010000
00000000
00000010
00000000
00000010
00000000
,
00000100
00000001
00000100
00001000
,
00010000
00000000
01000000
00100000
01000000
00100000
01000000
00100000
,
00020000
00000000
02000000
00030000
,
00200000
03000000
00020000
00300000
,
00002000
00030000
00020000
00003000
,
00000100
00030100
00000010
00000001
,
00002000
00000000
00000200
00003000
,
00000020
00000300
00002000
00000030
,
00020000
00003000
00002000
00030000
,
01000000
01003000
00100000
00100000
,
02200000
00000000
00000000
00000000
,
00000000
00000000
00000000
03300000
,
00000000
00000000
00000000
00000000
;

//---------------dance-double - ----------------
#NOTES:
     dance-double:
     :
     Hard:
     11:
     :
00000000
00000000
00000000
00000000
,
00000000
00000000
00000000
00000000
,
00000000
00000000
00000000
00000000
,
00000000
00000000
00000000
00000000
,
00000000
00000000
00000000
00000000
,
11000000
01000000
01000000
01000000
,
01010000
00010000
00010000
00010000
,
00011000
00001000
00001000
00001000
,
00000100
00000010
00000100
00000010
00000100
00000000
00000110
00000000
,
00000001
00000000
00000100
00000000
00000010
00001000
00000100
00000000
,
00010000
00001000
00000010
00000000
00001000
00010000
01000000
00000000
,
10000000
00000000
00100000
00000000
00010000
00000000
00001000
00010000
,
00001000
01000000
00100000
01010000
,
10000000
00000000
01000000
00000000
00100000
00010000
01000000
00000000
,
00001000
00010000
00100000
00000000
00010000
00001000
00000100
00000000
,
00000001
00000000
00000010
00000000
00001000
00000000
00010000
00001000
,
00000100
00000000
00001001
00000000
00000100
00000010
00000100
00000010
,
00001000
00000000
00000100
00000010
00000001
00000010
00000100
00000000
,
00010000
00001000
00000100
00000000
00001000
00010000
00100000
00000000
,
01000000
00000000
00100000
10000000
01000000
10000000
00010000
01000000
,
00200000
01000000
10000000
01300000
,
00010000
00000000
01000000
00100000
10000000
00100000
01000000
00000000
,
00001000
00010000
01000000
00000000
00010000
00001000
00000010
00000000
,
00000100
00000000
00000010
00000001
00000100
00000001
00001000
00000100
,
00000001
00000000
00000110
00000000
00001000
00000001
00001000
00000001
,
00000010
00000000
00000000
00000000
,
00000001
00000000
00000100
00000000
,
00000010
00001000
00010000
00000000
,
00100000
00010000
00001000
00000000
,
00010000
01000000
10000000
00000000
,
01000000
00000000
00100000
00000000
,
00010000
00001000
00000100
00000001
,
00000010
00000000
00000010
00000000
,
00000100
00010000
00100000
00000000
,
10000000
01000000
01000000
01000000
,
00010000
00001000
00001000
00001000
,
00000100
00000001
00000001
00000001
,
00000010
00001000
00010000
01100000
,
10000000
00100000
00100000
00100000
,
00010000
00001000
00001000
00001000
,
00000010
00000001
00000001
00000001
,
00000100
00001000
00000100
00001000
00010000
00100000
00010000
00100000
,
10000000
00000000
10000000
00000000
00000000
00000000
01000000
00000000
00000000
00000000
01000000
00000000
00000000
00000000
00010000
00001000
,
00010000
00000000
00000100
00000010
00000100
00000000
00001000
00000000
00000001
00000000
00001000
00000000
00000001
00000000
00000000
00000000
,
00000100
00000000
00000100
00000000
00000000
00000000
00000001
00000000
00000000
00000000
00000001
00000000
00000000
00000000
00001000
00000100
,
00001000
00000100
00010000
00001000
00100000
00100000
00000000
01000000
,
10000000
00000000
10000000
00000000
00000000
00000000
00100000
00000000
00000000
00000000
00100000
00000000
00000000
00000000
00010000
00001000
,
00010000
00000000
00000010
00000100
00000010
00000000
00001000
00000000
00000001
00000000
00001000
00000000
00000001
00000000
00000000
00000000
,
00000010
00000000
00000010
00000000
00000000
00000000
00000001
00000000
00000000
00000000
00000001
00000000
00000000
00000000
00001000
00000010
,
00001000
00000010
00010000
00001000
01000000
01000000
00100000
00100000
,
10000000
00000000
10000000
00000000
00000000
00000000
01000000
00000000
00000000
00000000
01000000
00000000
00000000
00000000
00010000
00001000
,
00010000
00000000
00000100
00000010
00000100
00000000
00001000
00000000
00000001
00000000
00001000
00000000
00000001
00000000
00000000
00000000
,
00000100
00000000
00000100
00000000
00000000
00000000
00000001
00000000
00000000
00000000
00000001
00000000
00000000
00000000
00001000
00000100
,
00001000
00000100
00010000
00001000
00100000
00100000
00000000
01000000
,
10000000
00000000
10000000
00000000
00000000
00000000
00100000
00000000
00000000
00000000
00100000
00000000
00000000
00000000
00010000
00001000
,
00010000
00000000
00000010
00000100
00000010
00000000
00001000
00000000
00000001
00000000
00001000
00000000
00000001
00000000
00000000
00000000
,
00000010
00000000
00000010
00000000
00000000
00000000
00000001
00000000
00000000
00000000
00000001
00000000
00000000
00000000
00001000
00000010
,
00001000
00000010
00010000
00001000
00000100
00000001
00000010
00000010
,
00000001
00000000
00000010
00000000
00000100
00001000
00000010
00000000
,
00010000
00001000
00000100
00000000
00001000
00010000
00100000
00000000
,
10000000
00000000
01000000
00000000
00010000
00000000
00001000
00010000
,
00001000
00100000
01000000
00110000
,
10000000
00000000
00100000
00000000
01000000
00010000
00100000
00000000
,
00001000
00010000
01000000
00000000
00010000
00001000
00000010
00000000
,
00000001
00000000
00000100
00000000
00001000
00000000
00010000
00001000
,
00000010
00000001
00000010
00000001
00000010
00000100
00000010
00000100
,
00002000
00000000
00000100
00000000
,
00003002
00000000
00000010
00000000
,
00002003
00000000
00003200
00000000
,
00020300
01000000
01030000
10000000
,
00020000
00000000
01000000
00000000
,
20030000
00000000
00100000
00000000
,
30020000
00000000
02030000
00000000
,
03002000
00000100
00003100
00000010
,
00002002
00000000
00000000
00000000
,
00000000
00000000
00000000
00003003
,
00000000
00000000
00000000
00000000
;
