#VERSION:0.83;
#TITLE:Windy Fairy;
#SUBTITLE:;
#ARTIST:DJ TOTTO;
#TITLETRANSLIT:;
#SUBTITLETRANSLIT:;
#ARTISTTRANSLIT:;
#GENRE:;
#ORIGIN:;
#TAGS:;
#CREDIT:;
#BANNER:Windy Fairy.png;
#BACKGROUND:Windy Fairy-bg.png;
#PREVIEWVID:;
#JACKET:Windy Fairy-jacket.png;
#CDIMAGE:;
#DISCIMAGE:;
#LYRICSPATH:;
#CDTITLE:;
#MUSIC:Windy Fairy.ogg;
#OFFSET:0.000000;
#SAMPLESTART:76.667000;
#SAMPLELENGTH:20.000000;
#SELECTABLE:YES;
#DISPLAYBPM:180.000000;
#BPMS:0.000000=180.000000;
#STOPS:;
#DELAYS:;
#WARPS:;
#TIMESIGNATURES:0.000000=3=4;
#TICKCOUNTS:0.000000=4;
#COMBOS:0.000000=1;
#SPEEDS:0.000000=1.000000=0.000000=0;
#SCROLLS:0.000000=1.000000;
#FAKES:;
#LABELS:0.000000=Song Start;
#BGCHANGES:;
#KEYSOUNDS:;
#ATTACKS:
;

//---------------dance-single - ----------------
#NOTEDATA:;
#CHARTNAME:;
#CHARTHASH:2147483647:
#STEPSTYPE:dance-single;
#BANNER:;
#DESCRIPTION:;
#CHARTSTYLE:;
#DIFFICULTY:Beginner;
#METER:2;
#METERF:0.000000;
#RADARVALUES:0.133244,0.249248,0.000000,0.008403,0.000000,111.000000,111.000000,0.000000,1.000000,0.000000,0.000000,0.000000,0.000000,0.000000,0.133244,0.249248,0.000000,0.008403,0.000000,111.000000,111.000000,0.000000,1.000000,0.000000,0.000000,0.000000,0.000000,0.000000;
#CREDIT:;
#DISPLAYBPM:180.000000;
#NOTES:
0000
0000
0000
0000
,
0000
0000
0000
0000
,
0000
0000
0000
0000
,
0000
0000
0000
0000
,
0000
0000
0000
0000
,
0000
0000
0000
0000
,
0000
0000
0000
0001
,
0000
0000
0000
0000
,
0000
1000
0000
0000
,
0000
0000
0000
0100
,
0000
0000
0010
0000
,
0000
0100
0000
0000
,
0000
0000
0000
0001
,
0000
0000
0001
0000
,
0000
1000
0000
0000
,
1000
0000
0000
0001
,
0000
0001
0001
0000
,
0000
1000
0000
1000
,
1000
0000
0000
0100
,
0000
0000
0100
0000
,
0000
0010
0000
0000
,
0000
0000
0000
0001
,
0000
0000
0001
0000
,
0000
1000
0000
0000
,
1000
0000
0000
0100
,
0000
0000
0100
0000
,
0000
0010
0000
0000
,
0000
0000
0000
1000
,
0000
0000
1000
0000
,
0000
0001
0000
0000
,
0001
0000
0000
0100
,
0000
0000
0100
0100
,
0100
0100
0000
0000
,
0000
0000
0000
1000
,
0000
0000
1000
1000
,
1000
1000
0000
0000
,
1000
0000
0000
0100
,
0000
0000
0100
0100
,
0100
0100
0000
0000
,
0000
0000
0000
0001
,
0000
0000
0001
0001
,
0001
0001
0000
0000
,
0001
0000
0000
1000
,
0000
0000
0000
0000
,
0000
0010
0000
0000
,
0000
0000
0000
0001
,
0000
0000
0000
0000
,
0000
0100
0000
0000
,
0000
0000
0000
1000
,
0000
0000
0000
0000
,
0000
0001
0000
0000
,
0000
0000
0000
1000
,
1000
1000
1000
0000
,
0000
0001
0001
0001
,
0001
0000
0000
0010
,
0010
0010
0010
0000
,
0000
0100
0000
0000
,
0000
0000
0000
0001
,
0000
0000
0001
0000
,
0000
1000
0000
0000
,
1000
0000
0000
0100
,
0000
0000
0010
0000
,
0000
0001
0000
0000
,
0010
0000
0000
1000
,
0000
0000
1000
0000
,
0000
0001
0000
0000
,
0001
0000
0000
0100
,
0000
0000
0010
0000
,
0000
1000
0000
0000
,
0001
0000
0000
0000
,
0000
0000
0000
0000
,
0000
0000
0000
0000
,
0000
0000
0000
0000
,
0000
0000
0000
0000
,
0000
0020
0000
0000
,
0030
0000
0000
1000
,
1000
1000
1000
0000
,
0000
0001
0001
0001
,
0001
0000
0000
0100
,
0100
0100
0100
0000
,
0000
0001
0000
0000
,
1000
0000
0000
0100
,
0100
0100
0100
0000
,
0100
0100
0000
0000
,
0010
0010
0010
0100
,
0000
0000
0000
0000
;

//---------------dance-single - ----------------
#NOTEDATA:;
#CHARTNAME:;
#CHARTHASH:2147483647:
#STEPSTYPE:dance-single;
#BANNER:;
#DESCRIPTION:;
#CHARTSTYLE:;
#DIFFICULTY:Easy;
#METER:7;
#METERF:0.000000;
#RADARVALUES:0.288096,0.356068,0.050417,0.193264,0.000000,240.000000,234.000000,6.000000,23.000000,0.000000,0.000000,0.000000,0.000000,0.000000,0.288096,0.356068,0.050417,0.193264,0.000000,240.000000,234.000000,6.000000,23.000000,0.000000,0.000000,0.000000,0.000000,0.000000;
#CREDIT:;
#DISPLAYBPM:180.000000;
#NOTES:
0000
0000
0000
0000
,
0000
0000
0000
0000
,
0000
0000
0000
0000
,
0000
0000
0000
0000
,
0000
0000
0000
0000
,
0000
0000
0000
0000
,
0000
0000
0000
0001
,
0010
0100
2000
0000
,
3000
1000
0000
0100
,
0002
0000
0003
1000
,
0010
0100
0002
0000
,
0003
0001
0000
0100
,
0002
0000
0003
1000
,
0100
0010
0010
0001
,
1000
0001
0100
0010
,
0010
1000
0001
1000
,
0100
0010
0001
0100
,
0010
2000
0000
3000
,
0002
0000
0003
1000
,
0000
0000
1000
0100
,
0010
0001
0000
0000
,
0100
0001
0010
0100
,
0000
0000
0100
0010
,
0001
1000
0100
0010
,
0100
0010
0001
1000
,
0000
0000
1000
0010
,
0100
0001
0000
0000
,
0010
0001
0100
0010
,
0000
0000
0010
0100
,
0001
1000
0010
0100
,
0010
0100
0001
0002
,
0000
0000
0103
0010
,
0100
2000
0000
0000
,
3100
0010
0100
0002
,
0000
0000
0103
0010
,
0100
0001
0100
1000
,
0001
0010
1000
2000
,
0000
0000
3100
0010
,
0100
0002
0000
0000
,
0103
0010
0100
2000
,
0000
0000
3100
0010
,
0100
1000
0010
0001
,
1000
0100
0001
0001
,
0000
0010
0100
0000
,
1000
0001
0100
1000
,
0100
0001
1000
0001
,
0000
0100
0010
0000
,
1000
0001
0010
1000
,
0010
0001
1000
0100
,
0000
0010
0001
0000
,
0100
1000
0100
0001
,
0010
1000
0100
0001
,
0001
0001
0200
0001
,
0310
0010
0010
0010
,
0200
0010
1300
1000
,
1000
1000
0200
1000
,
0310
0220
0000
0000
,
0000
0000
0330
1000
,
0010
0001
1000
0100
,
0001
0001
0010
1000
,
0001
0100
1000
0001
,
0001
0001
1000
1000
,
1000
0001
0010
0100
,
1000
0010
0100
0001
,
0010
1000
0001
0100
,
1000
1000
0010
0001
,
1000
0100
0001
0001
,
0010
0100
1000
0010
,
0100
0001
1000
0001
,
2002
0000
0000
3003
,
0000
0000
0000
0000
,
0000
0000
0000
0000
,
0000
0000
0000
0000
,
0000
0000
0000
0000
,
0000
0000
0001
0000
0000
0100
0000
0000
,
1000
0000
0000
0010
0000
0000
0001
0000
,
0001
0001
1000
1000
,
1000
0010
1000
0100
,
0010
0001
0100
0010
,
1000
0100
0001
0010
,
1000
0200
0010
0000
,
0020
0000
0330
0010
,
0100
0110
1000
0001
,
1001
2002
0000
0000
,
0000
0000
3003
1001
,
0000
0000
0000
0000
;

//---------------dance-single - ----------------
#NOTEDATA:;
#CHARTNAME:;
#CHARTHASH:2147483647:
#STEPSTYPE:dance-single;
#BANNER:;
#DESCRIPTION:;
#CHARTSTYLE:;
#DIFFICULTY:Medium;
#METER:11;
#METERF:0.000000;
#RADARVALUES:0.457352,0.605316,0.302501,0.235278,0.000000,381.000000,345.000000,36.000000,28.000000,0.000000,0.000000,0.000000,0.000000,0.000000,0.457352,0.605316,0.302501,0.235278,0.000000,381.000000,345.000000,36.000000,28.000000,0.000000,0.000000,0.000000,0.000000,0.000000;
#CREDIT:;
#DISPLAYBPM:180.000000;
#NOTES:
0000
0000
0000
0000
,
0000
0000
0000
0000
,
0000
0000
0000
0000
,
0000
0000
0000
0000
,
0000
0000
0000
0000
,
0000
0000
0000
0000
,
0000
0000
0000
0000
0000
0000
1000
0100
,
0010
0001
0010
0100
2000
0000
0000
0000
,
3001
0000
1000
0000
0100
1000
0100
0000
,
1000
0000
0001
0000
1000
0000
0001
0100
,
0010
1000
0010
0100
0002
0000
0000
0000
,
1003
0010
1000
0100
,
0002
0000
0000
0000
0003
0000
0100
0010
,
1000
0001
0010
0100
2000
0000
0100
0000
,
3001
0000
0100
0000
0010
0100
0010
0000
,
1000
0000
0001
0000
1000
0000
0100
0010
,
0001
1000
0010
0100
0002
0000
0100
0000
,
1003
2100
0100
3001
,
0202
0000
0300
1003
,
0000
1000
0010
0100
,
0001
1001
0100
0100
,
1000
0000
0001
0000
1000
0010
0100
0000
,
0001
1000
0100
0010
,
0001
0000
1000
0010
1000
0010
0100
0000
,
0001
0010
0001
0010
0100
0000
1000
0000
,
0010
0100
0001
0010
,
0100
1001
0010
0010
,
1000
0000
0010
0000
0100
0001
1000
0000
,
0100
0010
0001
0100
,
0010
0000
1000
0100
0010
0001
0010
0000
,
0001
0100
0010
1000
0010
0000
2000
0000
,
0100
3001
1100
1010
,
1001
0100
1000
0001
,
0010
0000
0010
1000
0001
0000
0002
0000
,
0100
1003
0101
0011
,
1001
0000
1000
0100
0010
0001
1000
0000
,
0001
0100
0010
1000
0001
0000
2000
0000
,
0010
3001
1010
0101
,
0011
0010
1000
0001
,
0100
0000
0100
1000
0001
0000
0002
0000
,
0010
1003
0011
1100
,
1001
0000
1000
0001
1000
0001
0100
0000
,
0010
0100
0010
0100
0001
0000
0200
0000
,
0000
0310
2000
0000
,
3100
0010
0001
0100
,
1000
0000
0010
0001
0100
0000
0020
0000
,
0000
0130
0002
0000
,
0103
0010
1000
0100
,
0001
0000
0010
1000
0100
0000
0020
0000
,
0000
0130
2000
0000
,
3001
0100
1000
0010
,
0001
0000
0000
0011
,
0110
0000
1100
0000
0001
0010
0100
1000
,
0010
1010
0110
0101
,
1000
0010
0100
0001
0010
0000
0011
0000
,
1010
1100
0101
1100
,
1010
0220
0000
0000
,
0000
0000
0330
0100
,
0001
1000
0010
0100
0001
0000
1000
0000
,
0001
0000
0010
0000
0100
1000
0001
0100
,
0001
0000
1000
0000
0001
0000
1000
0010
,
1000
0010
0100
0001
0010
0001
0010
0001
,
0100
0010
1000
0000
0100
0000
0001
0000
,
0010
1000
0001
1000
,
1000
0100
0010
0001
1000
0000
0001
0000
,
1000
0000
0001
0000
0001
0100
0010
1000
,
0001
1000
0001
0100
,
0010
1000
0001
0100
0010
0000
0010
0100
,
0001
1000
0200
0000
1000
0000
0001
0000
,
0020
0000
0000
0330
,
0000
0000
0000
0000
,
0000
0000
0000
0000
,
0000
0000
0000
0000
,
0000
0000
0000
0000
,
0000
0000
0011
0000
0000
1001
0000
0000
,
1010
0000
0000
1001
0000
0000
0100
0010
,
0100
0001
0010
0100
1000
0000
0001
0000
,
1000
0000
0010
0100
0010
1000
0001
0100
,
0001
0000
1000
0000
0001
0000
0100
0010
,
1000
0001
0100
0010
1000
0000
0001
1000
,
0001
1000
0002
0000
0023
0000
0230
0000
,
2300
0000
3020
0000
0230
0000
0301
1000
,
0001
1000
0001
1000
0010
0100
0010
0100
,
0010
0100
0001
0000
0000
1100
0000
0000
,
1000
0101
1001
0100
,
0000
0000
0000
0000
;

//---------------dance-single - ----------------
#NOTEDATA:;
#CHARTNAME:;
#CHARTHASH:2147483647:
#STEPSTYPE:dance-single;
#BANNER:;
#DESCRIPTION:;
#CHARTSTYLE:;
#DIFFICULTY:Hard;
#METER:15;
#METERF:0.000000;
#RADARVALUES:0.681827,0.890171,0.109236,0.453751,0.504168,568.000000,555.000000,13.000000,54.000000,0.000000,0.000000,0.000000,0.000000,0.000000,0.681827,0.890171,0.109236,0.453751,0.504168,568.000000,555.000000,13.000000,54.000000,0.000000,0.000000,0.000000,0.000000,0.000000;
#CREDIT:;
#DISPLAYBPM:180.000000;
#NOTES:
0000
0000
0000
0000
,
0000
0000
0000
0000
,
0000
0000
0000
0000
,
0000
0000
0000
0000
,
0000
0000
0000
0000
,
0000
0000
0000
0000
,
0000
0000
0000
0000
0000
0000
0000
0000
0000
0000
0000
0000
1000
0000
0001
0010
,
0100
1000
0001
0010
0200
0000
0000
0000
,
1300
0001
0020
0000
0031
0100
0010
0100
,
0001
0000
1000
0100
2000
0000
0000
0000
3002
0000
0000
0000
1003
0000
0010
0100
,
0001
1000
0010
0100
0002
0000
0000
0000
,
1003
0000
0001
0000
0010
0000
0000
0100
0000
0000
1000
0000
0001
0000
0100
0000
,
0020
0000
0000
0000
0000
0000
0000
0000
0030
0000
0000
0000
1000
0000
0010
1000
,
0010
0100
0001
0010
0100
1000
0001
0100
,
0010
1000
0100
0010
0100
1000
0001
0010
,
0001
0000
1000
0001
0100
0000
0001
1000
0100
0000
0010
0000
0001
0000
0010
0001
,
0010
0000
0100
0000
1000
0000
0010
0000
0100
0000
0001
1000
0010
0000
0100
0000
,
0001
0000
1000
0000
0001
0100
0001
0000
1000
0000
0001
0100
0001
0000
1000
0000
,
0001
1000
0100
1000
0100
0010
0100
0010
0001
0000
1000
0000
1001
0000
0000
0000
,
0001
0000
1000
0100
1000
0000
0001
0000
0010
0000
0000
0000
0100
0000
0000
0000
,
0011
0000
0101
0000
0010
0010
1000
1000
,
0001
0000
0100
0001
0100
0000
0010
0000
0100
0000
0010
0000
1000
0000
0000
0000
,
0001
1000
0100
0010
0001
0000
1000
0000
,
0001
0000
1000
0100
1000
0010
0100
0000
,
0001
0100
0001
0010
0100
0100
0010
0000
,
0010
0000
0001
0100
0001
0000
1000
0000
0010
0000
0000
0000
0100
0000
0000
0000
,
1010
0000
1100
0000
0010
0010
0001
0001
,
1000
0000
0010
1000
0010
0000
0100
0000
0010
0000
0100
0000
0001
0000
0000
0000
,
0001
0100
0001
1000
0010
0000
1000
0000
,
0100
0000
0001
1000
0010
0001
0100
0000
,
1000
0001
0010
1000
0100
0000
0020
0000
,
0031
0000
1000
0100
1000
0000
0001
0000
0200
0001
0000
0000
0302
0010
0000
0000
,
0023
0100
0000
0000
0130
1000
0000
0000
0010
0000
0100
0000
0001
0000
0010
0000
,
0100
0000
1000
0100
1000
0000
0001
0000
0100
0000
0100
0000
0020
0000
0000
0000
,
0130
0001
1000
0001
0010
0001
0100
0010
,
1000
0000
1000
0100
0010
0001
0011
0000
,
0001
0100
0010
1000
1010
0000
0200
0000
,
0301
0000
1000
0010
1000
0000
0001
0000
0020
0001
0000
0000
0032
0100
0000
0000
,
0203
0010
0000
0000
0310
1000
0000
0000
0001
0000
0010
0000
0100
0000
1000
0000
,
0001
0000
0010
0001
0010
0000
0001
0000
0100
0000
0010
0000
0200
0000
0000
0000
,
0310
1000
0100
0010
0001
0100
0010
0100
,
1000
0100
0001
0010
0100
1000
1100
0000
,
1000
0000
0010
0000
0100
0000
0001
0000
1000
0001
1000
0001
0200
0000
0000
0000
,
0000
0310
0002
0000
,
0103
0000
0010
1000
0010
0001
0010
1000
,
0100
0000
0000
1000
0000
0000
0001
0000
0010
0000
0100
0000
2000
0000
0000
0000
0000
0000
3020
0000
0000
0000
0000
0000
,
0000
0130
2000
0000
,
3100
0000
0010
0001
0010
1000
0010
0001
,
0100
0000
0000
0001
0000
0000
1000
0000
0010
0000
0100
0000
0002
0000
0000
0000
0000
0000
2003
0000
0000
0000
0000
0000
,
0000
3001
0020
0000
,
1030
0000
0001
0100
1000
0100
0001
0100
,
0010
0000
0000
1000
0000
0000
0001
0000
0000
0010
0001
1000
,
0100
0000
1000
0000
0001
0000
0010
0000
0100
0000
1000
0000
0010
0000
0000
0100
0000
0000
0001
0000
0000
0001
0000
0000
,
1000
0000
0000
1000
0000
0000
0010
0000
0100
0000
0001
0000
1000
0000
0100
0000
0010
0000
0001
0000
0100
0000
0010
0000
,
1000
0000
0000
0001
0000
0000
0010
0000
0000
0010
0000
0000
0100
0000
0000
0100
0000
0000
1000
0000
0100
0000
0010
0000
,
0100
1000
0001
0100
0010
0100
0001
1000
0010
0100
0010
1000
,
0001
0010
0100
2000
0000
0000
0000
0000
0000
0000
0000
0000
,
3000
0000
0000
1002
,
0103
0000
0010
1000
0001
0000
0010
0000
0200
1000
0000
0000
2300
0001
0000
0000
,
3001
0100
0000
0000
0020
0000
0000
0000
1030
0000
0001
0100
0010
0000
1000
0000
,
0001
0000
0100
0000
1000
0000
0100
0000
0001
0000
1000
0000
0001
1000
0100
1000
,
0100
0000
1000
0000
0010
0000
0100
0000
0001
1000
0010
1000
0010
0000
0100
0000
,
0001
0010
0011
0000
0010
0100
1000
0000
,
1001
0000
0001
0100
0010
1000
2010
0000
,
3001
0000
0010
0001
1000
0000
0010
0000
0200
0001
0000
0000
0302
0010
0000
0000
,
0013
0100
0000
0000
0020
0000
0000
0000
0031
0000
1000
0010
0100
0000
0010
0000
,
2000
0100
0000
0000
3200
0010
0000
0000
0310
0001
0000
0000
0200
0000
0000
0000
,
0310
0000
1000
0001
0100
0000
0010
0000
2000
0000
0000
0000
3100
0000
1000
0001
,
0010
0100
0020
0000
0031
1000
0001
0000
,
2002
0000
0000
3003
,
0000
0000
0000
0000
,
0000
0000
0000
0000
,
0000
0000
0000
0000
,
0000
0000
0000
0000
,
0000
0000
0000
0001
0010
0100
1000
0010
0100
0001
1000
0100
,
0001
0000
0000
0000
0100
0000
0000
0000
1000
0000
0000
0000
0001
0000
0000
0000
0100
0000
0000
0000
1000
0000
0000
0000
0100
0000
0000
0000
0001
0000
0000
0000
1000
0000
0000
0000
0001
0000
0000
0000
0000
0000
1000
0000
0000
0100
0000
0000
,
1000
0000
0001
0100
0001
0000
1000
0000
0200
1000
0000
0000
2300
0010
0000
0000
,
3010
0100
0000
0000
0001
0000
1000
0010
1000
0000
0001
0010
0001
0000
1000
0000
,
0200
0010
0000
0000
0320
0001
0000
0000
0031
0100
0000
0000
0010
0000
1000
0001
,
0100
0000
0001
1000
0100
0000
1000
0001
0020
0000
0000
0000
0130
0000
0010
0000
,
0001
1000
0020
0230
0302
2003
3200
0320
,
0032
0000
0000
0000
0203
0000
0000
0000
2300
0000
0000
0000
3010
0001
0010
0001
,
1000
0001
0100
0010
1000
0100
0010
0001
,
0100
0000
0000
0010
0000
0000
0100
0000
0000
0000
0000
0000
0001
0000
0000
0000
1000
0000
0000
0000
0010
0000
0000
0000
0100
0000
0000
0000
0001
0000
0000
0000
0010
0000
0000
0000
0100
0000
0000
0000
1000
0000
0000
0000
0001
0000
0000
0000
,
0100
0100
1000
0010
0010
0001
0100
0010
1000
0100
0000
0000
;

//---------------dance-double - ----------------
#NOTEDATA:;
#CHARTNAME:;
#CHARTHASH:2147483647:
#STEPSTYPE:dance-double;
#BANNER:;
#DESCRIPTION:;
#CHARTSTYLE:;
#DIFFICULTY:Easy;
#METER:7;
#METERF:0.000000;
#RADARVALUES:0.260487,0.356068,0.058820,0.285695,0.000000,217.000000,210.000000,7.000000,34.000000,0.000000,0.000000,0.000000,0.000000,0.000000,0.260487,0.356068,0.058820,0.285695,0.000000,217.000000,210.000000,7.000000,34.000000,0.000000,0.000000,0.000000,0.000000,0.000000;
#CREDIT:;
#DISPLAYBPM:180.000000;
#NOTES:
00000000
00000000
00000000
00000000
,
00000000
00000000
00000000
00000000
,
00000000
00000000
00000000
00000000
,
00000000
00000000
00000000
00000000
,
00000000
00000000
00000000
00000000
,
00000000
00000000
00000000
00000000
,
00000000
00000000
00000000
00001000
,
00000010
00010000
00002000
00000000
,
00003000
00100000
01000000
00100000
,
00020000
00000000
00030000
00010000
,
01000000
00001000
00020000
00000000
,
00030000
00000010
00000100
00000010
,
00002000
00000000
00003000
00001000
,
00000100
00000010
00000002
00000100
,
00000103
00000001
00000100
00000010
,
00001000
00001000
00001000
00000100
,
00010000
00001000
00010000
00010000
,
00001000
00200000
00000000
00300000
,
02000000
00000000
03000000
10000000
,
00000000
00000000
00100000
01000000
,
00010000
00100000
00000000
00000000
,
00000000
00001000
00010000
00001000
,
00000000
00000000
00001000
00010000
,
00000100
00001000
00001000
00000000
,
00000001
00000001
00000000
00001000
,
00000000
00000000
00000100
00000010
,
00001000
00000100
00000000
00000000
,
00000000
00010000
00001000
00010000
,
00000000
00000000
00010000
00001000
,
01000000
00010000
00010000
00000000
,
10000000
10000000
00000000
20020000
,
00000000
30030000
10000000
01000000
,
00010000
00002000
00000000
00000000
,
00013000
00001000
00010000
00022000
,
00000000
00033000
00001000
00000100
,
00000001
00001000
00000100
00000010
,
00000001
00000100
00000010
00002002
,
00000000
00003003
00000001
00000100
,
00001000
00020000
00000000
00000000
,
00031000
00010000
00100000
00200000
,
00000000
00300000
10000000
00010000
,
10000000
00010000
00100000
01000000
,
10000000
00100000
01000000
00020000
,
00000000
00030000
00002000
00000000
,
00003000
00000100
00000010
00000001
,
00000100
00000010
00001000
00002000
,
00000000
00003000
00020000
00000000
,
00030000
01000000
00100000
10000000
,
01000000
00100000
00010000
00020000
,
00000000
00030000
00002000
00000000
,
00003000
00000100
00000010
00000001
,
00001000
00000000
00000000
00001001
,
00000100
00000010
00002000
00000000
,
00003010
00000110
00001000
00010000
,
00002000
00000000
00013000
00011000
,
00001000
00100000
00010000
01000000
,
00100000
20000000
00000000
00000000
,
00000000
00000000
30000000
10000000
,
10000000
10000000
00100000
01000000
,
01000000
00001000
00001000
00001000
,
00010000
00010000
00000100
00001000
,
00001000
00001000
00000010
00000010
,
00000010
00000200
00000000
00000300
,
00000020
00000000
00000030
00000001
,
00001000
00000001
00000100
00000010
,
00000010
00010000
00001000
00010000
,
00001000
00100000
00100000
00010000
,
00010000
00010000
10000000
00010000
,
00100000
02000000
00000000
03000000
,
00200000
00000000
00000000
00300000
,
00000000
00000000
00000000
00000000
,
00000000
00000000
00000000
00000000
,
00000000
00000000
00000000
00000000
,
00000000
00000000
00000000
00000000
,
00000000
00000020
00000000
00000030
,
00002002
00000000
00003003
00000010
,
00000100
00010000
00000100
00000100
,
00000100
00010000
00001000
00100000
,
00001000
00001000
00001000
01000000
,
00100000
01000000
00010000
00010000
,
00010000
20000000
00000000
00000000
,
30000000
00000000
00000000
00001000
,
00010000
00000100
00001000
00000010
,
00000100
00000002
00000000
00000000
,
00000000
00000000
00000003
00000100
,
00000000
00000000
00000000
00000000
;

//---------------dance-double - ----------------
#NOTEDATA:;
#CHARTNAME:;
#CHARTHASH:2147483647:
#STEPSTYPE:dance-double;
#BANNER:;
#DESCRIPTION:;
#CHARTSTYLE:;
#DIFFICULTY:Medium;
#METER:11;
#METERF:0.000000;
#RADARVALUES:0.411737,0.498496,0.184862,0.243681,0.000000,343.000000,321.000000,22.000000,29.000000,0.000000,0.000000,0.000000,0.000000,0.000000,0.411737,0.498496,0.184862,0.243681,0.000000,343.000000,321.000000,22.000000,29.000000,0.000000,0.000000,0.000000,0.000000,0.000000;
#CREDIT:;
#DISPLAYBPM:180.000000;
#NOTES:
00000000
00000000
00000000
00000000
,
00000000
00000000
00000000
00000000
,
00000000
00000000
00000000
00000000
,
00000000
00000000
00000000
00000000
,
00000000
00000000
00000000
00000000
,
00000000
00000000
00000000
00000000
,
00000000
00000000
00000000
00000000
00000000
00000000
00010000
00001000
,
00000100
00000001
00000100
00001000
00020000
00000000
00000000
00000000
,
00030000
00100000
00010000
00100000
,
10000000
00000000
01000000
00000000
00010000
00000000
00001000
00010000
,
01000000
10000000
01000000
00010000
00002000
00000000
00000000
00000000
,
00003000
00000010
00000001
00000100
,
00002000
00000000
00000000
00000000
00003000
00000000
00000100
00000001
,
00000010
00000001
00000100
00001000
00020000
00000000
00001000
00000000
,
01030000
00000000
00100000
00000000
00010000
10000000
00010000
00000000
,
00100000
00000000
00010000
00000000
10000000
00000000
01000000
10000000
,
00100000
10000000
01000000
00010000
00002000
00000000
00010000
00000000
,
00003100
00000101
00001000
00010000
,
00022000
00000000
00033000
00100000
,
00000000
01000000
10000000
00000000
00100000
00000000
01000000
00000000
,
00010000
01001000
00000000
00000000
,
00000000
00001000
00010000
00000000
00000010
00000000
00001000
00000000
,
00000000
00000100
00000010
00000000
00000001
00000000
00000100
00000000
,
00000010
00000000
00001000
00000100
00010000
00000100
00001000
00000000
,
00000010
00010000
00001000
00010000
00000010
00000000
00000010
00000000
,
00000000
00010000
00001000
00000000
01000000
00000000
00100000
00000000
,
10000000
11000000
00000000
00000000
,
00000000
00100000
00010000
00000000
01000000
00000000
00100000
00000000
,
00000000
01000000
00100000
00000000
00010000
00000000
00001000
00000000
,
00010000
00000000
00000010
00010000
00001000
01000000
00010000
00000000
,
00100000
00001000
00010000
00000100
00001000
00000000
00002000
00000000
,
00000100
00000001
00003010
00001010
,
00010000
02010000
00100000
10000000
,
03100000
10000000
00100000
10000000
00010000
00000000
00020000
00000000
,
01000000
10000000
00130000
00110000
,
00001000
00000000
00001000
00010000
00100000
00010000
00001000
00000000
,
00010000
00001000
00000100
00001000
00010000
00000000
00020000
00000000
,
00100000
10000000
01030000
01020000
,
00031000
00001020
00000100
00000001
,
00000130
00000001
00000100
00000001
00001000
00000000
00002000
00000000
,
00000010
00000001
00003100
00002100
,
00013000
00000000
00010000
00100000
00010000
00001000
00000100
00000000
,
00001000
00000010
00001000
00010000
01000000
00000000
00200000
00000000
,
00000000
10300000
20000000
00000000
,
31000000
00010000
00001000
00000010
,
00000001
00000100
00001000
00000020
,
00000000
00000031
00000002
00000000
,
00000103
00001000
00010000
00100000
,
10000000
01000000
00010000
00200000
,
00000000
10300000
20000000
00000000
,
31000000
00010000
00001000
00000010
,
00000001
00000000
00000000
00000000
00000000
00000000
00000001
00000100
,
00000010
00001000
00000100
00010000
00002000
00000000
00000000
00000000
,
00013000
00000000
00000010
00001000
00000100
00010000
00001000
00100000
,
00020000
00000000
00000000
00000000
00130000
00000000
00001000
00100000
,
00010000
01000000
00100000
10000000
01000000
00000000
00100000
00000000
,
00110000
00022000
00000000
00000000
,
00033000
00000000
00000000
00011000
,
00010000
00001000
00000100
00000000
00000001
00000000
00001000
00000000
,
00000011
00000000
00000010
00000000
00000001
00000010
00001000
00000000
,
00010000
00000000
00001000
00000000
00011000
00000000
00001000
01000000
,
00010000
01000000
00001000
00000000
00100000
00001000
00010000
00001000
,
00100000
01000000
10000000
00100000
,
00010000
00001000
00000010
00000011
,
00000001
00000100
00001000
00000000
00010000
00000000
00001000
00000000
,
00011000
00000000
00010000
00000000
00001000
00010000
01000000
00000000
,
10000000
00100000
10100000
00100000
,
10000000
01000000
00010000
00000000
00001000
00000000
00010000
00001000
,
00000100
00000001
00001000
00000001
,
00000220
00000000
00000000
00000330
,
00000000
00000000
00000000
00000000
,
00000000
00000000
00000000
00000000
,
00000000
00000000
00000000
00000000
,
00000000
00000000
00000000
00000000
,
00000000
00000000
01100000
00000000
00000000
00010000
00000000
00000000
,
00001000
00000000
00000000
00000110
00000000
00000000
00000001
00001000
,
00000001
00000100
00001000
00000000
00010000
00000000
00000100
00000000
,
00010000
00000000
00001000
00100000
00001000
00010000
01000000
00000000
,
10000000
00000000
00100000
00000000
00010000
00000000
00001000
00010000
,
00001000
00000100
00000001
00000000
00000010
00000000
00001000
00000000
,
00010000
02000000
00000000
03000000
,
00000200
00000000
00000000
00000000
00000300
00000000
00000010
00000001
,
00000010
00000001
00000100
00000000
00000100
00001000
00000100
00001000
,
00010000
00000000
00100000
00000000
00000000
10000000
00000000
00000000
,
01000000
00010000
00001000
00011000
,
00000000
00000000
00000000
00000000
;

//---------------dance-double - ----------------
#NOTEDATA:;
#CHARTNAME:;
#CHARTHASH:1107165536:
#STEPSTYPE:dance-double;
#BANNER:;
#DESCRIPTION:;
#CHARTSTYLE:;
#DIFFICULTY:Hard;
#METER:15;
#METERF:0.000000;
#RADARVALUES:0.695031,0.890171,0.100834,0.504168,0.470557,579.000000,567.000000,12.000000,60.000000,0.000000,0.000000,0.000000,0.000000,0.000000,0.695031,0.890171,0.100834,0.504168,0.470557,579.000000,567.000000,12.000000,60.000000,0.000000,0.000000,0.000000,0.000000,0.000000;
#CREDIT:;
#DISPLAYBPM:180.000000;
#NOTES:
00000000
00000000
00000000
00000000
,
00000000
00000000
00000000
00000000
,
00000000
00000000
00000000
00000000
,
00000000
00000000
00000000
00000000
,
00000000
00000000
00000000
00000000
,
00000000
00000000
00000000
00000000
,
00000000
00000000
00000000
00000000
00000000
00000000
00000000
00000000
00000000
00000000
00000000
00000000
00010000
00000000
00000010
00001000
,
00000010
00010000
00001000
00000100
00000002
00000000
00000000
00000000
,
00001003
00000100
00020000
00000000
00031000
00000100
00001000
00010000
,
01000000
00000000
00100000
01000000
00100000
00000000
00010000
00000000
00100000
00000000
00000000
00000000
00001000
00000000
00100000
00010000
,
00100000
00001000
00010000
01000000
20000000
00000000
00000000
00000000
,
31000000
00000000
00010000
00000000
00001000
00000000
00000000
00000100
00000000
00000000
00000001
00000000
00000010
00000000
00001000
00000000
,
00020000
00000000
00000000
00000000
00001000
00000000
00000000
00000000
00001000
00000000
00000000
00000000
00031000
00000000
01000000
00001000
,
00010000
00100000
10000000
00010000
00100000
01000000
00100000
00001000
,
00010000
00001000
00000100
00000001
00000100
00000010
00001000
00000100
,
00000010
00000000
00000001
00000100
00000010
00000000
00000100
00000000
00001000
00000000
00010000
00000000
00001000
00000000
00100000
00001000
,
00010000
01000000
10000000
00010000
01000000
00100000
00010000
00001000
,
00000100
00000010
00001000
00000100
00000010
00000001
00000100
00000010
,
00001000
00000010
00001000
00000010
00010000
00001000
00010000
00001000
00010000
00000000
00001000
00000000
00011000
00000000
00000000
00000000
,
01000000
00000000
00001000
01000000
00010000
00000000
00100000
00000000
01000000
00000000
00000000
00000000
10000000
00000000
00000000
00000000
,
00100000
00000000
10100000
00000000
00100000
10000000
00010000
01000000
,
00100000
00000000
10000000
00010000
10000000
00000000
01000000
00000000
00010000
00000000
00001000
00000000
00010000
00000000
00000000
00000000
,
00000100
00001000
00000100
00000010
00000001
00000000
00000100
00000000
,
00000101
00000000
00000001
00000100
00001000
00010000
00100000
00000000
,
10000000
01000000
00010000
00001000
00000010
00000001
00001001
00000000
,
00000010
00000000
00010000
00000010
00001000
00000000
00000100
00000000
00000010
00000000
00000000
00000000
00000001
00000000
00000000
00000000
,
00000100
00000000
00000101
00000000
00000100
00000001
00001000
00000010
,
00000100
00000000
00000001
00001000
00000001
00000000
00000010
00000000
00001000
00000000
00010000
00000000
00001000
00000000
00000000
00000000
,
00100000
00010000
00100000
01000000
10000000
00000000
00100000
00000000
,
10100000
00000000
10000000
00100000
00010000
00001000
00000100
00000000
,
00000001
00000010
00001000
00010000
01000000
00000000
20000000
00000000
,
30010000
00000000
01000000
00100000
01000000
00000000
00010000
00000000
10000000
01000000
00000000
00000000
01000000
00100000
00000000
00000000
,
00100000
00010000
00000000
00000000
00020000
01000000
00000000
00000000
10000000
00000000
00000000
00000000
00100000
00000000
00000000
00000000
,
00031000
00000000
00010000
00001000
00010000
00000000
00001000
00000000
00000100
00000000
00000010
00000000
00000002
00000000
00000000
00000000
,
00000103
00001000
00010000
00001000
00000020
00000000
00000032
00000000
,
00000203
00000000
00000310
00010000
00001000
00010000
00200000
00000000
,
01300000
00001000
00010000
00001000
00000010
00000001
00001001
00000000
,
00001000
00000000
00000100
00000010
00000100
00000000
00001000
00000000
00000001
00000100
00000000
00000000
00000100
00000010
00000000
00000000
,
00000010
00001000
00000000
00000000
00002000
00000100
00000000
00000000
00000001
00000000
00000000
00000000
00000010
00000000
00000000
00000000
,
00013000
00000000
00001000
00010000
00001000
00000000
00010000
00000000
01000000
00000000
00100000
00000000
20000000
00000000
00000000
00000000
,
31000000
00010000
00001000
00000010
00000200
00000000
00002300
00000000
,
00003020
00000000
00000031
00000010
00000100
00001000
00010000
00000000
,
00001000
00000000
00010000
00000000
00100000
00000000
01000000
00000000
00100000
01000000
00100000
00000000
20000000
00000000
00000000
00000000
,
00000000
31000000
00020000
00000000
,
00031000
00000000
00000010
00001000
00010000
00100000
00010000
00001000
,
00000010
00000000
00000000
00001000
00000000
00000000
00010000
00000000
00001000
00000000
00000100
00000000
00000001
00000000
00000000
00000000
00000000
00000000
00000002
00000000
00000000
00000000
00000000
00000000
,
00000000
00000013
00002000
00000000
,
00013000
00000000
01000000
00010000
00001000
00000100
00001000
00010000
,
01000000
00000000
00000000
00010000
00000000
00000000
00001000
00000000
00010000
00000000
00100000
00000000
10000000
00000000
00000000
00000000
00000000
00000000
20000000
00000000
00000000
00000000
00000000
00000000
,
00000000
31000000
00020000
00000000
,
00031000
00000000
00010000
01000000
00010000
00001000
00010000
01000000
,
00010000
00000000
00000000
00001000
00000000
00000000
00010000
00000000
00001000
00000000
00000100
00000000
00000001
00000000
00000000
00000000
00000000
00000000
00000001
00000000
00000010
00000000
00000001
00000000
,
00000100
00000000
00000010
00000000
00000100
00000000
00000001
00000000
00000010
00000000
00000001
00000000
00001000
00000000
00000000
00001000
00000000
00000000
00000010
00000000
00000000
00000010
00000000
00000000
,
00000100
00000000
00000000
00000100
00000000
00000000
00000010
00000000
00001000
00000000
00000010
00000000
00010000
00000000
00001000
00000000
00010000
00000000
00000100
00000000
00001000
00000000
00000100
00000000
,
00010000
00000000
00000000
00010000
00000000
00000000
00001000
00000000
00000000
00001000
00000000
00000000
00100000
00000000
00000000
00100000
00000000
00000000
00001000
00000000
00010000
00000000
00001000
00000000
,
00100000
00010000
00100000
00001000
00010000
00001000
01000000
00100000
01000000
00010000
00100000
00010000
,
10000000
00000000
00000000
00000000
00100000
00000000
00000000
00000000
10000000
00000000
00000000
00000000
02000000
00000000
00000000
00000000
00000000
00000000
00000000
00000000
00000000
00000000
00000000
00000000
00000000
00000000
00000000
00000000
00000000
00000000
00000000
00000000
00000000
00000000
00000000
00000000
00000000
00000000
00000000
00000000
00000000
00000000
13000000
00000000
00000000
00010000
00000000
00000000
,
10000000
00000000
00000000
10020000
,
01030000
00000000
00100000
10000000
00010000
00000000
01000000
00000000
00200000
01000000
00000000
00000000
00320000
00001000
00000000
00000000
,
00030010
00000000
00000000
00000000
00000120
00000000
00000000
00000000
00001030
00000000
00000100
00001000
00000100
00000000
00000010
00000000
,
00000001
00000000
00000100
00000000
00001000
00000000
00000100
00000000
00000001
00000000
00000010
00000000
00000100
00001000
00000100
00001000
,
00000001
00000000
00000100
00000000
00001000
00000000
00010000
00000000
00001000
00100000
00001000
00100000
00010000
00000000
01000000
00000000
,
10000000
01000000
00020000
00000000
10030000
00100000
00010000
00000000
,
00011000
00000000
00010000
00000010
00001000
00000001
00002001
00000000
,
00003010
00000000
00000100
00000001
00001000
00000000
00000100
00000000
00000020
00000100
00000000
00000000
00002030
00010000
00000000
00000000
,
01003000
00000000
00000000
00000000
02100000
00000000
00000000
00000000
03010000
00000000
00100000
00010000
00100000
00000000
01000000
00000000
,
10000000
00100000
00010000
00001000
00000100
00000010
00002000
00000000
,
00003100
00000000
00000010
00000100
00000010
00000000
00001000
00000000
00020000
00000000
00000000
00000000
00031000
00000000
00010000
00001000
,
00010000
01000000
10000000
00010000
00100000
00010000
01000000
00100000
,
20000000
00000000
30000000
00200000
,
00000000
00320000
00030020
00000000
,
00002030
02003000
00000000
03020000
,
00030200
00000000
00000320
00020030
,
00000000
00230000
00302000
00000000
,
00003010
00000000
00000000
00000010
00000001
00001000
00000001
00000100
00000010
00001000
00000100
00010000
,
00001000
00000000
00000000
00000000
00100000
00000000
00000000
00000000
00010000
00000000
00000000
00000000
01000000
00000000
00000000
00000000
00100000
00000000
00000000
00000000
10000000
00000000
00000000
00000000
00010000
00000000
00000000
00000000
01000000
00000000
00000000
00000000
00100000
00000000
00000000
00000000
10000000
00000000
00000000
00000000
00000000
00000000
00100000
00000000
00000000
10000000
00000000
00000000
,
00010000
00000000
00010000
10000000
00100000
00000000
00100000
00000000
00010000
00002000
00000000
00000000
00003100
00000002
00000000
00000000
,
00001003
00000000
00000000
00000000
00000001
00000000
00000100
00000001
00001000
00000000
00001000
00000010
00000100
00000000
00000100
00000000
,
00001000
00020000
00000000
00000000
01030000
20000000
00000000
00000000
30010000
00000000
00010000
00000000
01000000
00000000
00010000
10000000
,
01000000
00000000
00100000
00001000
00010000
00000000
00001000
00000000
00000010
00000000
00000100
00000000
00001000
00000000
00000001
00000000
,
00000100
00000000
00000010
00000000
00002000
00000000
00003001
00000010
00000002
00000000
00000013
00001000
00000020
00000000
00002030
00000000
,
00023000
00000000
02030000
00000000
23000000
00000000
30200000
00000000
00320000
00000000
00032000
00000000
00013000
00001000
00010000
00001000
,
00000010
00000001
00000100
00001000
00010000
00001000
00000010
00000001
,
00001000
00000000
00000000
00000001
00000000
00000000
00001000
00000000
00000000
00000000
00000000
00000000
00000001
00000000
00000000
00000000
00000010
00000000
00000000
00000000
00000100
00000000
00000000
00000000
00001000
00000000
00000000
00000000
00000010
00000000
00000000
00000000
00000100
00000000
00000000
00000000
00001000
00000000
00000000
00000000
00010000
00000000
00000000
00000000
00001000
00000000
00000000
00000000
,
00010000
00100000
01000000
00010000
00100000
01000000
10000000
00100000
01000000
10000000
00000000
00000000
,
00000000
00000000
00000000
00000000
;

//---------------dance-single - ----------------
#NOTEDATA:;
#CHARTNAME:;
#CHARTHASH:0:
#STEPSTYPE:dance-single;
#BANNER:;
#DESCRIPTION:;
#CHARTSTYLE:;
#DIFFICULTY:Challenge;
#METER:18;
#METERF:0.000000;
#RADARVALUES:0.991530,1.142885,0.470557,0.268889,0.970523,826.000000,770.000000,56.000000,32.000000,0.000000,0.000000,0.000000,0.000000,0.000000,0.991530,1.142885,0.470557,0.268889,0.970523,826.000000,770.000000,56.000000,32.000000,0.000000,0.000000,0.000000,0.000000,0.000000;
#CREDIT:;
#DISPLAYBPM:180.000000;
#NOTES:
// measure 0
0000
0000
0000
0000
,  // measure 1
0000
0000
0000
0000
,  // measure 2
0000
0000
0000
0000
,  // measure 3
0000
0000
0000
0000
,  // measure 4
0000
0000
0000
0000
,  // measure 5
0000
0002
0000
0000
,  // measure 6
0000
0000
0000
0000
0000
0000
0000
0000
1003
0100
0010
0001
1000
0000
0010
0100
,  // measure 7
0001
0010
0100
1000
0020
0000
0100
0000
,  // measure 8
0130
0001
0012
0000
1003
0100
0001
0100
,  // measure 9
1000
0000
0001
0100
0010
0000
1000
0100
0010
0000
0001
0000
0100
0000
0010
1000
,  // measure 10
0001
0010
0100
1000
1020
0000
0100
0000
,  // measure 11
0130
0000
0001
0000
2000
0000
0000
3002
0000
0000
1003
0000
0100
0000
0010
0000
,  // measure 12
0001
0000
0100
0010
0100
0000
0001
1000
0001
0000
1000
0100
0010
0000
0001
0100
,  // measure 13
0001
0000
0010
0000
0100
1000
0010
0000
1000
0000
0100
0010
0100
0000
0010
0001
,  // measure 14
1000
0000
0010
0000
0100
0000
0001
1000
0001
0000
0010
0100
1000
0000
0001
0000
,  // measure 15
0100
0000
0010
1000
0100
0000
1000
0001
0010
0000
0100
0000
1000
0000
0010
1000
,  // measure 16
0001
0000
0010
0000
0100
1000
0001
0000
0010
0000
0001
0100
0000
0100
0010
0000
,  // measure 17
1000
0000
0001
0000
1000
0000
0100
0000
0010
0000
1000
0000
0010
0001
0100
0010
,  // measure 18
1000
0100
1000
0100
0010
0001
0010
0001
1000
0010
0100
0001
0020
0000
0000
0000
,  // measure 19
0031
0000
0100
0010
1000
0000
0001
0000
0011
0000
0000
0000
1100
0000
0000
0000
,  // measure 20
0101
0000
1001
0000
0100
0100
0010
0010
,  // measure 21
1000
0000
0001
0100
0001
0000
0010
0100
1000
0000
0001
0000
0100
0010
0100
0010
,  // measure 22
0100
0010
0100
0010
1000
0000
0001
0000
0101
0000
0000
0000
1100
0000
0000
0000
,  // measure 23
0110
0000
0011
0001
0101
0100
0110
0000
,  // measure 24
1010
0000
1000
0000
1001
0000
0001
0000
0101
0000
0000
0000
0010
0000
1000
0010
,  // measure 25
0100
1000
0100
0001
0010
0100
1000
0000
1001
0000
0000
0000
1100
0000
0000
0000
,  // measure 26
0011
0000
1010
0000
0001
0001
1000
1000
,  // measure 27
0100
0000
1000
0010
0100
0000
0001
1000
0001
0000
0010
0000
0100
0010
0100
0010
,  // measure 28
0100
0010
0100
0010
0001
0000
1000
0000
1100
0000
0000
0000
0011
0000
0000
0000
,  // measure 29
1001
0000
1100
0001
0101
0100
0110
0001
,  // measure 30
1001
0100
1010
0001
0101
0100
0110
0010
,  // measure 31
1000
0100
0010
0001
0100
0000
0010
0000
1000
0100
1000
0000
0001
0100
0001
0000
,  // measure 32
1000
0100
0001
0000
0011
0000
0100
0000
1000
0010
1000
0000
0001
0100
0001
0000
,  // measure 33
0010
0000
0001
0100
0010
0001
0010
1000
0100
0000
0010
0000
0001
0000
0100
0010
,  // measure 34
1000
0010
0100
0001
0010
0000
0100
0000
1000
0010
1000
0000
0001
0010
0001
0000
,  // measure 35
1000
0010
0001
0000
0011
0000
0110
0000
1100
0000
0110
0000
0011
0000
0000
0000
,  // measure 36
1100
0110
0011
0110
1100
0000
1002
0000
,  // measure 37
0103
0010
1000
0001
0010
0100
1000
0000
0001
0010
0100
0000
1000
0100
0010
0000
,  // measure 38
0001
1000
0001
0000
1010
0000
0100
0000
0001
0010
0001
0000
1000
0100
1000
0000
,  // measure 39
0010
0000
1000
0001
1000
0100
0010
0001
0100
0000
0010
0000
1000
0000
0001
0000
,  // measure 40
0010
0000
0100
0000
1000
0010
1000
0000
0001
0100
0001
0000
0100
0001
0100
0000
,  // measure 41
0001
0100
0001
0000
0011
0000
1001
0000
1100
0000
1001
0000
0011
0000
0000
0000
,  // measure 42
1100
1001
0011
1001
1100
0000
0102
0000
,  // measure 43
1003
0001
0200
0000
0320
0000
1030
0010
,  // measure 44
0200
0000
0000
0000
0301
0100
0010
0000
1000
0010
0100
0000
0001
1000
0001
0000
,  // measure 45
0010
0000
0000
0010
0001
0100
1000
0000
0000
2010
0000
0000
,  // measure 46
3001
0100
0020
0000
2030
0000
3100
0010
,  // measure 47
0002
0000
0000
0000
0013
0001
1000
0000
0010
0100
0001
0000
1000
0100
1000
0000
,  // measure 48
0010
0000
0000
0000
0000
0000
0000
0000
0000
0000
0000
0000
0010
0000
0000
0000
1000
0000
0000
0000
0100
0000
0000
0000
0001
0000
0000
0000
0000
0000
0000
0000
0000
0000
0000
0000
0010
0000
0000
0001
0000
0000
0010
0000
0000
0100
0000
0000
,  // measure 49
1000
0000
0001
0000
0200
0000
0000
0000
0310
1000
0001
1000
0100
0000
0010
0000
,  // measure 50
0002
0000
0000
0000
1003
0100
1000
0000
0001
0100
0001
0000
0010
0100
1000
0000
,  // measure 51
0010
0000
0000
0000
0000
0000
0010
0000
0100
0000
0001
0000
1000
0000
0000
0100
0000
0000
1000
0000
0100
0000
0001
0000
,  // measure 52
0010
0000
0100
0000
1000
0000
0010
0000
1000
0000
0001
0000
0100
0000
0000
0100
0000
0000
0100
0000
0000
0100
0000
0000
,  // measure 53
0100
0000
0000
0100
0000
0000
0001
0000
0010
0000
0100
0000
1000
0000
0010
0000
0001
0000
1000
0000
0100
0000
0010
0000
,  // measure 54
0001
0000
0000
0001
0000
0000
0001
0000
0000
0001
0000
0000
0001
0000
0000
0001
0000
0000
1000
0000
1000
0000
1000
0000
,  // measure 55
0100
0100
0100
0010
0010
0010
0001
0001
0001
1000
0100
0001
,  // measure 56
1000
0000
0000
0000
0010
0000
0000
0000
0001
0000
0000
0000
0200
0000
0000
0000
0000
0000
0000
0000
0000
0000
0000
0000
0000
0000
0000
0000
0000
0000
0000
0000
0000
0000
0000
0000
0000
0000
0000
0000
0000
0000
0301
0000
0000
1000
0000
0000
,  // measure 57
0002
0000
0000
0000
0000
0000
0000
0000
0013
0001
0100
0001
1000
0000
0010
1000
,  // measure 58
0001
0000
0010
0100
1000
0000
0001
0000
0100
0000
0010
0000
1000
0001
0010
0100
,  // measure 59
1000
0000
0001
0000
0100
0000
0001
0010
0001
0000
1000
0100
0010
0000
0001
0000
,  // measure 60
0100
0010
1000
0001
0010
0001
0010
0100
0001
1000
0100
1000
0010
1000
0010
0100
,  // measure 61
0001
0010
0100
1000
0001
0000
0100
0000
0001
0010
0001
0100
0001
1000
0100
0010
,  // measure 62
0001
1000
0020
1000
1000
0100
0130
0001
,  // measure 63
0020
0000
1000
0000
1000
0000
0001
0000
0031
0100
0010
1000
0001
0000
1000
0010
,  // measure 64
1000
0000
0100
0010
0001
0000
1000
0000
0010
0000
1000
0100
0001
0000
1000
0010
,  // measure 65
0001
0000
0100
0000
0010
0000
1000
0001
1000
0000
0100
0010
0001
1000
0001
0000
,  // measure 66
0100
0000
0010
0100
0001
1000
0100
0001
0100
0010
0100
1000
0001
0000
0010
0001
,  // measure 67
0100
0000
0010
1000
0001
0000
0100
0000
0010
0000
1000
0001
0100
0000
0010
1000
,  // measure 68
0100
0010
0002
0100
0100
1000
1003
0010
,  // measure 69
2000
0000
0100
0000
0100
0000
0010
0000
3010
1000
0001
0010
0200
0000
0000
0000
,  // measure 70
0000
0000
1300
0010
1000
0000
0001
0000
0200
0000
0000
0000
0010
0000
0000
0000
,  // measure 71
0320
0000
0000
0000
2030
0000
0000
0000
0000
0000
3001
0010
0001
0000
0100
0000
,  // measure 72
0020
0000
0000
0000
1030
0000
0010
0000
1000
0000
0001
0000
0010
0001
0010
0100
,  // measure 73
0010
1000
0010
0000
0001
0000
1000
0000
0010
0001
0010
0100
0010
1000
0010
0000
,  // measure 74
0100
0000
0000
0001
0000
0000
1000
0000
1000
0000
1000
0000
0001
0000
0001
0000
0001
0000
0100
0000
0100
0000
0100
0000
,  // measure 75
0010
0000
0000
0000
0010
0000
0000
0000
0010
0000
0000
0000
1000
0000
0000
0000
0100
0000
0000
0000
0001
0000
0000
0000
1000
0000
0000
0000
0010
0000
0000
0000
0001
0000
0000
0000
1000
0000
0000
0100
0000
0000
1000
0000
0000
0100
0000
0000
,  // measure 76
0010
0001
0010
0001
0100
0000
0010
0000
1000
0000
0001
0100
0001
0000
0010
0100
,  // measure 77
1000
0000
0001
0000
0100
0010
0100
0001
0010
0100
1000
0001
1000
0000
0010
0000
,  // measure 78
1000
0010
0100
0001
0010
0001
0100
0010
0001
1000
0100
1000
0010
0000
1000
0100
,  // measure 79
1000
0000
0001
0100
0001
0000
0010
0100
1000
0000
0001
0010
0001
0000
0100
0010
,  // measure 80
1000
0000
0001
0000
1001
0000
1000
0100
0001
0000
0010
0000
0100
1000
0001
0000
,  // measure 81
2010
0000
0000
0000
0001
0000
0100
0000
3100
0000
0000
0000
1000
0001
0100
0010
,  // measure 82
0001
0100
1000
0010
0100
1000
0010
0001
0010
0100
0001
1000
0100
0001
1000
0010
,  // measure 83
0100
0000
0000
0010
0000
0000
0001
0000
0000
1000
0000
0000
0001
0000
0000
0000
0001
0000
0000
0000
0100
0000
0000
0000
0100
0000
0000
0000
0010
0000
0000
0000
0010
0000
0000
0000
1000
0000
0000
0000
1000
0000
0000
0000
0100
0000
0000
0000
,  // measure 84
0100
0010
0010
0001
0001
1000
1000
0001
0200
0020
0000
0000
,  // measure 85
0000
0000
0000
0000
,  // measure 86
0000
0000
0000
0000
,  // measure 87
0000
0000
0000
0330
;
