#TITLE:Win the Game;
#ARTIST:DKC Crew;
#BANNER:Win the Game-bn.png;
#BACKGROUND:Win the Game-bg.png;
#JACKET:Win the Game-jacket.png;
#MUSIC:Win the Game.ogg;
#SAMPLESTART:8.692;
#SAMPLELENGTH:20;
#BPMS:0=107;
#BGCHANGES:;

//---------------dance-single - ----------------
#NOTES:
     dance-single:
     :
     Beginner:
     2:
     :
0000
0000
0000
0000
,
0000
0000
0000
0000
,
0000
0000
0000
0000
,
0000
0000
0000
0000
,
1000
0000
0000
0000
,
0001
0000
0000
0000
,
0010
0000
0000
0000
,
0000
0000
0000
0000
,
1000
0000
1000
0000
,
0001
0000
0001
0000
,
1000
0000
1000
0000
,
0001
0001
0001
0000
,
0010
0000
0010
0000
,
0100
0000
0100
0000
,
0010
0000
0010
0000
,
0000
0000
0000
0000
,
1000
0000
0000
0000
,
0001
0000
0000
0000
,
1000
0000
0010
0000
,
0100
0100
0100
0000
,
0000
0000
0010
0010
,
0000
0000
0010
0010
,
0000
0000
0010
0010
,
0000
0000
0000
0000
,
0010
0000
0001
0000
,
1000
0000
0010
0000
,
0010
0000
0001
0000
,
0000
0000
0000
0000
,
1000
0000
0000
0000
,
0001
0000
0000
0000
,
1000
0000
0010
0000
,
0100
0100
0100
0000
,
0000
0000
0001
0001
,
0000
0000
1000
1000
,
0000
0000
0001
0001
,
0000
0000
1000
1000
,
1000
0000
0000
0000
,
0001
0000
0000
0000
,
1000
0000
0010
0000
,
0100
0100
0100
0000
;

//---------------dance-single - ----------------
#NOTES:
     dance-single:
     :
     Easy:
     5:
     :
0000
0000
0000
0000
,
0000
0000
0000
0000
,
0000
0000
0000
0000
,
0000
0000
0000
0000
,
1000
0000
0001
0000
,
0010
0000
0100
0000
,
1000
0001
1000
0000
,
0010
0010
0100
0000
,
0001
0000
1000
0001
,
0001
0000
0100
0100
,
1000
0000
0001
1000
,
0001
1000
0001
0000
,
0100
0000
0100
0010
,
0010
0000
0010
1000
,
0100
0000
0100
0010
,
0020
0000
0000
0030
,
1000
0000
0001
0000
,
0010
0000
0100
0000
,
1000
0100
1000
0100
,
1100
1100
1100
0000
,
0001
0100
0001
0000
,
0001
0100
0001
0010
,
0001
0100
0001
1000
,
0100
1000
0100
0000
,
0010
0010
0010
0000
,
0010
0010
0001
0000
,
0010
0010
0010
0000
,
0200
0000
0000
0300
,
0001
0000
1000
0000
,
0010
0000
0100
0000
,
0001
0100
0001
0100
,
0101
0101
0101
0000
,
1000
1000
1000
1000
,
0100
0100
0100
0100
,
0001
0001
0001
0001
,
0010
0010
0010
0010
,
1000
0000
0001
0000
,
0010
0000
0100
0000
,
1000
0100
1000
0100
,
1100
1100
1100
0000
;

//---------------dance-single - ----------------
#NOTES:
     dance-single:
     :
     Medium:
     8:
     :
0000
0000
0000
0000
,
0000
0000
0000
0000
,
0000
0000
0000
0000
,
0000
0000
0000
0000
,
1000
0100
1000
0010
0100
0001
0010
0000
,
0100
1001
0100
1001
,
0010
0100
0010
0000
0010
0100
0010
0000
,
1000
1100
0001
0101
,
0000
0000
1000
0000
0010
0010
0110
0000
,
0000
0000
0100
0000
0001
1000
1001
0000
,
0000
0000
0001
0000
0010
0010
0110
0000
,
1000
0001
1000
0000
1000
0001
1000
0000
,
0000
0000
0010
0000
1000
0100
1000
0100
,
0000
0000
1000
0000
0100
0001
0100
0001
,
0000
0000
0010
0000
0001
0100
0001
0100
,
0020
0000
0000
0000
1000
1000
1000
1030
,
1000
0100
1000
0010
0100
0001
0010
0000
,
0100
1001
0100
1001
,
0010
1000
0001
0100
0010
1000
0001
0000
,
0110
0110
0110
0000
,
1000
0100
0110
0000
,
0021
0100
0001
0030
,
0201
0010
0001
0300
,
1020
0100
1000
0030
,
0201
0010
1000
0010
,
0001
1000
0001
0300
,
1200
0010
0001
0010
,
1000
0000
0000
0000
0001
0001
0001
0301
,
0001
0100
0001
0010
0100
1000
0010
0000
,
0100
1001
0100
1001
,
0010
0001
1000
0100
0010
0001
1000
0000
,
0110
0110
0110
0000
,
1000
0100
0010
0001
,
0100
0000
0100
0000
0100
0010
0100
0010
,
1000
0100
0010
0001
,
0100
0000
0100
0000
0100
0010
0100
0010
,
1000
0100
1000
0010
0100
0001
0010
0000
,
0100
1001
0100
1001
,
0010
1000
0001
0100
0010
1000
0001
0000
,
0110
0110
0110
0000
,
1000
0001
0000
0000
;

//---------------dance-single - ----------------
#NOTES:
     dance-single:
     :
     Hard:
     10:
     :
0000
0000
0000
0000
,
0000
0000
0000
0000
,
0000
0000
0000
0000
,
0000
0000
0000
0000
,
1000
0100
0001
0010
0001
0100
1000
0000
,
0100
0100
0101
0000
1000
0100
1100
0000
,
0010
0010
0100
0001
1000
1000
0010
0000
,
1000
1000
1100
0000
0010
0001
0101
0000
,
0000
0000
1000
0000
0010
0000
0100
0001
0100
0000
0010
0000
0010
0000
0000
0000
,
0000
1000
0100
0000
0010
0000
0001
1000
0001
0000
0010
0000
0110
0000
0000
0000
,
0000
0000
0001
0000
0010
0000
0100
1000
0100
0000
0010
0000
0010
0000
1000
0000
,
0100
0010
1000
0001
0100
0100
1001
0000
,
0000
0100
0000
0010
1000
0001
1000
0010
,
0000
0100
0110
0000
0010
1100
0011
0000
,
0000
0100
0000
0010
0001
1000
0001
0010
,
0000
0000
0100
0010
0100
0010
0100
0000
1000
0000
1001
0000
0001
0000
1001
0000
,
1000
0100
0001
0010
0001
0100
1000
0000
,
0100
0100
0101
0000
1000
0100
1100
0000
,
0010
0001
0100
1000
0100
0001
0010
0000
,
0011
0011
0011
0000
,
1000
0000
1010
0000
1000
1000
0100
0000
,
0001
0000
0011
0000
0101
0001
0010
0000
,
0100
0000
1010
0000
1001
0100
0100
0000
,
0001
0000
1100
0000
0010
0001
1001
0000
,
0100
0100
0100
0100
,
0100
0100
0100
0000
,
0010
0010
0010
0010
,
0000
0000
1000
0001
1000
0001
1000
0000
0010
0000
0110
0000
0100
0000
0110
0000
,
0001
0100
1000
0010
1000
0100
0001
0000
,
0100
0100
1100
0000
0001
0100
0101
0000
,
0010
1000
0100
0001
0100
1000
0010
0000
,
1010
1010
1010
0000
,
0000
0000
0100
0001
0100
0001
0100
0000
0001
0000
0000
0001
0000
0000
0001
0000
,
0000
0000
0010
1000
0010
1000
0010
0000
0001
0000
1000
0000
0001
0000
0100
0000
,
0000
0000
0100
1000
0100
1000
0100
0000
1000
0000
0000
1000
0000
0000
1000
0000
,
0000
0000
0010
0001
0010
0001
0010
0000
1000
0000
0001
0000
1000
0000
0001
0000
,
1000
0100
0001
0010
0001
0100
1000
0000
,
0100
0100
0101
0000
1000
0100
1100
0000
,
0010
0001
0100
1000
0100
0001
0010
0000
,
0011
0011
0011
0000
,
1000
0001
0000
0000
;

//---------------dance-single - ----------------
#NOTES:
     dance-single:
     :
     Challenge:
     13:
     :
0000
0000
0000
0000
,
0000
0000
0000
0000
,
0000
0000
0000
0000
,
0000
0000
0000
0000
,
1000
0100
1000
0010
0100
0001
0010
0000
0011
0000
0000
0011
0000
0000
0011
0000
,
0001
0000
0000
0000
0100
0000
0010
0000
1000
0000
0010
0000
0100
0000
0000
0001
2000
0000
0000
0000
3200
0000
0000
0000
2300
0000
0000
0000
3002
0000
0000
0000
,
0103
0000
0010
1000
0001
1000
0100
0000
1100
0000
0000
1100
0000
0000
1100
0000
,
0010
0000
0000
0000
1000
0000
0001
0000
0100
0000
0001
0000
1000
0000
0000
0010
0200
0000
0000
0000
0302
0000
0000
0000
2003
0000
0000
0000
3002
0000
0000
0000
,
0013
0000
0011
0000
1001
0000
0001
0100
1000
0000
1100
0000
1020
0000
0000
0000
,
0130
0000
0110
0000
1001
0000
1000
0010
0001
0000
0011
0000
0102
0000
0000
0000
,
0013
0000
0110
0000
1000
0001
0100
0000
0101
0000
1100
0000
0101
0000
0020
0000
,
2030
3002
0023
0230
1300
1010
0012
0000
,
0103
0000
0001
0010
0100
1000
0001
0000
0100
0000
0010
1000
0000
1000
0001
0000
,
0010
0000
0001
1000
0010
1000
0100
0000
2000
0000
3002
0000
0023
0000
0230
0000
,
1300
0000
0010
0100
0010
1000
0001
0000
0010
0000
0001
0100
0000
0001
1000
0000
,
0010
0000
1000
0001
0100
0001
1000
0000
1010
0000
0101
0000
0011
0000
1100
0000
,
0010
1000
0100
0010
0001
1000
0001
0000
0101
0000
0000
0101
0000
0000
0101
0000
,
1000
0000
0000
0000
0001
0000
0010
0000
0001
0000
1000
0000
0100
0000
0000
0010
0002
0000
0000
0000
2003
0000
0000
0000
3020
0000
0000
0000
2030
0000
0000
0000
,
3100
0000
1000
0001
0010
0001
1000
0000
1010
0000
0000
1010
0000
0000
1010
0000
,
0100
0000
1000
0010
0100
0001
0010
0000
0002
0000
2003
0000
3200
0000
0320
0000
,
0031
0100
0001
0100
0102
1000
1003
0000
,
1000
0100
1000
0100
2100
0001
3001
0000
,
0001
0000
0010
0000
0001
0000
0010
0000
0012
0000
1000
0000
1003
0000
0000
0010
,
1000
0000
0000
0001
0100
0000
0000
0000
2001
0000
0100
0000
3100
0000
0000
1000
,
0001
0000
0000
0100
0010
0000
0000
0000
1020
0000
0100
0000
0130
0000
0000
0000
,
0001
0000
0000
0000
0000
0000
0000
0000
0011
0000
0000
0000
0000
0000
1000
0000
0002
0000
0000
0000
0100
0000
0000
0000
0103
0000
0000
0000
0000
0000
0001
1000
,
0001
0000
0000
0000
0011
0000
0000
0000
1100
0000
0000
0000
0101
0000
0000
0100
,
0010
0000
0000
0000
1000
0000
0100
0000
1000
0000
0001
0000
0100
0000
0000
0001
0010
0000
0000
0000
1001
0000
0000
0000
0110
0000
0000
0000
1001
0000
0000
0000
,
0010
1000
0100
1000
0010
0100
0001
0000
1001
0000
0000
1001
0000
0000
1001
0000
,
0100
0000
0000
0000
1000
0000
0001
0000
0100
0000
0010
0000
1000
0000
0000
0010
0200
0000
0000
0000
0320
0000
0000
0000
2030
0000
0000
0000
3002
0000
0000
0000
,
0013
0000
0001
1000
0010
1000
0100
0000
0110
0000
0000
0110
0000
0000
0110
0000
,
0001
0000
0100
0010
1000
0001
1000
0000
0002
0000
0023
0000
0230
0000
2300
0000
,
3010
0000
1000
0001
0010
0100
1000
0000
0010
0000
0100
0001
0000
0100
0001
0000
,
0000
0000
0010
0001
1000
0001
0100
0000
0020
0000
2030
0000
3020
0000
0230
0000
,
0301
0000
0010
0001
1000
0100
0010
0000
0001
0000
1000
0010
0000
1000
0010
0000
,
0000
0000
0100
0010
1000
0001
0010
0000
0200
0000
2300
0000
3002
0000
0203
0000
,
0310
0000
1000
0001
0010
0100
1000
0000
0010
0000
1000
0001
0000
0100
0010
0000
,
1000
0000
0000
0000
0100
0000
0010
0000
0001
0000
1000
0000
0001
0000
0000
0100
0020
0000
0000
0000
2030
0000
0000
0000
3002
0000
0000
0000
0023
0000
0000
0000
,
0130
0000
1000
0010
0100
0001
0010
0000
0001
0000
1000
0100
0000
0010
0001
0000
,
0100
0000
0010
1000
0001
0010
0100
0000
1100
0000
0110
0000
0011
0000
1001
0000
,
0110
0000
0000
0000
0010
0000
1000
0000
0001
0000
1000
0000
0100
0000
0000
0000
0010
0000
0001
0100
0001
0000
0010
0000
0100
1000
0100
0000
1000
0000
0001
0010
,
0000
0000
0000
0000
0001
0000
0100
0000
0010
0000
1000
0000
0100
0000
0000
1000
0001
0000
0100
0010
0100
0000
0001
0000
1000
0000
0010
0000
0100
0000
0000
0000
,
0101
0000
0000
0000
;
