#TITLE:Wildest Dreams;
#SUBTITLE:;
#ARTIST:Taylor Swift;
#TITLETRANSLIT:;
#SUBTITLETRANSLIT:;
#ARTISTTRANSLIT:;
#GENRE:;
#CREDIT:;
#BANNER:Wildest Dreams-bn.png;
#BACKGROUND:Wildest Dreams-bg.png;
#LYRICSPATH:;
#CDTITLE:;
#MUSIC:Wildest Dreams.ogg;
#OFFSET:-0.062500;
#SAMPLESTART:41.196877;
#SAMPLELENGTH:20.000000;
#SELECTABLE:YES;
#DISPLAYBPM:140.000000;
#BPMS:0.000000=139.970001
;
#STOPS:
;
#BGCHANGES:;
#KEYSOUNDS:;
#ATTACKS:;

//---------------dance-single - x scale 1----------------
#NOTES:
     dance-single:
     :
     Beginner:
     1:
     0.060930,0.113156,0.034817,0.034817,0.000000,49.000000,45.000000,4.000000,4.000000,0.000000,0.000000,0.060930,0.113156,0.034817,0.034817,0.000000,49.000000,45.000000,4.000000,4.000000,0.000000,0.000000:
0000
0000
0000
0000
,
0000
0000
0000
0000
,
0000
0000
0000
0000
,
0000
0000
0000
0000
,
0000
0000
0000
0000
,
0000
0000
0000
0000
,
0000
0000
0000
0000
,
0000
0000
0000
0000
,
1001
0000
0000
0000
,
0000
0000
0000
0000
,
0100
0000
0000
0000
,
0100
0000
0000
0000
,
1001
0000
0000
0000
,
0000
0000
0000
0000
,
0010
0000
0000
0000
,
0000
0000
0000
0000
,
0000
0000
1000
0000
,
0000
0000
1000
0000
,
0000
0000
0001
0000
,
0000
0000
0000
0000
,
0000
0000
0010
0000
,
0000
0000
0010
0000
,
0001
0000
0000
0000
,
0000
0000
0000
0000
,
1000
0000
0000
0000
,
0001
0000
0000
0000
,
0100
0000
0000
0000
,
0010
0000
0000
0000
,
0100
0000
0000
0000
,
0010
0000
0000
0000
,
1000
0000
0000
0000
,
0001
0000
0000
0000
,
2002
0000
0000
0000
,
0000
3003
0000
0000
,
0000
0010
0000
0000
,
0000
0000
0000
0000
,
2002
0000
0000
0000
,
0000
3003
0000
0000
,
0000
0100
0000
0000
,
0000
0000
0000
0000
,
0100
0000
0000
0000
,
0001
0000
0000
0000
,
1000
0000
0000
0000
,
0100
0000
0000
0000
,
0010
0000
0000
0000
,
1000
0000
0000
0000
,
0001
0000
0000
0000
,
0010
0000
0000
0000
,
0001
0000
0000
0000
,
1000
0000
0000
0000
,
0010
0000
0000
0000
,
0100
0000
0000
0000
,
0010
0000
0000
0000
,
1000
0000
0000
0000
,
0001
0000
0000
0000
,
0100
0000
0000
0000
,
0000
0000
0000
0000
,
0000
0000
0000
0000
,
1000
0000
0000
0000
,
0000
0000
0000
0000
,
0001
0000
0000
0000
,
0001
0000
0000
0000
,
0100
0000
0000
0000
,
0000
0000
0000
0000
,
0010
0000
0000
0000
,
0010
0000
0000
0000
;

//---------------dance-single - x scale 3----------------
#NOTES:
     dance-single:
     :
     Easy:
     3:
     0.105695,0.171039,0.052226,0.069634,0.000000,85.000000,79.000000,6.000000,8.000000,0.000000,0.000000,0.105695,0.171039,0.052226,0.069634,0.000000,85.000000,79.000000,6.000000,8.000000,0.000000,0.000000:
0000
0000
0000
0000
,
0000
0000
0000
0000
,
0000
0000
0000
0000
,
0000
0000
0000
0000
,
0000
0000
0000
0000
,
0000
0000
0000
0000
,
0000
0000
0000
0000
,
0000
0000
0000
0000
,
1001
0000
0000
0000
,
0100
0000
0000
0000
,
0010
0000
0000
0000
,
0010
0000
0000
0000
,
1001
0000
0000
0000
,
1000
0000
1000
0000
,
0001
0000
0000
0000
,
0100
0000
0001
0000
,
0000
0000
2000
3000
,
0000
0000
0020
0030
,
0000
0000
0200
0300
,
0100
0000
0000
0000
,
0000
0000
0002
0003
,
0000
0000
1000
0000
,
0001
0000
0010
0000
,
0110
0000
0000
0000
,
0010
0000
1000
0000
,
0100
0000
0000
0000
,
1000
1000
0000
0000
,
0001
0001
0000
0000
,
0100
0000
0010
0000
,
1000
0000
0000
0000
,
0010
0010
0000
0000
,
0100
0000
0100
0000
,
2002
0000
0000
0000
,
0000
3003
0001
0000
,
0000
1000
0000
0000
,
0000
0000
0000
0000
,
0220
0000
0000
0000
,
0000
0330
0010
0000
,
0000
0100
0000
0000
,
0000
0000
0000
0000
,
0001
0000
0001
0000
,
1000
0000
1000
0000
,
0010
0000
0010
0000
,
0100
0000
0000
0000
,
0010
0000
0010
0000
,
0100
0000
0100
0000
,
0001
0000
0001
0000
,
1000
0000
0000
0000
,
1000
0000
1000
0000
,
0010
0000
0010
0000
,
0001
0000
0001
0000
,
0100
0000
0000
0000
,
0100
0000
0100
0000
,
0010
0000
0010
0000
,
0001
0000
0001
0000
,
1000
0000
0000
0000
,
0000
0000
0000
0000
,
0000
0000
0000
0000
,
0010
0000
0000
0000
,
1000
0000
0000
0000
,
0100
0100
0000
0000
,
0001
0001
0000
0000
,
0100
0000
0000
0000
,
0010
0000
0000
0000
,
1000
1000
0000
0000
,
0001
0000
0110
0000
;

//---------------dance-single - x scale 6----------------
#NOTES:
     dance-single:
     :
     Medium:
     6:
     0.235016,0.371999,0.278537,0.174086,0.000000,189.000000,157.000000,32.000000,20.000000,0.000000,0.000000,0.235016,0.371999,0.278537,0.174086,0.000000,189.000000,157.000000,32.000000,20.000000,0.000000,0.000000:
0000
0000
0000
0000
,
0000
0000
0000
0000
,
0000
0000
0000
0000
,
0000
0000
0000
0000
,
0000
0000
0000
0000
,
0000
0000
0000
0000
,
0000
0000
0000
0000
,
0000
0000
0000
0000
,
1001
0000
1000
0000
,
0001
0000
0100
0010
,
0100
0000
0001
1000
,
0001
0000
0000
0000
,
0110
0000
1000
0000
,
0010
0000
0100
0100
,
0001
0000
0000
0000
,
1000
0100
0001
0000
,
0100
0010
2000
3000
,
0001
1000
0002
0003
,
0000
0010
0200
0310
,
1000
1000
0001
0001
,
1000
0000
0020
0030
,
0100
0010
0020
0030
,
2000
3000
0002
0003
,
0200
0000
0000
0300
,
1001
0000
0010
1000
,
0001
0000
1000
0010
,
0101
0101
1000
0001
,
1100
1100
0100
0000
,
0110
0000
0010
0100
,
0001
0000
0100
0010
,
1100
1100
0100
0001
,
0101
0101
1000
0000
,
0220
0000
0000
0000
0330
0000
0200
0002
,
0000
0300
0010
0013
,
0000
1001
0000
0000
,
1000
1000
0100
0000
,
2002
0000
0000
0000
3003
0000
2000
0020
,
0000
3000
0100
0130
,
0000
0110
0000
0000
,
0010
0001
0001
0000
,
0100
0010
1100
0101
,
1000
0001
0110
1001
,
0100
0010
0000
0000
1000
0000
0000
0000
,
0001
0000
0000
0000
,
1000
0100
0101
1001
,
0010
0001
1100
0110
,
1000
0100
0000
0000
0010
0000
0000
0000
,
0001
0000
0000
0000
,
0010
0010
0110
0101
,
0100
0100
1100
1001
,
0001
1000
0000
0000
1000
0000
0000
0000
,
0001
0000
0000
0000
,
0001
0001
1100
1001
,
1000
1000
0110
0101
,
0010
0100
0000
0000
0100
0000
0000
0000
,
0010
0000
0000
0000
,
0002
0000
0000
0003
,
2000
0000
0000
3000
,
0010
0000
0010
0000
,
0010
0000
1000
0001
,
0100
0100
0001
1000
,
0001
1000
0200
0300
,
1000
0000
1000
0000
,
1000
0000
0001
0100
,
0010
0010
0100
0001
,
0100
0001
0020
0030
;

//---------------dance-single - x scale 8----------------
#NOTES:
     dance-single:
     :
     Hard:
     8:
     0.317085,0.456104,0.261128,0.243720,0.000000,255.000000,225.000000,30.000000,28.000000,0.000000,0.000000,0.317085,0.456104,0.261128,0.243720,0.000000,255.000000,225.000000,30.000000,28.000000,0.000000,0.000000:
0000
0000
0000
0000
,
0000
0000
0000
0000
,
0000
0000
0000
0000
,
0000
0000
0000
0000
,
0000
0000
0000
0000
,
0000
0000
0000
0000
,
0000
0000
0000
0000
,
0000
0000
0000
0000
,
1001
0000
0010
1000
,
0100
0000
0000
0000
0001
0010
0001
0000
,
1000
0000
0100
0100
,
0001
0000
0000
0000
0000
1000
0010
0000
,
0110
0000
0000
0000
0001
0000
0100
0010
,
0000
0000
0000
0000
1000
0100
1000
0000
,
0010
0000
0000
0000
,
0001
1000
0001
0100
0010
0000
0000
0000
,
0100
0001
0202
0303
,
0100
1000
0010
0000
2020
0000
3030
0000
,
0000
1000
0001
0000
0200
0000
0310
0000
,
0100
0010
0100
0000
0001
0010
0001
0000
,
0100
0001
0022
0033
,
1000
0001
0100
0000
2200
0000
3300
0000
,
0020
0030
2000
3000
,
0002
0000
0000
0003
,
1000
0100
0000
0100
0001
0000
1000
0002
,
0010
0000
0000
0000
0013
0001
0100
0000
,
1100
0000
1100
0000
0010
0001
1000
0000
,
0101
0101
0200
0300
,
0001
1000
0000
1000
0010
0000
0001
0020
,
0100
0000
0000
0000
0130
0010
0001
0000
,
0011
0000
0011
0000
1000
0100
0001
0000
,
1010
1010
2000
3000
,
0220
0000
0000
0000
0330
0000
1000
0200
,
2000
3000
0310
0100
,
0000
0110
1000
0000
,
0010
1000
0001
0100
,
2002
0000
0000
0000
3003
0000
0010
0002
,
0020
0030
1003
0001
,
0000
1001
0100
0000
,
0001
0010
0100
1000
,
0001
0010
0001
0010
0100
0000
0100
0000
,
1000
0001
1000
0001
0100
0000
0100
0000
,
0010
1000
0000
0000
1000
0000
0000
0010
,
0100
0001
0010
0000
,
1000
0010
1000
0010
0001
0000
0001
0000
,
0010
0100
0010
0100
0001
0000
0001
0000
,
1000
0100
0000
0000
0100
0000
0000
1000
,
0010
0100
0001
0000
,
0100
1000
0100
1000
0010
0000
0010
0000
,
0100
0001
0100
0001
0010
0000
0010
0000
,
1000
0001
0000
0000
0001
0000
0000
1000
,
0100
1000
0001
0000
,
0001
0010
0001
0010
1000
0000
1000
0000
,
0100
0010
0100
0010
1000
0000
1000
0000
,
0001
0100
0000
0000
0100
0000
0000
0001
,
1000
0100
0001
0000
,
0220
0000
0000
0330
,
2002
0000
0000
3003
,
0010
0001
0000
0010
0001
0000
0010
0001
,
0000
0000
0000
0000
0100
1000
0100
0000
,
0011
0000
0011
0000
1000
0100
1000
0000
,
0101
0101
1001
0000
,
0100
0010
0000
0100
0010
0000
0100
0010
,
0000
0000
0000
0000
1000
0001
1000
0000
,
1010
0000
1010
0000
0001
1000
0001
0000
,
1100
1100
0110
0000
;

//---------------dance-single - x scale 10----------------
#NOTES:
     dance-single:
     :
     Challenge:
     10:
     0.386719,0.464809,0.052226,0.417805,0.052226,311.000000,305.000000,6.000000,48.000000,0.000000,0.000000,0.386719,0.464809,0.052226,0.417805,0.052226,311.000000,305.000000,6.000000,48.000000,0.000000,0.000000:
// measure 0
0000
0000
0000
0000
,  // measure 1
0000
0000
0000
0000
,  // measure 2
0000
0000
0000
0000
,  // measure 3
0000
0000
0000
0000
,  // measure 4
0000
0000
0000
0000
,  // measure 5
0000
0000
0000
0000
,  // measure 6
0000
0000
0000
0000
,  // measure 7
0000
0000
0000
0000
,  // measure 8
1001
0000
0000
0010
0100
0001
0100
0000
,  // measure 9
0110
0000
0000
0000
1000
0001
1000
0001
,  // measure 10
0100
0010
0000
0010
1000
0000
0001
1000
,  // measure 11
0100
1000
0000
0000
0000
0001
0010
0000
,  // measure 12
0010
0100
0010
0000
0001
0000
1000
0100
,  // measure 13
1000
0000
0000
0000
0001
0010
0100
0010
,  // measure 14
0100
1000
0000
0000
0000
0000
0000
1000
,  // measure 15
0100
1000
0100
0010
1000
0000
0001
0010
,  // measure 16
0000
0001
1000
0000
0020
0100
0030
0100
,  // measure 17
0010
1000
0001
0000
0200
0001
0300
0000
,  // measure 18
0100
0010
1000
0000
0102
0000
0013
0001
,  // measure 19
1000
0001
1000
0010
2000
0100
3100
0000
,  // measure 20
0010
1000
0001
1000
0020
0100
0030
1000
,  // measure 21
0010
0100
0001
0000
2000
0001
3000
0001
,  // measure 22
0200
0000
0300
0001
0002
1000
0003
0000
,  // measure 23
1100
0000
0000
0000
,  // measure 24
0010
0001
0000
0001
0100
0000
0100
1000
,  // measure 25
0010
0000
1000
0000
0001
0010
0001
0100
,  // measure 26
0002
0010
0023
0000
0031
1000
0100
1000
,  // measure 27
0200
1000
2300
0000
3001
0000
0000
0000
,  // measure 28
1000
0001
0000
0001
0100
0000
0100
0010
,  // measure 29
1000
0000
0010
0000
0100
0010
0100
0001
,  // measure 30
0200
0010
0320
0000
1030
0010
1000
0100
,  // measure 31
2000
0001
3002
0000
0103
0000
0010
0000
,  // measure 32
2010
0000
0100
0000
0001
0000
3100
0020
,  // measure 33
1000
1000
0230
0302
,  // measure 34
1003
0001
0100
0010
,  // measure 35
1000
0100
0010
0001
,  // measure 36
0201
0000
0010
0000
0001
0000
0310
2000
,  // measure 37
0100
0100
3002
0023
,  // measure 38
0031
0010
0100
1000
,  // measure 39
0001
1000
0010
0100
,  // measure 40
0010
0000
0000
0010
0000
0000
0010
0000
2000
0000
0001
0000
3002
0000
0000
0000
,  // measure 41
0103
0000
0001
0010
0000
0001
0010
0000
0200
0000
0010
0000
0320
0000
0000
0000
,  // measure 42
0031
0100
0010
0000
1000
0000
1000
0001
,  // measure 43
0100
0100
0100
0100
,  // measure 44
0010
0000
0000
0010
0000
0100
0010
0000
2000
0000
0010
0000
3020
0000
0000
0000
,  // measure 45
0130
0000
0000
0100
0000
0000
0100
0000
0002
0000
0100
0000
0203
0000
0000
0000
,  // measure 46
0310
1000
0100
0000
1000
0000
0001
0010
,  // measure 47
0100
0100
0100
0100
,  // measure 48
0001
0000
0000
0001
0000
0000
0001
0000
2000
0000
0100
0000
3200
0000
0000
0000
,  // measure 49
1300
0000
0100
0010
0000
0100
0010
0000
0002
0000
0010
0000
0023
0000
0000
0000
,  // measure 50
0130
0010
1000
0000
0001
0000
0001
1000
,  // measure 51
0100
0100
0100
0100
,  // measure 52
1000
0000
0000
1000
0000
0001
1000
0000
0020
0000
0100
0000
0230
0000
0000
0000
,  // measure 53
0310
0000
0000
0010
0000
0000
0010
0000
0002
0000
1000
0000
2003
0000
0000
0000
,  // measure 54
3100
1000
0001
0000
0100
0000
0010
1000
,  // measure 55
0010
0010
0010
0010
,  // measure 56
1000
1000
0001
0001
,  // measure 57
0100
0100
0010
0010
,  // measure 58
1000
0100
0000
0100
0010
0000
0010
0001
,  // measure 59
0100
0000
0000
0000
0010
0100
0010
0100
,  // measure 60
0002
0000
0023
0000
0031
0100
0001
0100
,  // measure 61
2000
3200
0310
0000
,  // measure 62
0100
0010
0000
0010
1000
0000
1000
0001
,  // measure 63
0100
0000
0000
0000
0001
1000
0001
1000
,  // measure 64
0020
0000
2030
0000
3001
0010
0001
0010
,  // measure 65
0002
0100
0200
0000
,  // measure 66
0000
0000
0000
0303
;
